osu file format v14

[General]
AudioFilename: audio.mp3
AudioLeadIn: 1601
PreviewTime: 11890
Countdown: 0
SampleSet: Soft
StackLeniency: 0.7
Mode: 0
LetterboxInBreaks: 0
WidescreenStoryboard: 0

[Editor]
Bookmarks: 12012,35220,54640,70351
DistanceSpacing: 1.3
BeatDivisor: 2
GridSize: 32
TimelineZoom: 1.15

[Metadata]
Title:Gabriel no Kazoe Uta
TitleUnicode:ガヴリールの数え歌
Artist:Vine (CV: Onishi Saori)
ArtistUnicode:ヴィーネ (CV: 大西沙織)
Creator:Pata-Mon
Version:Normal
Source:ガヴリールドロップアウト
Tags:Saori Gabriel Dropout Anime ED ending tv size
BeatmapID:1220015
BeatmapSetID:576262

[Difficulty]
HPDrainRate:4
CircleSize:3
OverallDifficulty:4
ApproachRate:5
SliderMultiplier:1.3
SliderTickRate:1

[Events]
//Background and Video events
Video,-200,"video.flv"
0,0,"BG.JPG",0,0
//Break Periods
2,56874,63827
//Storyboard Layer 0 (Background)
//Storyboard Layer 1 (Fail)
//Storyboard Layer 2 (Pass)
//Storyboard Layer 3 (Foreground)
//Storyboard Sound Samples

[TimingPoints]
399,483.870967741935,3,2,1,40,1,0
12012,-100,3,2,1,60,0,0
35220,465.116279069767,3,2,1,60,1,0
40680,422.535211267606,3,2,1,60,1,0
45675,394.736842105263,3,2,1,60,1,0
50325,365.853658536585,3,2,1,60,1,0
54640,317.460317460317,3,2,1,30,1,0
55592,300,3,2,1,30,1,0
55892,260.869565217391,3,2,1,30,1,0
57718,178.571428571429,3,2,1,30,1,0
58253,166.666666666667,3,2,1,30,1,0
58753,150,3,2,1,30,1,0
59570,111.111111111111,3,2,1,30,1,0
60815,80.6451612903226,3,2,1,30,1,0
61720,483.870967741935,3,2,1,30,1,0
64544,483.870967741935,3,2,1,60,1,0
70350,-100,3,2,1,50,0,0
72769,-100,3,2,1,30,0,0
73253,-100,3,2,1,40,0,0
81935,483.870967741935,3,2,1,40,1,0

[Colours]
Combo1 : 255,127,127
Combo2 : 255,207,63
Combo3 : 127,95,159
Combo4 : 191,191,255

[HitObjects]
162,158,399,6,0,P|228:156|322:134,1,130,2|2,0:0|0:0,0:0:0:0:
366,106,1124,1,0,0:0:0:0:
437,151,1366,2,0,L|430:254,1,65
425,300,1850,1,2,0:0:0:0:
266,360,2334,2,0,P|132:325|81:256,1,130,2|0,0:0|0:0,0:0:0:0:
70,179,3302,1,2,0:0:0:0:
238,194,3786,1,2,0:0:0:0:
238,194,6205,6,0,P|234:121|207:50,1,130,2|2,0:0|0:0,0:0:0:0:
140,31,6931,1,0,0:0:0:0:
63,67,7173,2,0,P|54:101|54:168,1,65
62,214,7657,1,2,0:0:0:0:
209,297,8140,2,0,P|270:300|360:282,1,130,2|0,0:0|0:0,0:0:0:0:
458,169,9108,1,2,0:0:0:0:
348,40,9592,1,2,0:0:0:0:
348,40,12011,5,0,0:0:0:0:
234,165,12495,2,0,L|143:160,1,65,2|0,0:0|0:0,0:0:0:0:
116,95,12979,2,0,L|25:100,1,65,2|0,0:0|0:0,0:0:0:0:
0,166,13463,2,0,P|41:272|148:329,1,130,2|2,0:0|0:0,0:0:0:0:
214,324,14431,1,2,0:0:0:0:
169,161,14915,2,0,L|183:64,1,65,2|0,0:0|0:0,0:0:0:0:
192,13,15398,1,2,0:0:0:0:
192,13,17818,5,0,0:0:0:0:
321,121,18302,2,0,P|319:159|294:213,1,65,2|0,0:0|0:0,0:0:0:0:
247,240,18786,2,0,P|249:278|274:332,1,65,2|0,0:0|0:0,0:0:0:0:
203,369,19269,2,0,P|139:363|56:329,1,130,2|2,0:0|0:0,0:0:0:0:
3,188,20237,1,2,0:0:0:0:
136,84,20721,2,0,L|247:93,1,65,2|0,0:0|0:0,0:0:0:0:
285,99,21205,1,2,0:0:0:0:
285,99,23624,5,0,0:0:0:0:
167,220,24108,2,0,L|80:215,1,65,2|0,0:0|0:0,0:0:0:0:
82,133,24592,2,0,L|169:128,1,65,2|0,0:0|0:0,0:0:0:0:
226,160,25076,2,0,P|283:158|353:119,1,130,2|2,0:0|0:0,0:0:0:0:
473,12,26044,1,2,0:0:0:0:
507,178,26528,1,2,0:0:0:0:
381,290,27011,1,2,0:0:0:0:
381,290,29431,5,0,0:0:0:0:
341,125,29915,2,0,L|234:137,1,65,2|0,0:0|0:0,0:0:0:0:
242,209,30398,2,0,L|135:197,1,65,2|0,0:0|0:0,0:0:0:0:
118,140,30882,2,0,P|53:140|-22:221,2,130,2|2|2,0:0|0:0|0:0,0:0:0:0:
249,247,32334,1,2,0:0:0:0:
249,247,32576,2,0,L|356:235,1,65,0|2,0:0|0:0,0:0:0:0:
314,240,35220,5,0,0:0:0:0:
463,162,35685,2,0,P|473:130|476:84,1,65,2|0,0:0|0:0,0:0:0:0:
441,22,36150,2,0,L|363:31,1,65,2|0,0:0|0:0,0:0:0:0:
324,96,36615,2,0,P|245:128|164:123,1,130,2|2,0:0|0:0,0:0:0:0:
47,59,37545,1,2,0:0:0:0:
63,227,38010,1,2,0:0:0:0:
63,227,38243,2,0,L|43:324,1,65,0|2,0:0|0:0,0:0:0:0:
50,291,40680,5,0,0:0:0:0:
206,353,41102,2,0,P|238:351|293:336,1,65,2|0,0:0|0:0,0:0:0:0:
320,275,41525,2,0,P|352:277|407:292,1,65,2|0,0:0|0:0,0:0:0:0:
459,321,41947,2,0,P|486:277|497:174,1,130,2|2,0:0|0:0,0:0:0:0:
410,57,42792,1,2,0:0:0:0:
256,127,43215,2,0,L|133:113,1,65,2|0,0:0|0:0,0:0:0:0:
107,108,43637,1,2,0:0:0:0:
107,108,45675,6,0,P|178:109|283:78,1,130,0|2,0:0|0:0,0:0:0:0:
308,54,46267,1,0,0:0:0:0:
308,54,46464,2,0,L|412:64,1,65,2|0,0:0|0:0,0:0:0:0:
430,122,46859,2,0,P|440:182|434:279,2,130,2|2|2,0:0|0:0|0:0,0:0:0:0:
265,159,48043,2,0,L|263:236,2,65,2|0|2,0:0|0:0|0:0,0:0:0:0:
265,159,50325,6,0,P|154:177|63:157,1,130,0|2,0:0|0:0,0:0:0:0:
53,165,50873,1,0,0:0:0:0:
53,165,51056,2,0,L|60:235,1,65,2|0,0:0|0:0,0:0:0:0:
101,303,51422,2,0,P|212:321|303:301,2,130,2|2|2,0:0|0:0|0:0,0:0:0:0:
153,142,52520,2,0,P|185:149|217:150,2,65,2|0|2,0:0|0:0|0:0,0:0:0:0:
256,192,54640,12,0,56674,0:0:0:0:
170,61,65027,6,0,P|208:50|247:50,1,65,2|0,0:0|0:0,0:0:0:0:
291,111,65511,2,0,P|329:121|368:122,1,65,2|0,0:0|0:0,0:0:0:0:
430,85,65995,2,0,P|440:138|441:242,1,130,2|2,0:0|0:0,0:0:0:0:
361,362,66963,1,2,0:0:0:0:
274,217,67447,2,0,L|192:211,1,65,2|0,0:0|0:0,0:0:0:0:
133,250,67931,2,0,L|51:244,1,65,2|0,0:0|0:0,0:0:0:0:
68,245,70350,5,0,0:0:0:0:
166,107,70834,2,0,P|224:83|327:83,1,130,2|0,0:0|0:0,0:0:0:0:
456,125,71802,2,0,L|448:278,1,130,2|0,0:0|0:0,0:0:0:0:
326,370,72769,1,2,0:0:0:0:
283,207,73253,2,0,L|291:54,1,130,2|2,0:0|0:0,0:0:0:0:
290,77,76156,5,0,0:0:0:0:
214,228,76640,2,0,P|211:345|281:434,1,130,2|0,0:0|0:0,0:0:0:0:
371,291,77608,1,0,0:0:0:0:
447,140,78092,2,0,P|450:23|380:-66,1,130,2|0,0:0|0:0,0:0:0:0:
290,77,79060,2,0,P|230:91|134:89,1,130,0|2,0:0|0:0,0:0:0:0:
162,93,81935,5,0,0:0:0:0:
214,254,82418,2,0,P|276:270|341:276,1,130,2|0,0:0|0:0,0:0:0:0:
504,230,83386,1,0,0:0:0:0:
397,98,83870,2,0,P|335:82|270:76,1,130,2|0,0:0|0:0,0:0:0:0:
132,176,84838,2,0,P|67:170|4:153,1,130,0|2,0:0|0:0,0:0:0:0:
