osu file format v14

[General]
AudioFilename: audio.mp3
AudioLeadIn: 1601
PreviewTime: 11890
Countdown: 0
SampleSet: Soft
StackLeniency: 0.7
Mode: 0
LetterboxInBreaks: 0
WidescreenStoryboard: 0

[Editor]
Bookmarks: 12012,35220,54640,70351
DistanceSpacing: 1
BeatDivisor: 1
GridSize: 32
TimelineZoom: 1.15

[Metadata]
Title:Gabriel no Kazoe Uta
TitleUnicode:ガヴリールの数え歌
Artist:Vine (CV: Onishi Saori)
ArtistUnicode:ヴィーネ (CV: 大西沙織)
Creator:Pata-Mon
Version:Easy
Source:ガヴリールドロップアウト
Tags:Saori Gabriel Dropout Anime ED ending tv size
BeatmapID:1220013
BeatmapSetID:576262

[Difficulty]
HPDrainRate:2
CircleSize:2.5
OverallDifficulty:2
ApproachRate:3
SliderMultiplier:1
SliderTickRate:1

[Events]
//Background and Video events
Video,-200,"video.flv"
0,0,"BG.JPG",0,0
//Break Periods
2,56874,63587
//Storyboard Layer 0 (Background)
//Storyboard Layer 1 (Fail)
//Storyboard Layer 2 (Pass)
//Storyboard Layer 3 (Foreground)
//Storyboard Sound Samples

[TimingPoints]
399,483.870967741935,3,2,1,40,1,0
12012,-100,3,2,1,60,0,0
14431,-100,3,2,1,40,0,0
14915,-100,3,2,1,60,0,0
20238,-100,3,2,1,40,0,0
20722,-100,3,2,1,60,0,0
26044,-100,3,2,1,40,0,0
26528,-100,3,2,1,60,0,0
31851,-100,3,2,1,40,0,0
32335,-100,3,2,1,60,0,0
35220,465.116279069767,3,2,1,60,1,0
37545,-100,3,2,1,40,0,0
38010,-100,3,2,1,60,0,0
40680,422.535211267606,3,2,1,60,1,0
42792,-100,3,2,1,40,0,0
43215,-100,3,2,1,60,0,0
45675,394.736842105263,3,2,1,60,1,0
47648,-100,3,2,1,40,0,0
48043,-100,3,2,1,60,0,0
50325,365.853658536585,3,2,1,60,1,0
52154,-100,3,2,1,40,0,0
52520,-100,3,2,1,60,0,0
54640,317.460317460317,3,2,1,30,1,0
55592,300,3,2,1,30,1,0
55892,260.869565217391,3,2,1,30,1,0
57718,178.571428571429,3,2,1,30,1,0
58253,166.666666666667,3,2,1,30,1,0
58753,150,3,2,1,30,1,0
59570,111.111111111111,3,2,1,30,1,0
60815,80.6451612903226,3,2,1,30,1,0
61720,483.870967741935,3,2,1,30,1,0
64544,483.870967741935,3,2,1,60,1,0
66963,-100,3,2,1,40,0,0
67447,-100,3,2,1,60,0,0
70350,-100,3,2,1,50,0,0
72769,-100,3,2,1,30,0,0
81935,483.870967741935,3,2,1,40,1,0

[Colours]
Combo1 : 255,127,127
Combo2 : 255,207,63
Combo3 : 127,95,159
Combo4 : 191,191,255

[HitObjects]
61,137,399,5,0,0:0:0:0:
137,72,882,2,0,P|172:61|243:56,1,100,2|0,0:0|0:0,0:0:0:0:
332,79,1850,1,0,0:0:0:0:
298,173,2334,2,0,P|296:228|314:290,1,100,2|0,0:0|0:0,0:0:0:0:
365,351,3302,1,0,0:0:0:0:
457,312,3786,1,2,0:0:0:0:
457,312,6205,5,0,0:0:0:0:
376,254,6689,2,0,P|325:248|211:284,1,100,2|0,0:0|0:0,0:0:0:0:
195,312,7657,1,0,0:0:0:0:
101,276,8140,2,0,P|73:238|61:154,1,100,2|0,0:0|0:0,0:0:0:0:
59,87,9108,1,0,0:0:0:0:
132,19,9592,1,2,0:0:0:0:
132,19,12011,5,0,0:0:0:0:
213,77,12495,2,0,P|264:83|378:47,1,100,2|0,0:0|0:0,0:0:0:0:
408,103,13463,2,0,P|424:158|419:231,1,100,2|0,0:0|0:0,0:0:0:0:
383,291,14431,1,2,0:0:0:0:
285,313,14915,2,0,L|185:307,1,100,2|2,0:0|0:0,0:0:0:0:
185,307,17818,5,0,0:0:0:0:
123,228,18302,2,0,P|113:182|117:101,1,100,2|0,0:0|0:0,0:0:0:0:
178,53,19269,2,0,P|227:65|307:64,1,100,2|0,0:0|0:0,0:0:0:0:
373,41,20237,1,2,0:0:0:0:
441,114,20721,2,0,P|444:163|441:213,1,100,2|2,0:0|0:0,0:0:0:0:
441,214,23624,5,0,0:0:0:0:
346,248,24108,2,0,P|298:247|197:203,1,100,2|0,0:0|0:0,0:0:0:0:
181,158,25076,2,0,P|133:159|32:203,1,100,2|0,0:0|0:0,0:0:0:0:
2,231,26044,1,2,0:0:0:0:
32,326,26528,1,2,0:0:0:0:
132,326,27011,1,2,0:0:0:0:
132,326,29431,5,0,0:0:0:0:
206,259,29915,2,0,P|255:248|305:247,1,100,2|0,0:0|0:0,0:0:0:0:
402,269,30882,2,0,P|413:220|414:170,1,100,2|0,0:0|0:0,0:0:0:0:
372,79,31850,1,2,0:0:0:0:
282,122,32334,2,0,P|232:120|183:109,1,100,2|2,0:0|0:0,0:0:0:0:
183,110,35220,5,0,0:0:0:0:
278,142,35685,2,0,P|329:148|443:112,1,100,2|0,0:0|0:0,0:0:0:0:
472,110,36615,2,0,P|492:163|492:242,1,100,2|0,0:0|0:0,0:0:0:0:
451,295,37545,1,2,0:0:0:0:
353,274,38010,1,2,0:0:0:0:
255,295,38475,1,2,0:0:0:0:
255,295,40680,5,0,0:0:0:0:
178,230,41102,2,0,P|162:187|161:104,1,100,2|0,0:0|0:0,0:0:0:0:
189,38,41947,2,0,L|310:45,1,100,2|0,0:0|0:0,0:0:0:0:
385,17,42792,1,2,0:0:0:0:
467,74,43215,2,0,P|482:121|487:170,1,100,2|2,0:0|0:0,0:0:0:0:
487,171,45675,5,0,0:0:0:0:
399,123,46069,2,0,P|345:125|259:162,1,100,2|0,0:0|0:0,0:0:0:0:
254,227,46859,2,0,P|200:225|114:188,1,100,2|0,0:0|0:0,0:0:0:0:
63,173,47648,1,2,0:0:0:0:
0,249,48043,1,2,0:0:0:0:
50,334,48438,1,2,0:0:0:0:
50,334,50325,5,0,0:0:0:0:
119,262,50690,2,0,P|130:223|128:144,1,100,2|0,0:0|0:0,0:0:0:0:
197,88,51422,2,0,P|261:94|340:120,1,100,2|0,0:0|0:0,0:0:0:0:
381,153,52154,1,2,0:0:0:0:
334,241,52520,2,0,P|336:302|356:366,1,100,2|2,0:0|0:0,0:0:0:0:
256,192,54640,12,0,56674,0:0:0:0:
219,38,65027,6,0,P|226:104|250:161,1,100,2|0,0:0|0:0,0:0:0:0:
328,178,65995,2,0,P|321:244|297:301,1,100,2|0,0:0|0:0,0:0:0:0:
242,349,66963,1,2,0:0:0:0:
163,288,67447,2,0,P|113:281|63:281,1,100,2|2,0:0|0:0,0:0:0:0:
63,281,70350,5,0,0:0:0:0:
45,182,70834,2,0,P|56:135|90:67,1,100,2|0,0:0|0:0,0:0:0:0:
169,49,71802,2,0,L|314:70,1,100,2|0,0:0|0:0,0:0:0:0:
366,79,72769,1,2,0:0:0:0:
303,157,73253,2,0,P|294:206|298:255,1,100,2|0,0:0|0:0,0:0:0:0:
298,256,76156,5,0,0:0:0:0:
198,270,76640,2,0,P|140:262|61:224,1,100,2|0,0:0|0:0,0:0:0:0:
11,204,77608,1,0,0:0:0:0:
35,107,78092,2,0,P|81:93|160:102,1,100,2|0,0:0|0:0,0:0:0:0:
222,140,79060,1,0,0:0:0:0:
311,94,79543,1,2,0:0:0:0:
311,94,81935,5,0,0:0:0:0:
397,144,82418,2,0,P|408:195|406:283,1,100,2|0,0:0|0:0,0:0:0:0:
386,340,83386,1,0,0:0:0:0:
291,306,83870,2,0,L|140:317,1,100,2|0,0:0|0:0,0:0:0:0:
115,379,84838,2,0,L|-36:368,1,100,0|2,0:0|0:0,0:0:0:0:
