osu file format v14

[General]
AudioFilename: audio.mp3
AudioLeadIn: 1601
PreviewTime: 11890
Countdown: 0
SampleSet: Soft
StackLeniency: 0.7
Mode: 0
LetterboxInBreaks: 0
WidescreenStoryboard: 0

[Editor]
Bookmarks: 12012,35220,54640,70351
DistanceSpacing: 1.2
BeatDivisor: 2
GridSize: 32
TimelineZoom: 1.15

[Metadata]
Title:Gabriel no Kazoe Uta
TitleUnicode:ガヴリールの数え歌
Artist:Vine (CV: Onishi Saori)
ArtistUnicode:ヴィーネ (CV: 大西沙織)
Creator:Pata-Mon
Version:Gabriel
Source:ガヴリールドロップアウト
Tags:Saori Gabriel Dropout Anime ED ending tv size
BeatmapID:1220014
BeatmapSetID:576262

[Difficulty]
HPDrainRate:5
CircleSize:3.8
OverallDifficulty:5
ApproachRate:7
SliderMultiplier:1.5
SliderTickRate:1

[Events]
//Background and Video events
Video,-200,"video.flv"
0,0,"BG.JPG",0,0
//Break Periods
2,61920,64127
//Storyboard Layer 0 (Background)
//Storyboard Layer 1 (Fail)
//Storyboard Layer 2 (Pass)
//Storyboard Layer 3 (Foreground)
//Storyboard Sound Samples

[TimingPoints]
399,483.870967741935,3,2,1,40,1,0
12012,-100,3,2,1,60,0,0
35220,465.116279069767,3,2,1,60,1,0
40680,422.535211267606,3,2,1,60,1,0
45675,394.736842105263,3,2,1,60,1,0
50325,365.853658536585,3,2,1,60,1,0
54640,317.460317460317,3,2,1,60,1,0
54640,-116.279069767442,3,2,1,60,0,0
55592,300,3,2,1,60,1,0
55592,-116.279069767442,3,2,1,60,0,0
55892,260.869565217391,3,2,1,60,1,0
55892,-116.279069767442,3,2,1,60,0,0
57718,178.571428571429,3,2,1,60,1,0
57718,-200,3,2,1,60,0,0
58253,166.666666666667,3,2,1,60,1,0
58253,-200,3,2,1,60,0,0
58419,-200,3,2,1,40,0,0
58586,-200,3,2,1,60,0,0
58753,150,3,2,1,60,1,0
58753,-200,3,2,1,60,0,0
59570,111.111111111111,3,2,1,30,1,0
60815,80.6451612903226,3,2,1,30,1,0
61720,483.870967741935,3,2,1,30,1,0
64544,483.870967741935,3,2,1,60,1,0
70350,-111.111111111111,3,2,1,50,0,0
72769,-111.111111111111,3,2,1,30,0,0
73253,-111.111111111111,3,2,1,40,0,0
76156,-125,3,2,1,40,0,0
81935,483.870967741935,3,2,1,40,1,0
81935,-142.857142857143,3,2,1,40,0,0

[Colours]
Combo1 : 255,127,127
Combo2 : 255,207,63
Combo3 : 127,95,159
Combo4 : 191,191,255

[HitObjects]
294,300,399,5,2,0:0:0:0:
393,150,883,2,0,P|392:112|387:75,1,75,2|0,0:0|0:0,0:0:0:0:
298,56,1367,2,0,P|297:94|292:131,1,75
217,181,1851,2,0,P|100:138|-14:179,1,150,2|2,0:0|0:0,0:0:0:0:
100,318,2818,1,0,0:0:0:0:
277,351,3302,1,2,0:0:0:0:
217,181,3786,1,2,0:0:0:0:
217,181,6206,5,2,0:0:0:0:
395,203,6689,2,0,P|437:201|499:185,1,75,2|0,0:0|0:0,0:0:0:0:
459,104,7173,2,0,P|417:106|355:122,1,75,0|0,0:0|0:0,0:0:0:0:
312,166,7657,2,0,P|260:175|132:135,1,150,2|2,0:0|0:0,0:0:0:0:
58,10,8625,1,0,0:0:0:0:
166,156,9109,1,2,0:0:0:0:
331,85,9593,1,2,0:0:0:0:
331,85,12012,5,0,0:0:0:0:
235,237,12496,1,2,0:0:0:0:
150,206,12738,1,0,0:0:0:0:
67,241,12980,2,0,P|56:283|57:319,1,75,2|0,0:0|0:0,0:0:0:0:
150,206,13463,2,0,P|149:134|135:20,1,150,2|2,0:0|0:0,0:0:0:0:
56,314,14431,1,2,0:0:0:0:
286,352,14915,1,2,0:0:0:0:
263,265,15157,1,0,0:0:0:0:
240,178,15399,1,2,0:0:0:0:
240,178,17818,5,0,0:0:0:0:
420,178,18302,1,2,0:0:0:0:
375,100,18544,1,0,0:0:0:0:
284,100,18786,1,2,0:0:0:0:
240,178,19028,1,0,0:0:0:0:
301,312,19270,2,0,P|340:254|330:178,1,150,2|2,0:0|0:0,0:0:0:0:
239,22,20238,1,2,0:0:0:0:
103,173,20722,2,0,P|145:173|212:163,1,75,2|0,0:0|0:0,0:0:0:0:
36,113,21206,1,2,0:0:0:0:
36,113,23625,5,0,0:0:0:0:
181,219,24109,1,2,0:0:0:0:
214,135,24351,1,0,0:0:0:0:
203,46,24593,2,0,P|172:33|126:30,1,75,2|0,0:0|0:0,0:0:0:0:
214,135,25077,2,0,P|292:61|223:-42,1,150,2|2,0:0|0:0,0:0:0:0:
47,64,26044,1,2,0:0:0:0:
291,26,26528,1,2,0:0:0:0:
189,174,27012,1,2,0:0:0:0:
189,174,29431,5,0,0:0:0:0:
296,29,29915,1,2,0:0:0:0:
296,29,30157,1,0,0:0:0:0:
296,29,30399,2,0,P|293:69|282:117,1,75,2|0,0:0|0:0,0:0:0:0:
199,208,30883,2,0,P|283:192|370:205,1,150,2|2,0:0|0:0,0:0:0:0:
512,269,31851,1,2,0:0:0:0:
368,377,32335,1,2,0:0:0:0:
309,309,32577,2,0,L|311:234,1,75,0|2,0:0|0:0,0:0:0:0:
311,234,35220,5,0,0:0:0:0:
137,188,35685,1,2,0:0:0:0:
224,211,35917,1,0,0:0:0:0:
311,234,36150,2,0,P|322:271|326:325,1,75,2|0,0:0|0:0,0:0:0:0:
224,211,36615,2,0,P|264:58|332:8,1,150,2|2,0:0|0:0,0:0:0:0:
400,175,37545,1,2,0:0:0:0:
282,337,38010,1,2,0:0:0:0:
200,300,38243,2,0,P|162:295|125:295,1,75,0|2,0:0|0:0,0:0:0:0:
125,295,40680,5,0,0:0:0:0:
278,202,41102,1,2,0:0:0:0:
306,116,41313,1,0,0:0:0:0:
233,63,41525,1,2,0:0:0:0:
160,116,41736,1,0,0:0:0:0:
278,202,41947,2,0,P|386:158|380:64,1,150,2|2,0:0|0:0,0:0:0:0:
160,116,42792,1,2,0:0:0:0:
222,285,43215,1,2,0:0:0:0:
308,310,43426,1,0,0:0:0:0:
397,309,43637,1,2,0:0:0:0:
397,309,45675,5,0,0:0:0:0:
374,130,46069,1,2,0:0:0:0:
312,64,46267,1,0,0:0:0:0:
228,32,46464,2,0,P|177:39|151:48,1,75,2|0,0:0|0:0,0:0:0:0:
84,157,46859,2,0,P|71:80|-9:32,1,150,2|2,0:0|0:0,0:0:0:0:
4,271,47648,1,2,0:0:0:0:
178,223,48043,2,0,P|190:181|194:140,1,75,2|0,0:0|0:0,0:0:0:0:
91,247,48438,1,2,0:0:0:0:
91,247,50325,5,0,0:0:0:0:
166,83,50690,1,2,0:0:0:0:
166,83,50873,1,0,0:0:0:0:
166,83,51056,2,0,P|179:137|168:191,1,75,2|0,0:0|0:0,0:0:0:0:
91,247,51422,2,0,P|161:243|261:297,1,150,2|2,0:0|0:0,0:0:0:0:
381,377,52154,1,2,0:0:0:0:
396,197,52520,1,2,0:0:0:0:
315,236,52703,1,0,0:0:0:0:
234,275,52885,1,2,0:0:0:0:
234,275,54640,5,0,0:0:0:0:
378,203,54957,2,0,P|385:174|386:123,1,64.5000009841919,2|0,0:0|0:0,0:0:0:0:
312,108,55274,2,0,P|305:137|304:188,1,64.5000009841919,2|0,0:0|0:0,0:0:0:0:
261,46,55592,2,0,P|197:46|100:86,1,129.000001968384,2|2,0:0|0:0,0:0:0:0:
11,158,56152,1,2,0:0:0:0:
153,219,56413,2,0,P|217:219|314:179,1,129.000001968384,2|2,0:0|0:0,0:0:0:0:
279,200,57718,5,2,0:0:0:0:
336,131,57896,2,0,L|332:85,3,37.5,2|0|2|0,0:0|0:0|0:0|0:0,0:0:0:0:
307,51,58253,2,0,P|188:79|141:137,1,150,2|2,0:0|0:0,0:0:0:0:
122,183,58753,2,0,P|80:184|14:160,1,75,2|2,0:0|0:0,0:0:0:0:
256,192,59570,12,0,61720,0:0:0:0:
119,17,65027,6,0,P|122:61|157:127,1,75,2|0,0:0|0:0,0:0:0:0:
213,130,65511,2,0,P|210:174|175:240,1,75,2|0,0:0|0:0,0:0:0:0:
100,285,65995,2,0,P|191:290|258:313,1,150,2|2,0:0|0:0,0:0:0:0:
412,378,66963,1,2,0:0:0:0:
498,220,67447,2,0,P|497:178|488:133,1,75,2|0,0:0|0:0,0:0:0:0:
401,151,67931,2,0,P|402:193|411:238,1,75,2|0,0:0|0:0,0:0:0:0:
408,225,70350,5,0,0:0:0:0:
251,268,70834,2,0,P|213:266|134:244,1,67.4999979400635,2|0,0:0|0:0,0:0:0:0:
149,188,71318,2,0,P|111:189|32:212,1,67.4999979400635,2|0,0:0|0:0,0:0:0:0:
13,237,71802,2,0,P|7:162|108:117,2,134.999995880127,2|2|2,0:0|0:0|0:0,0:0:0:0:
169,280,73253,2,0,P|210:229|201:164,1,134.999995880127,2|2,0:0|0:0,0:0:0:0:
201,164,76156,5,0,0:0:0:0:
342,115,76640,2,0,P|348:78|345:23,1,60,2|0,0:0|0:0,0:0:0:0:
423,46,77124,2,0,P|429:83|426:138,1,60
392,171,77608,2,0,P|385:232|417:303,2,120,0|2|0,0:0|0:0|0:0,0:0:0:0:
246,133,79060,2,0,P|175:143|106:173,1,120,0|2,0:0|0:0,0:0:0:0:
130,162,81935,5,0,0:0:0:0:
256,86,82418,2,0,P|292:79|332:84,1,52.4999983978272,2|0,0:0|0:0,0:0:0:0:
362,131,82902,2,0,P|398:137|438:133,1,52.4999983978272
488,129,83386,2,0,P|504:180|501:252,2,104.999996795654,0|2|0,0:0|0:0|0:0,0:0:0:0:
342,152,84838,2,0,P|343:204|358:254,1,104.999996795654,0|2,0:0|0:0,0:0:0:0:
