osu file format v14

[General]
AudioFilename: audio.mp3
AudioLeadIn: 0
PreviewTime: -1
Countdown: 0
SampleSet: Soft
StackLeniency: 0.7
Mode: 0
LetterboxInBreaks: 0
WidescreenStoryboard: 0

[Editor]
DistanceSpacing: 0.3
BeatDivisor: 4
GridSize: 8
TimelineZoom: 2

[Metadata]
Title:BagBak
TitleUnicode:BagBak
Artist:Vince Staples
ArtistUnicode:Vince Staples
Creator:Ayy Dashh
Version:Hard
Source:
Tags:BagBak VinceStaples Jumps Fun Streams
BeatmapID:1363106
BeatmapSetID:642987

[Difficulty]
HPDrainRate:6
CircleSize:5
OverallDifficulty:7.5
ApproachRate:9
SliderMultiplier:1.4
SliderTickRate:1

[Events]
//Background and Video events
0,0,"Osu BakPag BGR.jpg",0,0
//Break Periods
//Storyboard Layer 0 (Background)
//Storyboard Layer 1 (Fail)
//Storyboard Layer 2 (Pass)
//Storyboard Layer 3 (Foreground)
//Storyboard Sound Samples

[TimingPoints]
6159.93396587317,365.987556423082,4,2,0,100,1,0

[HitObjects]
80,96,12015,6,0,P|80:184|80:184,1,70
176,96,12381,1,0,0:0:0:0:
256,96,12564,1,0,0:0:0:0:
216,40,12747,1,0,0:0:0:0:
184,96,12930,1,0,0:0:0:0:
184,168,13113,2,0,L|184:248,1,70
256,168,13479,2,0,L|256:264,1,70
320,328,13845,1,0,0:0:0:0:
184,328,14028,1,0,0:0:0:0:
256,256,14211,1,0,0:0:0:0:
320,328,14394,1,0,0:0:0:0:
376,264,14577,6,0,B|400:224|392:192|392:192,1,70
328,112,14943,1,0,0:0:0:0:
328,112,15035,1,0,0:0:0:0:
328,112,15126,1,0,0:0:0:0:
328,112,15218,1,0,0:0:0:0:
328,112,15309,1,0,0:0:0:0:
384,160,15492,1,0,0:0:0:0:
354,241,15675,2,0,P|298:279|265:275,1,70
210,288,16041,5,0,0:0:0:0:
257,80,16224,1,0,0:0:0:0:
336,254,16407,1,0,0:0:0:0:
175,110,16590,1,0,0:0:0:0:
251,284,16773,1,0,0:0:0:0:
96,132,16956,1,0,0:0:0:0:
147,312,17139,1,0,0:0:0:0:
31,161,17322,1,0,0:0:0:0:
80,328,17505,1,0,0:0:0:0:
192,296,17688,1,0,0:0:0:0:
272,280,17871,6,0,P|328:256|328:232,1,70
352,192,18237,1,0,0:0:0:0:
352,96,18420,1,0,0:0:0:0:
176,272,18603,1,0,0:0:0:0:
176,88,18786,1,0,0:0:0:0:
264,288,18969,1,0,0:0:0:0:
72,112,19152,1,0,0:0:0:0:
72,272,19335,1,0,0:0:0:0:
264,112,19518,1,0,0:0:0:0:
264,272,19701,1,0,0:0:0:0:
72,112,19884,1,0,0:0:0:0:
72,272,20067,1,0,0:0:0:0:
264,112,20250,1,0,0:0:0:0:
264,272,20433,1,0,0:0:0:0:
72,112,20616,1,0,0:0:0:0:
164,90,20799,5,0,0:0:0:0:
184,85,20890,1,0,0:0:0:0:
201,81,20982,1,0,0:0:0:0:
216,78,21073,1,0,0:0:0:0:
226,76,21165,1,0,0:0:0:0:
317,75,21348,1,0,0:0:0:0:
370,142,21531,6,0,P|343:191|327:195,1,70
192,208,21897,1,0,0:0:0:0:
120,120,22080,1,0,0:0:0:0:
56,208,22263,1,0,0:0:0:0:
208,128,22446,1,0,0:0:0:0:
104,264,22629,1,0,0:0:0:0:
384,120,22812,1,0,0:0:0:0:
424,184,22995,2,0,P|416:240|392:248,2,70
328,192,23544,5,0,0:0:0:0:
128,192,23727,1,0,0:0:0:0:
