osu file format v14

[General]
AudioFilename: audio.mp3
AudioLeadIn: 0
PreviewTime: -1
Countdown: 1
SampleSet: Soft
StackLeniency: 0.7
Mode: 0
LetterboxInBreaks: 0
WidescreenStoryboard: 0

[Editor]
Bookmarks: 1598,13750,25902,52485,79826,104130,128434,152168,177041,178560,204383
DistanceSpacing: 0.4
BeatDivisor: 4
GridSize: 4
TimelineZoom: 1.550004

[Metadata]
Title:The Sacred Story
TitleUnicode:The Sacred Story
Artist:Vila
ArtistUnicode:Vila
Creator:kiddly
Version:aaaa
Source:
Tags:
BeatmapID:992363
BeatmapSetID:463443

[Difficulty]
HPDrainRate:5
CircleSize:5
OverallDifficulty:8
ApproachRate:9
SliderMultiplier:1.4
SliderTickRate:1

[Events]
//Background and Video events
//Break Periods
2,56006,79226
//Storyboard Layer 0 (Background)
//Storyboard Layer 1 (Fail)
//Storyboard Layer 2 (Pass)
//Storyboard Layer 3 (Foreground)
//Storyboard Sound Samples

[TimingPoints]
80,379.746835443038,4,2,0,100,1,0
12991,-66.6666666666667,4,2,0,100,0,0
13750,-83.3333333333333,4,2,0,100,0,0
24383,-66.6666666666667,4,2,0,100,0,0
25902,-83.3333333333333,4,2,0,100,0,0
35776,-100,4,2,0,100,0,0
46978,-66.6666666666667,4,2,0,100,0,0
47168,-76.9230769230769,4,2,0,100,0,0
50206,-71.4285714285714,4,2,0,100,0,0
50776,-66.6666666666667,4,2,0,100,0,0
52485,379.746835443038,4,2,0,100,1,0
52485,-83.3333333333333,4,2,0,100,0,0
79826,-100,4,2,0,100,0,0
91978,-83.3333333333333,4,2,0,100,0,0

[HitObjects]
140,244,1598,6,0,L|260:236,1,105
265,235,1978,1,0,0:0:0:0:
368,170,2168,2,0,L|352:309,1,140
464,316,2738,2,0,L|471:246,1,70
472,160,3117,6,0,L|459:45,1,105
458,34,3497,1,0,0:0:0:0:
328,48,3687,2,0,L|359:61,2,35
313,50,3972,1,0,0:0:0:0:
299,52,4067,1,0,0:0:0:0:
216,104,4257,2,0,B|184:116|184:116|112:104,1,105
36,112,4636,6,0,P|20:164|44:200,1,70
120,180,5016,1,0,0:0:0:0:
72,256,5206,2,0,L|176:249,2,105
128,324,5966,1,0,0:0:0:0:
268,284,6155,6,0,L|261:353,1,70
244,184,6535,1,0,0:0:0:0:
340,228,6725,1,0,0:0:0:0:
340,220,6819,1,0,0:0:0:0:
341,213,6915,2,0,L|333:153,2,35
428,260,7295,2,0,L|424:290,5,23.3333333333333
430,246,7674,6,0,L|438:134,1,105
348,336,8244,2,0,P|312:348|243:343,1,105
228,336,8624,1,0,0:0:0:0:
132,292,8814,2,0,P|103:285|52:297,1,70
172,188,9193,6,0,B|190:156|190:156|156:84,1,105
149,66,9573,1,0,0:0:0:0:
236,52,9763,1,0,0:0:0:0:
76,104,9953,2,0,L|16:112,2,35
305,44,10333,2,0,L|235:52,1,70
370,127,10712,6,0,B|361:162|361:162|385:226,1,105
406,228,11092,1,0,0:0:0:0:
334,299,11377,1,0,0:0:0:0:
313,297,11472,2,0,L|243:304,1,70
48,324,11852,2,0,L|118:331,1,70
128,324,12136,1,0,0:0:0:0:
140,316,12231,6,0,L|132:228,2,70
124,144,12801,1,0,0:0:0:0:
211,224,12991,2,0,L|223:222,6,13.125000500679
206,155,13181,2,0,L|219:154,6,13.125000500679
124,144,13371,2,0,L|71:146,1,52.5000020027161
133,246,13561,2,0,L|80:248,1,52.5000020027161
29,200,13750,6,0,B|78:181|104:224|177:186,1,125.999996154785
224,188,14130,1,0,0:0:0:0:
300,284,14320,2,0,L|296:336,1,41.9999987182618
296,325,14700,5,0,0:0:0:0:
354,231,14890,2,0,P|409:248|436:292,1,83.9999974365235
475,338,15174,1,0,0:0:0:0:
482,357,15269,2,0,L|496:274,1,83.9999974365235
306,81,15649,6,0,L|291:163,1,83.9999974365235
237,208,15934,1,0,0:0:0:0:
245,227,16029,2,0,L|288:232,1,41.9999987182618
412,119,16219,2,0,L|370:123,1,41.9999987182618
201,89,16409,5,0,0:0:0:0:
174,115,16504,1,0,0:0:0:0:
169,153,16598,1,0,0:0:0:0:
189,186,16693,1,0,0:0:0:0:
245,227,16788,6,0,B|330:217|330:217|375:259,1,125.999996154785
402,349,17168,1,0,0:0:0:0:
196,316,17358,2,0,B|111:326|111:326|66:284,1,125.999996154785
313,302,17928,5,0,0:0:0:0:
241,185,18117,2,0,L|249:137,1,41.9999987182618
339,125,18307,2,0,B|323:214|323:214|281:238,1,125.999996154785
241,185,18687,2,0,L|127:166,1,83.9999974365235
113,224,18972,1,0,0:0:0:0:
93,158,19067,6,0,L|39:148,1,41.9999987182618
138,289,19257,2,0,L|206:280,1,41.9999987182618
269,107,19447,5,0,0:0:0:0:
227,86,19542,1,0,0:0:0:0:
181,85,19636,1,0,0:0:0:0:
140,106,19731,1,0,0:0:0:0:
93,158,19826,6,0,L|108:310,1,125.999996154785
52,245,20206,2,0,P|71:225|97:219,1,41.9999987182618
155,334,20396,1,0,0:0:0:0:
155,334,20776,5,0,0:0:0:0:
167,179,20966,2,0,L|158:77,1,83.9999974365235
206,236,21345,5,0,0:0:0:0:
381,251,21535,1,0,0:0:0:0:
193,123,21725,5,0,0:0:0:0:
105,202,21915,1,0,0:0:0:0:
296,354,22105,5,0,0:0:0:0:
90,372,22295,1,0,0:0:0:0:
424,384,22485,5,0,0:0:0:0:
381,251,22675,1,0,0:0:0:0:
225,299,22864,5,0,2:0:0:0:
178,287,22959,1,0,2:0:0:0:
148,249,23054,1,0,2:0:0:0:
101,237,23149,1,0,2:0:0:0:
89,190,23244,1,0,2:0:0:0:
124,156,23339,1,0,2:0:0:0:
171,170,23434,1,0,2:0:0:0:
183,216,23529,1,0,2:0:0:0:
178,287,23624,5,0,0:0:0:0:
227,279,23719,1,0,0:0:0:0:
276,272,23814,1,0,0:0:0:0:
302,228,23909,1,0,0:0:0:0:
320,180,24004,1,0,0:0:0:0:
302,228,24098,1,0,0:0:0:0:
352,223,24193,1,0,0:0:0:0:
402,218,24288,1,0,0:0:0:0:
464,259,24383,6,0,L|481:190,1,52.5000020027161
360,65,24573,2,0,L|347:115,1,52.5000020027161
249,232,24763,2,0,L|316:226,1,52.5000020027161
512,341,24953,2,0,L|459:345,1,52.5000020027161
273,166,25143,5,0,0:0:0:0:
210,174,25238,1,0,0:0:0:0:
147,182,25333,1,0,0:0:0:0:
84,190,25428,1,0,0:0:0:0:
122,239,25523,5,0,0:0:0:0:
147,182,25617,1,0,0:0:0:0:
168,122,25712,1,0,0:0:0:0:
230,113,25807,1,0,0:0:0:0:
325,106,25902,5,0,0:0:0:0:
444,348,26282,2,0,B|452:292|452:292|464:280|464:280|472:228,1,125.999996154785
480,132,26662,1,0,0:0:0:0:
372,84,26946,1,0,0:0:0:0:
360,183,27042,2,0,P|288:158|232:186,1,125.999996154785
192,232,27421,6,0,L|204:332,1,83.9999974365235
88,140,27801,2,0,P|80:99|99:63,1,83.9999974365235
32,328,28181,2,0,L|114:310,1,83.9999974365235
160,112,28561,2,0,L|269:87,1,83.9999974365235
284,80,28845,1,0,0:0:0:0:
272,120,28940,1,0,0:0:0:0:
288,320,29320,5,0,0:0:0:0:
336,268,29604,1,0,0:0:0:0:
270,253,29700,2,0,B|248:240|248:240|176:252,1,83.9999974365235
444,292,30080,2,0,L|426:374,1,83.9999974365235
456,224,30459,2,0,L|511:218,1,55.9999982910157
345,242,30712,1,0,0:0:0:0:
364,164,30839,6,0,L|380:92,1,41.9999987182618
260,236,31124,1,0,0:0:0:0:
272,248,31219,2,0,B|240:260|240:260|136:256,1,125.999996154785
80,248,31598,1,0,0:0:0:0:
168,80,31788,1,0,0:0:0:0:
180,152,31978,6,0,B|148:172|148:172|92:164,1,83.9999974365235
44,140,32263,1,0,0:0:0:0:
36,120,32358,1,0,0:0:0:0:
76,240,32548,1,0,0:0:0:0:
100,352,32738,1,0,0:0:0:0:
108,332,32833,2,0,L|212:337,1,83.9999974365235
264,296,33118,2,0,P|312:308|356:288,1,83.9999974365235
492,140,33497,6,0,B|440:148|440:148|424:164|424:164|340:180,1,125.999996154785
304,188,33877,1,0,0:0:0:0:
140,224,34067,1,0,0:0:0:0:
219,203,34257,1,0,0:0:0:0:
224,184,34352,1,0,0:0:0:0:
288,288,34541,1,0,0:0:0:0:
283,307,34636,2,0,L|240:312,1,41.9999987182618
108,364,34826,2,0,L|119:323,1,41.9999987182618
140,224,35016,6,0,P|104:237|56:233,1,83.9999974365235
136,92,35396,1,0,0:0:0:0:
44,101,35586,1,0,0:0:0:0:
192,160,35777,5,0,0:0:0:0:
226,157,35871,1,0,0:0:0:0:
256,156,35966,2,0,L|232:208,1,35
320,108,36155,1,0,0:0:0:0:
354,111,36249,1,0,0:0:0:0:
384,112,36344,2,0,L|360:60,1,35
424,208,36535,6,0,L|438:239,3,35
420,348,36915,6,0,L|405:316,1,35
368,256,37105,2,0,L|308:260,1,35
292,324,37295,5,0,0:0:0:0:
211,327,37421,1,0,0:0:0:0:
131,331,37547,1,0,0:0:0:0:
93,270,37674,1,0,0:0:0:0:
170,266,37801,1,0,0:0:0:0:
248,264,37928,1,0,0:0:0:0:
131,331,38054,6,0,B|155:251|155:251|115:187,1,140
32,180,38624,1,0,0:0:0:0:
88,64,38814,1,0,0:0:0:0:
72,44,38908,2,0,L|53:111,1,70
148,132,39193,2,0,L|248:124,1,70
288,120,39478,1,0,0:0:0:0:
280,140,39573,5,0,0:0:0:0:
252,248,39763,1,0,0:0:0:0:
400,316,39953,2,0,P|410:283|399:250,1,70
320,304,40333,2,0,B|260:332|260:332|212:324,1,105
88,344,40712,2,0,L|157:353,1,70
144,212,41092,6,0,B|116:112|116:112|128:56,1,140
224,88,41662,1,0,0:0:0:0:
344,32,41852,2,0,L|332:65,1,35
348,244,42136,1,0,0:0:0:0:
360,211,42231,2,0,P|402:181|454:183,1,105
488,244,42611,5,0,0:0:0:0:
472,312,42738,1,0,0:0:0:0:
408,320,42864,1,0,0:0:0:0:
344,328,42991,2,0,L|256:296,1,70
120,264,43371,2,0,L|208:296,1,70
240,232,43655,1,0,0:0:0:0:
252,212,43749,2,0,P|238:178|244:140,1,70
320,164,44130,5,0,0:0:0:0:
299,54,44320,1,0,0:0:0:0:
447,148,44510,1,0,0:0:0:0:
432,151,44605,1,0,0:0:0:0:
423,22,44795,1,0,0:0:0:0:
407,25,44890,1,0,0:0:0:0:
364,99,45080,1,0,0:0:0:0:
304,268,45269,5,0,0:0:0:0:
372,264,45396,1,0,0:0:0:0:
440,260,45523,1,0,0:0:0:0:
380,192,45649,1,0,0:0:0:0:
360,352,45839,1,0,0:0:0:0:
364,332,45934,1,0,0:0:0:0:
224,352,46124,1,0,0:0:0:0:
229,333,46219,1,0,0:0:0:0:
196,248,46409,6,0,B|124:264|124:264|69:255,1,105
40,212,46788,1,0,0:0:0:0:
20,192,46883,1,0,0:0:0:0:
4,172,46978,2,0,L|60:180,1,52.5000020027161
128,168,47168,5,0,0:0:0:0:
154,153,47262,1,0,0:0:0:0:
184,148,47357,1,0,0:0:0:0:
214,153,47452,1,0,0:0:0:0:
276,176,47548,5,0,0:0:0:0:
302,191,47642,1,0,0:0:0:0:
332,196,47737,1,0,0:0:0:0:
362,191,47832,1,0,0:0:0:0:
420,160,47928,5,0,0:0:0:0:
425,137,48022,1,0,0:0:0:0:
428,116,48117,2,0,L|412:60,1,45.4999979171754
472,200,48307,5,0,0:0:0:0:
468,220,48401,1,0,0:0:0:0:
464,236,48496,2,0,L|503:212,1,45.4999979171754
464,344,48687,6,0,P|464:308|448:284,3,45.4999979171754
372,324,49067,1,0,0:0:0:0:
364,332,49162,1,0,0:0:0:0:
355,339,49257,2,0,L|399:331,1,45.4999979171754
284,336,49447,1,0,0:0:0:0:
239,343,49541,1,0,0:0:0:0:
194,350,49636,1,0,0:0:0:0:
149,358,49731,1,0,0:0:0:0:
104,368,49826,1,0,0:0:0:0:
119,325,49920,1,0,0:0:0:0:
135,282,50015,1,0,0:0:0:0:
151,240,50110,1,0,0:0:0:0:
164,200,50206,5,0,0:0:0:0:
206,80,50396,2,0,B|250:76|250:76|270:80|270:80|304:76,1,97.9999970092774
96,88,50776,1,0,0:0:0:0:
416,88,51155,5,0,0:0:0:0:
348,200,51346,1,0,0:0:0:0:
334,134,52485,6,0,B|465:120,1,125.999996154785
500,146,52864,1,0,0:0:0:0:
464,157,52959,1,0,0:0:0:0:
426,158,53054,1,0,0:0:0:0:
389,147,53149,1,0,0:0:0:0:
358,124,53244,1,0,0:0:0:0:
328,100,53339,1,0,0:0:0:0:
292,86,53434,1,0,0:0:0:0:
254,85,53529,1,0,0:0:0:0:
217,95,53624,1,0,0:0:0:0:
190,122,53719,1,0,0:0:0:0:
178,158,53814,1,0,0:0:0:0:
182,195,53909,1,0,0:0:0:0:
221,250,54003,5,0,0:0:0:0:
264,234,54098,1,0,0:0:0:0:
310,232,54193,1,0,0:0:0:0:
354,242,54288,1,0,0:0:0:0:
394,264,54383,5,0,0:0:0:0:
349,258,54478,1,0,0:0:0:0:
303,265,54573,1,0,0:0:0:0:
262,284,54668,1,0,0:0:0:0:
205,318,54763,5,0,0:0:0:0:
188,314,54858,1,0,0:0:0:0:
172,308,54953,1,0,0:0:0:0:
158,298,55048,1,0,0:0:0:0:
113,325,55143,5,0,0:0:0:0:
104,310,55238,1,0,0:0:0:0:
96,295,55333,1,0,0:0:0:0:
94,278,55428,1,0,0:0:0:0:
50,224,55522,6,0,P|65:212|105:214,3,41.9999987182618
36,64,79826,6,0,L|125:57,1,70
128,56,80111,1,0,0:0:0:0:
248,40,80395,1,0,0:0:0:0:
220,256,80585,2,0,L|229:186,1,70
232,168,80870,1,0,0:0:0:0:
116,236,81155,1,0,0:0:0:0:
44,256,81345,5,0,0:0:0:0:
208,328,81725,1,0,0:0:0:0:
136,348,81915,1,0,0:0:0:0:
220,256,82105,2,0,L|289:252,1,70
360,308,82485,2,0,P|392:336|428:336,1,70
456,268,82769,1,0,0:0:0:0:
436,264,82864,6,0,B|448:200|448:200|420:144,1,105
396,96,83245,1,0,0:0:0:0:
430,29,83434,1,0,0:0:0:0:
317,94,83624,2,0,L|237:98,2,70
220,204,84193,1,0,0:0:0:0:
224,187,84287,1,0,0:0:0:0:
228,170,84382,5,0,0:0:0:0:
120,172,84573,1,0,0:0:0:0:
28,224,84763,1,0,0:0:0:0:
32,120,84954,1,0,0:0:0:0:
117,241,85143,2,0,L|120:172,1,70
256,352,85522,1,0,0:0:0:0:
255,317,85616,1,0,0:0:0:0:
253,282,85711,1,0,0:0:0:0:
404,332,85902,5,0,0:0:0:0:
392,172,86092,2,0,L|395:241,1,70
492,196,86472,1,0,0:0:0:0:
460,80,86662,2,0,P|436:92|384:84,1,70
396,72,86947,1,0,0:0:0:0:
398,54,87041,1,0,0:0:0:0:
300,148,87231,1,0,0:0:0:0:
288,228,87421,6,0,L|283:262,2,35
312,64,87801,2,0,L|228:72,1,70
60,152,88181,2,0,L|129:145,1,70
149,143,88466,1,0,0:0:0:0:
166,141,88560,1,0,0:0:0:0:
280,132,88750,1,0,0:0:0:0:
152,256,88940,6,0,L|160:192,2,35
76,352,89320,1,0,0:0:0:0:
92,351,89415,2,0,L|172:347,1,70
325,304,89700,2,0,L|256:308,1,70
240,296,89985,5,0,0:0:0:0:
229,283,90079,1,0,0:0:0:0:
220,270,90174,1,0,0:0:0:0:
228,256,90269,1,0,0:0:0:0:
238,243,90364,1,0,0:0:0:0:
248,228,90459,6,0,L|243:180,1,35
233,60,90650,2,0,L|237:107,1,35
340,183,90840,2,0,L|380:187,1,35
332,88,91030,2,0,L|371:76,1,35
444,48,91219,5,0,0:0:0:0:
456,51,91313,1,0,0:0:0:0:
467,55,91408,1,0,0:0:0:0:
478,59,91503,1,0,0:0:0:0:
488,64,91598,2,0,L|476:0,1,35
488,200,91788,2,0,L|481:234,1,35
464,312,91978,6,0,B|448:340|448:340|360:352,1,83.9999974365235
232,320,92358,2,0,B|176:304|176:304|136:320,1,83.9999974365235
88,344,92643,1,0,0:0:0:0:
72,352,92738,2,0,L|84:264,1,83.9999974365235
64,52,93117,2,0,L|53:135,1,83.9999974365235
128,188,93497,6,0,P|189:168|256:176,1,125.999996154785
272,244,93877,2,0,B|268:272|268:272|308:344,1,83.9999974365235
368,336,94162,1,0,0:0:0:0:
388,340,94257,2,0,L|404:236,1,83.9999974365235
472,40,94636,2,0,L|456:144,1,83.9999974365235
446,142,94921,1,0,0:0:0:0:
432,158,95016,6,0,L|328:166,2,83.9999974365235
333,38,95586,1,0,0:0:0:0:
336,58,95680,1,0,0:0:0:0:
339,79,95775,5,0,0:0:0:0:
179,38,96029,1,0,0:0:0:0:
164,164,96282,2,0,B|125:166|125:166|109:158,1,55.9999982910157
40,240,96535,6,0,L|151:233,1,111.999996582031
220,224,96915,1,0,0:0:0:0:
217,241,97041,1,0,0:0:0:0:
360,233,97295,2,0,L|472:240,2,111.999996582031
476,160,98054,6,0,P|483:107|457:61,1,83.9999974365235
296,136,98434,2,0,L|388:132,1,83.9999974365235
408,132,98719,1,0,0:0:0:0:
396,112,98814,1,0,0:0:0:0:
320,24,99003,1,0,0:0:0:0:
320,37,99097,1,0,0:0:0:0:
321,52,99192,1,0,0:0:0:0:
328,220,99383,1,0,0:0:0:0:
216,216,99573,6,0,L|132:212,1,83.9999974365235
40,159,99953,2,0,P|27:198|36:239,1,83.9999974365235
56,260,100238,1,0,0:0:0:0:
64,236,100333,1,0,0:0:0:0:
192,108,100522,1,0,0:0:0:0:
192,121,100616,1,0,0:0:0:0:
191,136,100711,1,0,0:0:0:0:
183,319,100903,1,0,0:0:0:0:
184,304,100998,1,0,0:0:0:0:
186,289,101092,5,0,0:0:0:0:
199,292,101186,1,0,0:0:0:0:
213,294,101281,1,0,0:0:0:0:
227,293,101376,1,0,0:0:0:0:
244,340,101472,5,0,0:0:0:0:
257,337,101566,1,0,0:0:0:0:
270,333,101661,1,0,0:0:0:0:
282,326,101756,1,0,0:0:0:0:
324,356,101852,5,0,0:0:0:0:
334,347,101946,1,0,0:0:0:0:
344,338,102041,1,0,0:0:0:0:
352,327,102136,1,0,0:0:0:0:
396,348,102231,5,0,0:0:0:0:
401,335,102325,1,0,0:0:0:0:
406,323,102420,1,0,0:0:0:0:
409,309,102515,1,0,0:0:0:0:
410,297,102611,6,0,L|406:253,1,41.9999987182618
394,125,102801,2,0,L|397:166,1,41.9999987182618
401,190,102991,1,0,0:0:0:0:
196,138,103181,6,0,L|154:140,1,41.9999987182618
296,182,103371,2,0,L|337:179,2,27.9999991455078
276,186,103560,1,0,0:0:0:0:
260,190,103655,1,0,0:0:0:0:
244,194,103750,2,0,L|248:258,1,41.9999987182618
236,74,103940,2,0,L|232:10,1,41.9999987182618
