osu file format v14

[General]
AudioFilename: The Sacred Story.mp3
AudioLeadIn: 0
PreviewTime: 105867
Countdown: 0
SampleSet: Normal
StackLeniency: 0.7
Mode: 0
LetterboxInBreaks: 0
WidescreenStoryboard: 0

[Editor]
DistanceSpacing: 0.7
BeatDivisor: 4
GridSize: 4
TimelineZoom: 1

[Metadata]
Title:The Sacred Story
TitleUnicode:The Sacred Story
Artist:Vila
ArtistUnicode:Vila
Creator:dliveGameDictio
Version:Sacred
Source:Cytus
Tags:cytus sacred story
BeatmapID:1977945
BeatmapSetID:947015

[Difficulty]
HPDrainRate:7
CircleSize:4.5
OverallDifficulty:7
ApproachRate:9
SliderMultiplier:1.49999990463257
SliderTickRate:1

[Events]
//Background and Video events
0,0,"The Sacred Story.png",0,0
//Break Periods
2,129609,140961
2,160559,164695
//Storyboard Layer 0 (Background)
//Storyboard Layer 1 (Fail)
//Storyboard Layer 2 (Pass)
//Storyboard Layer 3 (Foreground)
//Storyboard Sound Samples

[TimingPoints]
8650.18028767011,379.746750948167,4,1,0,100,1,0
59915,-66.6666666666667,4,1,0,100,0,0
60295,-57.1428571428571,4,1,0,100,0,0
60677,-50,4,1,0,100,0,0
61055,-57.1428571428571,4,1,0,100,0,0
61436,-66.6666666666667,4,1,0,100,0,0
61814,-100,4,1,0,100,0,0
62953,-83.3333333333333,4,1,0,100,0,0
63333,-71.4285714285714,4,1,0,100,0,0
63713,-62.5,4,1,0,100,0,0
64093,-71.4285714285714,4,1,0,100,0,0
64472,-83.3333333333333,4,1,0,100,0,0
64852,-100,4,1,0,100,0,0
91814,-133.333333333333,4,1,0,100,0,0
92194,-200,4,1,0,100,0,0
92574,-100,4,1,0,100,0,0
97257,-111.111111111111,4,1,0,100,0,0
97764,-125,4,1,0,100,0,0
98270,-142.857142857143,4,1,0,100,0,0
98776,-166.666666666667,4,1,0,100,0,0
99219,-100,4,1,0,100,0,0
108143,-100,4,1,0,100,0,0
108523,-117.647058823529,4,1,0,100,0,0
108903,-142.857142857143,4,1,0,100,0,0
109283,-200,4,1,0,100,0,0
109852,-181.818181818182,4,1,0,100,0,0
110042,-166.666666666667,4,1,0,100,0,0
110232,-153.846153846154,4,1,0,100,0,0
110422,-142.857142857143,4,1,0,100,0,0
110612,-125,4,1,0,100,0,0
110802,-117.647058823529,4,1,0,100,0,0
110991,-111.111111111111,4,1,0,100,0,0
111181,-100,4,1,0,100,0,0
114599,-125,4,1,0,100,0,0
114979,-166.666666666667,4,1,0,100,0,0
115359,-100,4,1,0,100,0,0
120865,-111.111111111111,4,1,0,100,0,0
121245,-125,4,1,0,100,0,0
121814,-100,4,1,0,100,0,0
125612,-111.111111111111,4,1,0,100,0,0
126181,-125,4,1,0,100,0,0
126561,-142.857142857143,4,1,0,100,0,0
126941,-100,4,1,0,100,0,0
176498,-500,4,1,0,100,0,0
180295,-100,4,1,0,100,0,0
181055,-66.6666666666667,4,1,0,100,0,1
190928,-64.5161290322581,4,1,0,100,0,1
191308,-62.5,4,1,0,100,0,1
191688,-60.6060606060606,4,1,0,100,0,1
192067,-58.8235294117647,4,1,0,100,0,1
192447,-60.6060606060606,4,1,0,100,0,1
192827,-62.5,4,1,0,100,0,1
193207,-64.5161290322581,4,1,0,100,0,1
193586,-66.6666666666667,4,1,0,100,0,1
205264,-66.6666666666667,4,1,0,100,0,0
205358,-66.6666666666667,4,1,0,100,0,1
217510,-100,4,1,0,100,0,0

[HitObjects]
89,89,8650,6,0,B|249:7|461:43|396:338|396:338|84:344|84:344|89:132,1,1049.9999332428,0|0,2:1|2:1,2:1:0:0:
180,89,11688,2,0,B|341:238|341:238|371:57|371:57|465:273|465:273|215:356,1,899.999942779542,0|0,2:1|2:1,2:1:0:0:
232,276,14346,5,0,2:1:0:0:
232,286,14441,1,0,2:1:0:0:
233,296,14536,1,0,2:1:0:0:
234,306,14631,1,0,2:1:0:0:
235,316,14726,1,4,2:1:0:0:
180,79,15105,5,8,2:1:0:0:
298,157,15295,1,0,2:1:0:0:
198,218,15485,1,8,2:1:0:0:
270,340,15865,5,8,2:1:0:0:
367,222,16055,1,0,2:1:0:0:
176,196,16245,1,8,2:1:0:0:
134,292,16624,5,8,2:1:0:0:
109,189,16814,1,0,2:1:0:0:
216,141,17004,1,8,2:1:0:0:
263,269,17194,1,0,2:1:0:0:
349,172,17384,1,8,2:1:0:0:
403,301,17574,1,0,2:1:0:0:
265,285,17764,1,8,2:1:0:0:
246,205,18143,5,8,2:1:0:0:
137,105,18333,1,0,2:1:0:0:
323,90,18523,1,8,2:1:0:0:
371,246,18903,5,8,2:1:0:0:
221,330,19093,1,0,2:1:0:0:
103,188,19283,1,8,2:1:0:0:
78,315,19662,5,8,2:1:0:0:
251,220,19852,1,0,2:1:0:0:
385,342,20042,1,8,2:1:0:0:
444,211,20232,1,0,2:1:0:0:
336,74,20422,2,0,P|292:90|258:123,1,74.9999952316285,8|0,2:1|2:1,2:1:0:0:
172,222,20802,1,8,2:1:0:0:
88,52,21181,5,8,2:1:0:0:
88,52,21371,1,0,2:1:0:0:
88,52,21561,1,8,2:1:0:0:
420,325,21941,5,8,2:1:0:0:
420,325,22131,1,0,2:1:0:0:
420,325,22321,1,8,2:1:0:0:
325,330,22700,5,8,2:1:0:0:
127,270,22890,1,0,2:1:0:0:
327,234,23080,1,8,2:1:0:0:
128,177,23270,1,0,2:1:0:0:
331,134,23460,1,8,2:1:0:0:
133,84,23650,1,0,2:1:0:0:
169,81,23840,5,0,2:1:0:0:
178,98,23934,1,0,2:1:0:0:
188,120,24029,1,0,2:1:0:0:
197,140,24124,1,0,2:1:0:0:
207,165,24219,2,0,L|273:167,3,37.4999976158143,0|0|0|0,2:1|2:1|2:1|2:1,2:1:0:0:
251,184,24599,5,0,2:1:0:0:
258,206,24694,1,0,2:1:0:0:
266,231,24789,1,0,2:1:0:0:
274,256,24884,1,0,2:1:0:0:
283,286,24979,2,0,L|328:287,3,37.4999976158143,0|0|0|0,2:1|2:1|2:1|2:1,2:1:0:0:
329,316,25359,5,0,2:1:0:0:
433,203,25738,1,8,2:1:0:0:
324,75,25928,1,0,2:1:0:0:
207,190,26118,1,8,2:1:0:0:
323,312,26308,1,0,2:1:0:0:
433,203,26498,1,8,2:1:0:0:
324,75,26688,1,0,2:1:0:0:
120,353,26878,1,12,2:1:0:0:
118,154,27257,6,0,P|170:63|228:49,1,149.999990463257,2|8,2:1|2:1,2:1:0:0:
341,82,27827,1,0,2:0:0:0:
387,195,28017,2,0,P|366:265|304:305,1,149.999990463257,2|8,2:1|2:1,2:1:0:0:
168,336,28586,1,0,2:0:0:0:
89,224,28776,2,0,L|145:77,1,149.999990463257,2|8,2:1|2:1,2:1:0:0:
252,28,29346,1,0,2:0:0:0:
358,91,29536,2,0,L|432:165,1,74.9999952316285,2|0,2:1|2:1,2:1:0:0:
427,289,29915,1,8,2:1:0:0:
67,150,30295,6,0,P|101:232|158:252,1,149.999990463257,2|8,2:1|2:1,2:1:0:0:
305,256,30865,1,0,2:1:0:0:
410,166,31055,1,2,2:1:0:0:
305,69,31245,1,0,2:1:0:0:
156,131,31434,1,8,2:1:0:0:
147,158,31529,1,0,2:1:0:0:
139,185,31624,1,0,2:1:0:0:
131,208,31719,2,0,L|113:263,1,37.4999976158143,0|2,2:1|2:1,2:1:0:0:
237,347,32004,1,0,2:0:0:0:
397,291,32194,5,8,2:1:0:0:
236,223,32384,1,0,2:0:0:0:
396,167,32574,1,2,2:1:0:0:
235,104,32764,1,0,2:1:0:0:
106,194,32953,2,0,P|127:264|198:318,1,149.999990463257,8|2,2:1|2:1,2:1:0:0:
294,324,33523,5,0,2:1:0:0:
421,268,33713,1,8,2:1:0:0:
247,222,33903,1,0,2:0:0:0:
418,174,34093,2,0,P|465:115|392:71,1,149.999990463257,2|8,2:1|2:1,2:1:0:0:
265,35,34662,1,0,2:0:0:0:
128,122,34852,1,2,2:1:0:0:
175,267,35042,6,0,L|242:333,1,74.9999952316285,0|8,2:1|2:1,2:1:0:0:
393,318,35422,1,0,2:0:0:0:
228,319,35612,6,0,L|175:267,1,74.9999952316285,2|0,2:1|2:1,2:1:0:0:
86,162,35991,2,0,P|62:102|118:36,1,149.999990463257,8|2,2:1|2:1,2:1:0:0:
259,35,36561,1,0,2:0:0:0:
408,41,36751,2,0,P|454:96|386:112,1,149.999990463257,8|2,2:1|2:1,2:1:0:0:
305,97,37321,1,0,2:0:0:0:
214,81,37510,5,8,2:1:0:0:
205,102,37605,1,0,2:1:0:0:
193,122,37700,1,0,2:1:0:0:
187,138,37795,1,0,2:1:0:0:
180,159,37890,2,0,L|223:186,3,37.4999976158143,2|0|0|0,2:1|2:1|2:1|2:1,2:1:0:0:
212,202,38270,5,8,2:1:0:0:
214,226,38365,1,0,2:1:0:0:
215,247,38460,1,0,2:1:0:0:
217,272,38555,1,0,2:1:0:0:
223,297,38650,2,0,L|264:287,3,37.4999976158143,2|0|0|0,2:1|2:1|2:1|2:1,2:1:0:0:
280,285,39029,5,4,2:1:0:0:
208,62,39409,6,0,P|127:100|114:167,1,149.999990463257,2|8,2:1|2:1,2:1:0:0:
157,282,39979,1,0,2:0:0:0:
292,320,40169,2,0,P|370:289|387:214,1,149.999990463257,2|8,2:1|2:1,2:1:0:0:
406,96,40738,1,0,2:0:0:0:
257,123,40928,2,0,P|187:144|159:211,1,149.999990463257,2|8,2:1|2:1,2:1:0:0:
46,261,41498,1,0,2:0:0:0:
168,219,41688,1,2,2:1:0:0:
305,250,41878,5,8,2:1:0:0:
248,352,42067,1,8,2:1:0:0:
409,302,42257,1,8,2:1:0:0:
408,159,42447,2,0,P|383:87|317:61,1,149.999990463257,2|8,2:1|2:1,2:1:0:0:
210,63,43017,1,0,2:0:0:0:
148,80,43207,1,2,2:1:0:0:
99,124,43397,1,0,2:0:0:0:
68,186,43586,2,0,L|44:242,2,37.4999976158143,8|0|0,2:1|2:1|2:1,2:1:0:0:
48,241,43871,2,0,P|46:269|74:288,1,37.4999976158143,0|2,2:1|2:1,2:1:0:0:
182,332,44156,5,0,2:0:0:0:
50,276,44346,2,0,P|53:216|139:173,1,149.999990463257,8|2,2:1|2:1,2:1:0:0:
248,166,44915,1,0,2:1:0:0:
379,170,45105,2,0,P|429:126|354:93,1,149.999990463257,8|2,2:1|2:1,2:1:0:0:
229,81,45675,1,0,2:0:0:0:
74,109,45865,1,8,2:1:0:0:
227,153,46055,1,0,2:0:0:0:
80,195,46245,2,0,L|117:193,3,37.4999976158143,2|0|0|0,2:1|2:1|2:1|2:1,2:1:0:0:
247,194,46624,2,0,P|296:227|232:280,1,149.999990463257,8|2,2:1|2:1,2:1:0:0:
169,285,47194,1,8,2:1:0:0:
23,253,47384,1,8,2:1:0:0:
169,221,47574,1,8,2:1:0:0:
26,184,47764,6,0,L|93:128,1,74.9999952316285,2|0,2:1|2:1,2:1:0:0:
203,63,48143,2,0,P|291:38|375:54,1,149.999990463257,8|2,2:1|2:1,2:1:0:0:
458,158,48713,1,0,2:0:0:0:
377,290,48903,2,0,P|306:313|231:308,1,149.999990463257,8|2,2:1|2:1,2:1:0:0:
94,246,49472,1,0,2:0:0:0:
230,307,49662,2,0,P|298:262|314:167,1,149.999990463257,8|2,2:1|2:1,2:1:0:0:
320,74,50232,1,0,2:0:0:0:
197,44,50422,6,0,L|122:78,1,74.9999952316285,8|8,2:1|2:1,2:1:0:0:
85,187,50802,2,8,L|117:261,1,74.9999952316285,8|8,2:1|2:1,2:1:0:0:
275,333,51181,1,4,2:0:0:0:
330,174,51561,1,0,2:0:0:0:
101,306,51751,1,4,2:0:0:0:
106,37,52131,1,0,2:0:0:0:
342,354,52321,1,4,2:1:0:0:
14,270,53460,6,0,L|14:312,1,37.4999976158143,4|0,2:0|2:0,2:0:0:0:
34,262,53650,2,0,L|33:315,1,37.4999976158143,0|0,2:0|2:0,2:0:0:0:
62,250,53840,2,0,L|62:298,1,37.4999976158143,0|0,2:0|2:0,2:0:0:0:
92,231,54029,2,0,L|92:288,1,37.4999976158143,0|0,2:0|2:0,2:0:0:0:
129,202,54219,2,0,L|129:249,1,37.4999976158143,0|0,2:0|2:0,2:0:0:0:
167,165,54409,2,0,L|167:206,1,37.4999976158143,0|0,2:0|2:0,2:0:0:0:
215,121,54599,2,0,L|215:162,1,37.4999976158143,0|0,2:0|2:0,2:0:0:0:
256,52,54789,2,0,L|256:93,1,37.4999976158143,0|0,2:0|2:0,2:0:0:0:
313,139,54979,1,0,2:0:0:0:
349,191,55074,1,0,2:0:0:0:
389,230,55169,1,0,2:0:0:0:
434,247,55264,1,0,2:0:0:0:
470,254,55359,2,0,L|470:294,3,37.4999976158143,0|0|0|0,2:0|2:0|2:0|2:0,2:0:0:0:
471,310,55738,2,0,P|404:342|332:295,1,149.999990463257,0|4,2:0|2:0,2:0:0:0:
120,194,56498,6,0,L|120:130,3,37.4999976158143,0|0|0|0,2:0|2:0|2:0|2:0,2:0:0:0:
186,193,56878,2,0,L|227:192,3,37.4999976158143,0|0|0|0,2:0|2:0|2:0|2:0,2:0:0:0:
286,250,57257,6,0,L|287:300,3,37.4999976158143,0|0|0|0,2:0|2:0|2:0|2:0,2:0:0:0:
228,362,57637,2,0,L|167:362,3,37.4999976158143,0|0|0|0,2:0|2:0|2:0|2:0,2:0:0:0:
99,315,58017,6,0,L|100:264,1,37.4999976158143,0|0,2:0|2:0,2:0:0:0:
147,336,58207,2,0,L|148:285,1,37.4999976158143,0|0,2:0|2:0,2:0:0:0:
191,345,58397,2,0,L|193:295,1,37.4999976158143,0|0,2:0|2:0,2:0:0:0:
233,346,58586,2,0,L|234:295,1,37.4999976158143,0|0,2:0|2:0,2:0:0:0:
266,345,58776,6,0,P|334:316|415:354,1,149.999990463257,0|4,2:0|2:0,2:0:0:0:
109,230,59536,6,0,L|153:184,3,37.4999976158143,0|0|0|0,2:0|2:0|2:0|2:0,2:0:0:0:
236,152,59915,2,0,L|236:79,3,56.2499985694885,0|0|0|0,2:0|2:0|2:0|2:0,2:0:0:0:
368,206,60295,6,0,L|370:286,3,65.6249964535237,0|0|0|0,2:0|2:0|2:0|2:0,2:0:0:0:
264,345,60675,2,0,L|173:347,3,74.9999952316285,0|0|0|0,2:0|2:0|2:0|2:0,2:0:0:0:
96,257,61055,6,0,L|41:183,3,65.6249964535237,0|0|0|0,2:0|2:0|2:0|2:0,2:0:0:0:
84,117,61434,2,0,L|135:75,3,56.2499985694885,0|0|0|0,2:0|2:0|2:0|2:0,2:0:0:0:
185,65,61814,6,0,P|284:121|300:176,1,149.999990463257,0|4,2:0|2:0,2:0:0:0:
212,177,62574,6,0,P|218:160|232:148,1,37.4999976158143,0|0,2:0|2:0,2:0:0:0:
299,207,62764,2,0,P|293:224|279:237,1,37.4999976158143,0|0,2:0|2:0,2:0:0:0:
213,156,62951,6,0,P|228:139|249:131,1,44.9999957656862,0|0,2:0|2:0,2:0:0:0:
299,227,63141,2,0,P|284:244|263:251,1,44.9999957656862,0|0,2:0|2:0,2:0:0:0:
221,135,63329,6,0,P|245:124|271:124,1,52.4999950599673,0|0,2:0|2:0,2:0:0:0:
290,249,63519,2,0,P|266:260|240:260,1,52.4999950599673,0|0,2:0|2:0,2:0:0:0:
241,117,63684,6,0,P|271:115|299:125,1,59.9999961853028,0|0,2:0|2:0,2:0:0:0:
270,267,63874,2,0,P|240:269|212:259,1,59.9999961853028,0|0,2:0|2:0,2:0:0:0:
271,124,64062,6,0,P|245:124|222:137,1,52.4999950599673,0|0,2:0|2:0,2:0:0:0:
240,260,64252,2,0,P|266:260|289:247,1,52.4999950599673,0|0,2:0|2:0,2:0:0:0:
248,133,64438,6,0,P|227:140|212:157,1,44.9999957656862,0|0,2:0|2:0,2:0:0:0:
263,252,64628,2,0,P|284:244|297:226,1,44.9999957656862,0|0,2:0|2:0,2:0:0:0:
233,148,64852,6,4,P|207:212|275:249,1,149.999990463257,0|4,2:0|2:0,2:0:0:0:
134,77,65612,6,0,L|113:111,3,37.4999976158143,0|0|0|0,2:0|2:0|2:0|2:0,2:0:0:0:
123,170,65991,2,0,L|141:212,3,37.4999976158143,0|0|0|0,2:0|2:0|2:0|2:0,2:0:0:0:
207,274,66371,6,0,L|253:285,3,37.4999976158143,0|0|0|0,2:0|2:0|2:0|2:0,2:0:0:0:
366,243,66751,2,0,L|400:213,3,37.4999976158143,0|0|0|0,2:0|2:0|2:0|2:0,2:0:0:0:
431,119,67131,6,0,L|402:55,3,37.4999976158143,0|0|0|0,2:0|2:0|2:0|2:0,2:0:0:0:
357,38,67510,2,0,L|293:36,3,37.4999976158143,0|0|0|0,2:0|2:0|2:0|2:0,2:0:0:0:
280,36,67890,6,0,P|213:65|192:135,1,149.999990463257,0|4,2:0|2:0,2:0:0:0:
251,154,68650,6,0,L|291:190,1,37.4999976158143,0|0,2:0|2:0,2:0:0:0:
225,242,68840,2,0,L|275:233,1,37.4999976158143,0|0,2:0|2:0,2:0:0:0:
256,136,69029,6,0,L|308:182,1,37.4999976158143,0|0,2:0|2:0,2:0:0:0:
219,259,69219,2,0,L|288:246,1,37.4999976158143,0|0,2:0|2:0,2:0:0:0:
261,118,69409,6,0,L|311:162,1,37.4999976158143,0|0,2:0|2:0,2:0:0:0:
214,277,69599,2,0,L|282:263,1,37.4999976158143,0|0,2:0|2:0,2:0:0:0:
266,101,69789,6,0,L|318:149,1,37.4999976158143,0|0,2:0|2:0,2:0:0:0:
209,294,69979,2,0,L|273:278,1,37.4999976158143,0|0,2:0|2:0,2:0:0:0:
261,118,70169,6,0,L|308:159,3,37.4999976158143,0|0|0|0,2:0|2:0|2:0|2:0,2:0:0:0:
214,277,70548,1,0,2:0:0:0:
232,215,70643,1,0,2:0:0:0:
249,161,70738,1,0,2:0:0:0:
266,119,70833,1,0,2:0:0:0:
280,84,70928,6,0,B|373:92|373:184,1,149.999990463257,0|4,2:0|2:0,2:0:0:0:
72,308,71688,5,0,2:0:0:0:
105,291,71783,1,0,2:0:0:0:
135,269,71878,1,0,2:0:0:0:
161,242,71972,1,0,2:0:0:0:
183,211,72067,2,0,L|225:211,3,37.4999976158143,0|0|0|0,2:0|2:0|2:0|2:0,2:0:0:0:
258,208,72447,5,0,2:0:0:0:
291,191,72542,1,0,2:0:0:0:
321,169,72637,1,0,2:0:0:0:
347,142,72731,1,0,2:0:0:0:
368,112,72827,2,0,L|410:112,3,37.4999976158143,0|0|0|0,2:0|2:0|2:0|2:0,2:0:0:0:
421,146,73207,5,0,2:0:0:0:
436,180,73302,1,0,2:0:0:0:
449,214,73397,1,0,2:0:0:0:
464,247,73491,1,0,2:0:0:0:
480,280,73586,2,0,L|461:337,3,37.4999976158143,0|0|0|0,2:0|2:0|2:0|2:0,2:0:0:0:
454,350,73966,6,0,P|377:322|299:375,1,149.999990463257,0|4,2:0|2:0,2:0:0:0:
107,332,74726,6,0,L|158:332,1,37.4999976158143,0|0,2:0|2:0,2:0:0:0:
148,275,74915,2,0,L|96:275,1,37.4999976158143,0|0,2:0|2:0,2:0:0:0:
108,199,75105,2,0,L|159:199,1,37.4999976158143,0|0,2:0|2:0,2:0:0:0:
149,142,75294,2,0,L|97:142,1,37.4999976158143,0|0,2:0|2:0,2:0:0:0:
207,78,75485,6,0,L|207:129,1,37.4999976158143,0|0,2:0|2:0,2:0:0:0:
264,119,75674,2,0,L|264:67,1,37.4999976158143,0|0,2:0|2:0,2:0:0:0:
340,82,75865,2,0,L|340:133,1,37.4999976158143,0|0,2:0|2:0,2:0:0:0:
397,123,76054,2,0,L|397:71,1,37.4999976158143,0|0,2:0|2:0,2:0:0:0:
457,182,76245,6,0,L|406:182,1,37.4999976158143,0|0,2:0|2:0,2:0:0:0:
416,239,76434,2,0,L|468:239,1,37.4999976158143,0|0,2:0|2:0,2:0:0:0:
365,311,76624,2,0,L|365:260,1,37.4999976158143,0|0,2:0|2:0,2:0:0:0:
308,270,76813,2,0,L|308:322,1,37.4999976158143,0|0,2:0|2:0,2:0:0:0:
231,302,77004,6,0,B|184:256|166:163,1,149.999990463257,0|4,2:0|2:0,2:0:0:0:
163,136,77764,5,8,2:0:0:0:
191,247,77953,1,0,2:0:0:0:
195,263,78048,1,0,2:0:0:0:
198,276,78143,1,8,2:0:0:0:
319,325,78333,5,0,2:0:0:0:
341,303,78428,1,0,2:0:0:0:
359,283,78523,1,8,2:0:0:0:
415,166,78713,5,0,2:0:0:0:
404,130,78808,1,0,2:0:0:0:
395,94,78903,1,8,2:0:0:0:
254,34,79093,5,0,2:0:0:0:
210,63,79188,1,0,2:0:0:0:
171,96,79283,1,8,2:0:0:0:
105,247,79472,5,0,2:0:0:0:
137,298,79567,1,0,2:0:0:0:
173,345,79662,1,8,2:0:0:0:
369,343,79852,5,0,2:0:0:0:
413,291,79947,1,0,2:0:0:0:
459,239,80042,2,0,P|467:154|400:102,1,149.999990463257,8|4,2:0|2:0,2:0:0:0:
171,63,80802,6,0,P|114:127|130:183,1,149.999990463257,0|8,2:0|2:0,2:0:0:0:
304,168,81371,1,0,2:0:0:0:
214,207,81561,2,0,P|202:136|256:88,1,149.999990463257,0|8,2:0|2:0,2:0:0:0:
411,125,82131,1,0,2:0:0:0:
407,264,82321,2,0,P|385:328|298:355,1,149.999990463257,0|8,2:0|2:0,2:0:0:0:
138,287,82890,1,0,2:0:0:0:
228,147,83080,2,0,B|287:83|368:122,1,149.999990463257,0|8,2:0|2:0,2:0:0:0:
423,249,83650,1,0,2:0:0:0:
177,319,83840,2,0,B|253:369|324:320,1,149.999990463257,0|8,2:0|2:0,2:0:0:0:
316,182,84409,2,0,B|240:271|167:246,1,149.999990463257,0|0,2:0|2:0,2:0:0:0:
100,129,84979,2,8,P|120:159|155:173,1,74.9999952316285,8|0,2:0|2:0,2:1:0:0:
257,115,85359,5,0,2:0:0:0:
353,59,85548,1,0,2:0:0:0:
453,160,85738,2,0,P|489:216|446:285,1,149.999990463257,8|0,2:0|2:0,2:0:0:0:
286,212,86308,1,0,2:0:0:0:
451,282,86498,2,0,P|486:220|450:156,1,149.999990463257,8|0,2:0|2:0,2:0:0:0:
318,95,87067,1,0,2:0:0:0:
146,92,87257,1,8,2:0:0:0:
292,210,87447,1,0,2:0:0:0:
237,36,87637,1,0,2:0:0:0:
173,205,87827,1,0,2:0:0:0:
319,95,88017,6,0,L|453:208,1,149.999990463257,8|0,2:0|2:0,2:0:0:0:
440,311,88586,1,0,2:0:0:0:
147,338,88776,2,0,L|328:340,1,149.999990463257,8|0,2:0|2:0,2:0:0:0:
63,208,89346,1,0,2:0:0:0:
287,74,89536,2,0,L|121:77,1,149.999990463257,8|0,2:0|2:0,2:0:0:0:
64,216,90105,1,0,2:0:0:0:
182,329,90295,1,8,2:0:0:0:
288,221,90485,1,0,2:0:0:0:
175,105,90675,6,0,P|253:120|280:202,1,149.999990463257,0|8,2:0|2:0,2:0:0:0:
292,281,91245,1,0,2:0:0:0:
164,325,91434,2,0,P|192:348|229:350,1,74.9999952316285,0|0,2:0|2:0,2:0:0:0:
302,247,91814,2,0,P|275:272|243:274,1,56.2499985694885,8|0,2:0|2:0,2:0:0:0:
188,201,92194,2,0,P|211:221|234:222,1,37.4999976158143,0|0,2:0|2:0,2:0:0:0:
255,223,92574,5,8,2:0:0:0:
292,218,92669,1,0,2:0:0:0:
340,189,92764,1,0,2:0:0:0:
367,127,92859,1,0,2:0:0:0:
369,52,92953,2,0,L|197:52,1,149.999990463257,4|8,2:0|2:0,2:0:0:0:
102,161,93523,1,0,2:0:0:0:
156,332,93713,1,0,3:0:0:0:
215,162,93903,1,0,2:0:0:0:
272,330,94093,1,8,2:0:0:0:
329,161,94283,1,0,2:0:0:0:
393,328,94472,6,0,P|443:274|458:201,1,149.999990463257,0|8,3:0|2:0,2:0:0:0:
448,58,95042,1,0,2:0:0:0:
310,60,95232,2,0,P|251:120|243:191,1,149.999990463257,0|8,3:0|2:0,2:0:0:0:
241,252,95802,1,0,2:0:0:0:
204,325,95991,6,0,P|136:343|72:271,1,149.999990463257,0|8,3:0|2:0,2:0:0:0:
58,134,96561,1,0,2:0:0:0:
140,7,96751,2,2,L|250:7,1,99.9999936421713,2|2,3:0|3:0,3:0:0:0:
233,141,97257,2,2,L|105:142,1,89.9999915313724,2|2,3:0|3:0,3:0:0:0:
149,237,97764,2,2,L|240:236,1,79.9999949137371,2|2,3:0|3:0,3:0:0:0:
225,306,98270,2,2,L|155:307,1,69.9999934132897,2|2,3:0|3:0,3:0:0:0:
161,348,98776,2,2,L|236:348,1,59.9999943542483,2|2,3:0|3:0,3:0:0:0:
354,318,99219,1,0,2:0:0:0:
396,195,99409,2,0,P|368:130|297:96,1,149.999990463257,8|0,2:0|3:0,2:0:0:0:
130,131,99979,1,0,2:0:0:0:
142,270,100169,2,0,P|177:335|269:309,1,149.999990463257,8|0,2:0|3:0,2:0:0:0:
369,265,100738,1,0,2:0:0:0:
420,148,100928,6,8,P|400:86|311:68,1,149.999990463257,8|0,2:0|3:0,3:0:0:0:
189,79,101498,1,0,2:0:0:0:
346,135,101688,1,8,2:0:0:0:
183,185,101878,1,0,2:0:0:0:
348,257,102067,6,0,P|319:280|283:291,1,74.9999952316285,0|0,3:0|2:0,2:0:0:0:
189,200,102447,6,0,P|217:223|253:234,1,74.9999952316285,8|0,2:0|2:0,2:0:0:0:
395,189,102827,1,0,3:0:0:0:
228,133,103017,1,0,2:0:0:0:
394,83,103207,1,8,2:0:0:0:
230,27,103396,1,0,2:0:0:0:
234,162,103586,6,0,P|246:199|273:222,1,74.9999952316285,0|0,3:0|2:0,2:0:0:0:
234,162,103966,2,0,P|250:203|277:226,1,74.9999952316285,8|0,2:0|2:0,2:0:0:0:
298,243,104346,6,0,L|383:297,2,74.9999952316285,0|0|8,3:0|2:0|2:0,2:0:0:0:
198,175,104915,1,0,2:0:0:0:
476,33,105105,5,4,2:1:0:0:
108,165,105865,5,8,2:0:0:0:
114,155,105960,1,0,2:0:0:0:
124,144,106055,1,0,2:0:0:0:
140,134,106150,1,0,2:0:0:0:
161,128,106245,1,0,3:0:0:0:
187,127,106340,1,0,2:0:0:0:
215,134,106434,1,0,2:0:0:0:
242,153,106529,1,0,2:0:0:0:
260,185,106624,2,0,L|261:234,3,37.4999976158143,8|0|0|0,2:0|2:0|2:0|2:0,2:0:0:0:
323,264,107004,2,0,L|322:200,3,37.4999976158143,0|0|0|0,3:0|2:0|2:0|2:0,2:0:0:0:
262,307,107384,2,0,L|261:269,3,37.4999976158143,8|0|0|0,2:0|2:0|2:0|2:0,2:0:0:0:
201,225,107764,2,0,L|201:263,3,37.4999976158143,0|0|0|0,3:0|2:0|2:0|2:0,2:0:0:0:
61,118,108143,6,0,L|100:191,1,74.9999952316285,8|0,2:0|2:0,2:0:0:0:
249,294,108523,2,0,L|208:216,1,63.7499971628189,0|0,3:0|2:0,2:0:0:0:
279,92,108903,2,0,L|311:161,1,52.4999950599673,8|0,2:0|2:0,2:0:0:0:
412,208,109283,2,0,L|388:162,1,37.4999976158143,0|0,3:0|2:0,2:0:0:0:
388,326,109662,6,0,L|357:339,1,18.7499988079071,8|0,2:0|2:0,2:0:0:0:
315,341,109852,2,0,L|277:340,1,20.6249993181229,0|0,2:0|2:0,2:0:0:0:
233,330,110042,2,0,L|197:310,1,22.4999978828431,0|0,3:0|2:0,2:0:0:0:
161,272,110232,2,0,L|144:232,1,24.3749973344804,0|0,2:0|2:0,2:0:0:0:
139,173,110422,2,0,L|151:127,1,26.2499975299836,8|0,2:0|2:0,2:0:0:0:
191,74,110612,2,0,L|243:56,1,29.9999980926514,0|0,2:0|2:0,2:0:0:0:
309,61,110802,2,0,L|365:86,1,31.8749985814095,0|0,3:0|2:0,2:0:0:0:
416,134,110991,2,0,L|425:196,1,33.7499968242647,0|0,2:0|2:0,2:0:0:0:
407,271,111181,6,0,L|380:316,3,37.4999976158143,8|0|0|0,2:0|2:0|2:0|2:0,2:0:0:0:
334,215,111561,2,0,L|309:161,3,37.4999976158143,0|0|0|0,3:0|2:0|2:0|2:0,2:0:0:0:
260,265,111941,2,0,L|235:305,3,37.4999976158143,8|0|0|0,2:0|2:0|2:0|2:0,2:0:0:0:
171,220,112321,2,0,L|144:168,3,37.4999976158143,0|0|0|0,3:0|2:0|2:0|2:0,2:0:0:0:
262,199,112700,6,0,L|201:261,2,74.9999952316285,8|0|0,2:0|2:0|3:0,2:0:0:0:
152,114,113270,1,0,2:0:0:0:
272,46,113460,6,0,L|331:105,1,74.9999952316285,8|0,2:0|2:0,2:0:0:0:
384,226,113840,2,0,P|346:291|327:300,1,74.9999952316285,0|0,3:0|2:0,2:0:0:0:
91,279,114219,2,0,P|140:310|161:309,1,74.9999952316285,8|0,2:0|2:0,2:0:0:0:
255,220,114599,2,0,P|227:244|194:250,1,59.9999961853028,0|0,3:0|2:0,2:0:0:0:
105,153,114979,2,0,P|141:179|161:182,1,44.9999957656862,8|0,2:0|2:0,2:0:0:0:
188,126,115359,5,0,3:0:0:0:
216,102,115548,1,0,2:0:0:0:
268,104,115738,1,8,2:0:0:0:
332,143,115928,1,0,2:0:0:0:
365,226,116118,5,0,3:0:0:0:
296,315,116308,1,0,2:0:0:0:
168,306,116498,1,8,2:0:0:0:
97,173,116688,1,0,2:0:0:0:
230,76,116878,5,0,3:0:0:0:
397,157,117067,1,0,2:0:0:0:
324,346,117257,6,0,L|348:317,3,37.4999976158143,8|0|0|0,2:0|2:0|2:0|2:0,2:0:0:0:
257,269,117637,2,0,L|218:234,3,37.4999976158143,0|0|0|0,3:0|2:0|2:0|2:0,2:0:0:0:
318,194,118017,6,0,L|369:142,3,37.4999976158143,8|0|0|0,2:0|2:0|2:0|2:0,2:0:0:0:
257,115,118396,2,0,L|223:85,3,37.4999976158143,0|0|0|0,3:0|2:0|2:0|2:0,2:0:0:0:
175,178,118776,6,0,L|146:206,3,37.4999976158143,8|0|0|0,2:0|2:0|2:0|2:0,2:0:0:0:
93,117,119156,2,0,L|56:81,3,37.4999976158143,0|0|0|0,3:0|2:0|2:0|2:0,2:0:0:0:
95,134,119536,5,8,2:0:0:0:
96,152,119631,1,0,2:0:0:0:
99,181,119726,1,0,2:0:0:0:
102,218,119821,1,0,2:0:0:0:
107,259,119915,2,0,L|114:314,3,37.4999976158143,0|0|0|0,3:0|2:0|2:0|2:0,2:0:0:0:
116,318,120295,5,8,2:0:0:0:
216,233,120485,2,0,L|220:215,4,18.7499988079071,0|0|0|0|0,2:0|2:0|3:0|2:0|2:0,2:0:0:0:
274,156,120865,2,0,L|279:182,4,16.8749984121323,0|0|0|0|0,2:0|2:0|3:0|2:0|2:0,2:0:0:0:
339,200,121245,2,0,L|344:177,4,14.9999990463257,0|0|0|0|0,2:0|2:0|3:0|2:0|2:0,2:0:0:0:
447,170,121624,1,0,2:0:0:0:
440,80,121814,5,8,2:0:0:0:
434,89,121909,1,0,2:0:0:0:
425,101,122004,1,0,2:0:0:0:
415,117,122099,1,0,2:0:0:0:
401,135,122194,1,0,3:0:0:0:
386,156,122289,1,0,2:0:0:0:
368,180,122384,1,0,2:0:0:0:
346,205,122479,1,0,2:0:0:0:
321,233,122574,2,0,P|271:256|221:217,1,112.499992847443,8|0,2:0|2:0,2:0:0:0:
145,115,123143,2,0,P|106:139|107:174,1,74.9999952316285,0|8,2:0|2:0,2:0:0:0:
222,259,123808,5,0,2:0:0:0:
243,279,123903,1,0,2:0:0:0:
268,301,123998,1,0,2:0:0:0:
296,301,124093,2,0,P|330:272|334:226,2,74.9999952316285,8|0|0,2:0|2:0|3:0,2:0:0:0:
175,346,124662,1,0,2:0:0:0:
141,222,124852,6,0,P|175:167|237:151,1,112.499992847443,8|0,2:0|2:0,2:0:0:0:
242,148,125232,1,0,3:0:0:0:
325,144,125422,5,0,2:0:0:0:
336,125,125517,1,0,2:0:0:0:
350,112,125612,2,0,P|410:91|454:129,1,101.249990472794,8|0,2:0|2:0,2:0:0:0:
460,133,125991,1,0,3:0:0:0:
457,269,126181,6,0,P|428:293|384:295,1,59.9999961853028,0|8,2:0|2:0,2:0:0:0:
289,297,126561,2,0,L|219:296,1,52.4999950599673,0|0,2:0|3:0,2:0:0:0:
168,232,126941,1,0,2:0:0:0:
182,192,127131,5,8,2:0:0:0:
188,182,127226,1,0,2:0:0:0:
199,172,127321,1,0,2:0:0:0:
214,162,127415,1,0,2:0:0:0:
235,155,127510,1,8,2:0:0:0:
261,153,127605,1,0,2:0:0:0:
289,162,127700,1,0,2:0:0:0:
317,180,127795,1,0,2:0:0:0:
339,209,127890,2,0,L|339:254,3,37.4999976158143,8|0|0|0,2:0|2:0|2:0|2:0,2:0:0:0:
286,291,128270,2,0,L|253:252,3,37.4999976158143,8|0|0|0,2:0|2:0|2:0|2:0,2:0:0:0:
211,197,128650,5,8,2:0:0:0:
193,143,128745,1,0,2:0:0:0:
213,94,128840,1,0,2:0:0:0:
255,72,128934,1,0,2:0:0:0:
299,75,129029,1,8,2:0:0:0:
331,100,129124,1,0,2:0:0:0:
344,134,129219,1,0,2:0:0:0:
343,167,129314,1,0,2:0:0:0:
332,195,129409,1,4,2:1:0:0:
190,127,141561,5,0,3:0:0:0:
332,262,142131,1,0,3:0:0:0:
392,213,143080,6,0,P|415:134|291:83,1,224.999985694886,0|0,2:0|2:0,2:0:0:0:
174,155,144219,1,0,2:0:0:0:
176,244,144599,2,0,P|235:326|359:325,1,224.999985694886,0|0,3:0|2:0,2:0:0:0:
404,219,145738,2,0,P|374:130|312:97,1,149.999990463257,0|0,2:0|2:0,2:0:0:0:
220,75,146688,2,0,P|108:122|114:214,1,224.999985694886,0|0,2:0|2:0,2:0:0:0:
218,308,147637,2,0,P|316:293|346:176,1,224.999985694886,0|0,3:0|3:0,2:0:0:0:
310,119,148396,2,0,P|161:118|156:241,1,299.999980926514,0|0,3:0|2:0,2:0:0:0:
231,332,149536,1,0,2:0:0:0:
325,256,149915,2,0,L|415:127,1,149.999990463257,0|0,2:0|3:0,2:0:0:0:
255,124,150675,1,0,3:0:0:0:
256,265,151055,5,0,2:0:0:0:
256,192,151340,12,0,152574,2:0:0:0:
254,304,152953,5,0,2:0:0:0:
331,186,153143,6,0,L|282:116,1,74.9999952316285,0|0,2:0|2:0,2:0:0:0:
207,68,153523,1,0,2:0:0:0:
136,139,153713,2,0,P|116:222|163:288,1,149.999990463257,0|0,3:0|3:0,0:0:0:0:
333,305,154283,2,0,P|408:239|391:103,1,224.999985694886,0|0,3:0|2:0,0:0:0:0:
167,150,155042,1,0,2:0:0:0:
255,239,155232,2,0,P|308:188|303:116,1,149.999990463257,0|0,2:0|2:0,0:0:0:0:
148,108,155802,2,0,P|86:139|136:259,1,224.999985694886,0|0,2:0|2:0,2:0:0:0:
248,329,156561,1,0,2:0:0:0:
379,250,156751,2,0,P|411:183|357:107,1,149.999990463257,0|0,3:0|3:0,2:0:0:0:
226,71,157321,2,0,L|68:232,1,224.999985694886,0|0,3:0|2:0,2:0:0:0:
128,337,158080,1,0,2:0:0:0:
279,313,158270,6,0,P|329:284|360:197,1,149.999990463257,0|0,2:0|2:0,2:0:0:0:
328,55,158840,1,0,2:0:0:0:
181,92,159029,2,0,P|120:133|99:204,1,149.999990463257,0|0,2:0|2:0,2:0:0:0:
178,338,159599,1,0,2:0:0:0:
99,204,159789,2,0,P|119:133|180:91,1,149.999990463257,0|0,3:0|3:0,3:0:0:0:
361,173,160359,1,0,3:0:0:0:
192,82,165295,6,0,L|140:145,2,74.9999952316285,0|0|0,2:0|2:0|2:0,2:0:0:0:
316,56,165865,2,0,P|356:131|297:182,1,149.999990463257,0|0,3:0|3:0,2:0:0:0:
160,211,166434,2,0,P|86:275|170:318,1,224.999985694886,0|0,3:0|2:0,2:0:0:0:
277,301,167194,1,0,2:0:0:0:
367,277,167384,2,0,P|424:203|398:131,1,149.999990463257,0|0,2:0|2:0,2:0:0:0:
248,45,167953,2,0,P|174:147|233:223,1,224.999985694886,0|0,2:0|2:0,2:0:0:0:
333,165,168713,1,0,2:0:0:0:
436,249,168903,6,0,P|419:301|319:327,1,149.999990463257,0|0,3:0|3:0,3:0:0:0:
214,233,169472,2,0,P|320:207|366:109,1,224.999985694886,0|0,3:0|2:0,2:0:0:0:
129,56,170422,6,0,L|63:114,1,74.9999952316285,0|0,2:0|2:0,2:0:0:0:
205,256,170802,2,0,L|261:206,1,74.9999952316285,0|0,2:0|2:0,2:0:0:0:
152,80,171181,2,0,L|96:130,1,74.9999952316285,0|0,2:0|2:0,2:0:0:0:
183,232,171561,2,0,L|239:182,1,74.9999952316285,0|0,2:0|2:0,2:0:0:0:
199,127,171941,2,0,P|150:184|159:260,1,149.999990463257,0|0,3:0|3:0,2:0:0:0:
286,342,172510,1,0,3:0:0:0:
370,295,172605,6,0,L|401:265,2,37.4999976158143,0|0|0,2:0|2:0|2:0,2:0:0:0:
286,342,172890,2,0,P|186:288|170:169,1,224.999985694886,0|0,2:0|2:0,2:0:0:0:
167,245,174599,6,0,L|249:276,1,74.9999952316285,0|0,3:0|3:0,0:0:0:0:
356,202,174979,2,0,P|306:99|306:99,1,112.499992847443,0|0,3:0|2:0,2:0:0:0:
259,55,175359,2,0,P|162:93|175:211,1,224.999985694886,0|0,2:0|2:0,2:0:0:0:
232,238,176118,2,0,L|281:238,2,37.4999976158143,0|0|0,2:0|2:0|2:0,2:0:0:0:
169,161,176498,2,0,P|223:85|250:156,1,209.99998664856,0|0,2:0|2:0,2:0:0:0:
181,153,179441,5,0,2:0:0:0:
153,128,179536,1,0,3:0:0:0:
144,93,179631,1,0,3:0:0:0:
159,59,179726,1,0,2:0:0:0:
191,40,179821,1,0,2:0:0:0:
227,44,179915,1,0,2:0:0:0:
254,69,180010,1,0,3:0:0:0:
261,105,180105,1,0,3:0:0:0:
246,139,180200,1,0,2:0:0:0:
229,159,180295,6,0,L|256:159,3,18.7499988079071,0|0|0|0,2:0|2:0|2:0|2:0,2:0:0:0:
230,211,180485,2,0,L|248:210,3,18.7499988079071,0|0|0|0,2:0|2:0|2:0|2:0,2:0:0:0:
281,315,181055,6,0,P|393:305|427:172,1,224.999994277954,6|8,2:1|2:0,2:0:0:0:
347,66,181624,2,0,P|192:47|133:208,1,337.499991416931,0|8,2:0|2:0,2:0:0:0:
261,331,182384,1,0,2:0:0:0:
386,190,182574,2,0,P|344:88|241:53,1,224.999994277954,0|8,2:0|2:0,2:0:0:0:
106,162,183143,2,0,P|81:276|235:213,1,337.499991416931,0|8,2:0|2:0,2:0:0:0:
236,105,183903,1,0,2:0:0:0:
211,213,184093,6,0,P|126:255|125:161,1,224.999994277954,0|8,2:0|2:0,2:0:0:0:
228,50,184662,2,0,P|388:40|416:212,1,337.499991416931,0|8,2:0|2:0,2:0:0:0:
397,282,185422,1,0,2:0:0:0:
299,338,185612,2,0,L|182:320,1,112.499997138977,0|0,2:0|2:0,2:0:0:0:
108,229,185991,2,0,L|125:117,1,112.499997138977,8|0,2:0|2:0,2:0:0:0:
213,53,186371,2,0,L|324:70,1,112.499997138977,0|0,2:0|2:0,2:0:0:0:
393,148,186751,2,0,L|375:259,1,112.499997138977,8|0,2:0|2:0,2:0:0:0:
232,338,187131,2,0,P|110:286|98:171,1,224.999994277954,0|8,2:0|2:0,2:0:0:0:
198,66,187700,1,0,2:0:0:0:
351,140,187890,1,0,2:0:0:0:
263,272,188080,1,0,2:0:0:0:
102,188,188270,6,0,P|164:70|253:78,1,224.999994277954,8|0,2:0|2:0,2:0:0:0:
399,160,188840,1,0,2:0:0:0:
363,313,189029,1,8,2:0:0:0:
198,322,189219,2,0,P|96:253|103:161,1,224.999994277954,0|0,2:0|2:0,2:0:0:0:
264,86,189789,1,8,2:0:0:0:
420,200,189979,2,0,P|335:306|245:271,1,224.999994277954,0|0,2:0|2:0,2:0:0:0:
199,151,190548,6,0,P|216:116|260:98,1,56.2499985694885,8|0,2:0|2:0,2:0:0:0:
289,144,190738,2,0,P|279:170|258:189,1,56.2499985694885,0|0,2:0|2:0,2:0:0:0:
187,135,190928,2,0,P|210:103|258:92,1,58.1249967479706,0|0,2:0|2:0,2:0:0:0:
299,162,191118,2,0,P|285:186|257:204,1,58.1249967479706,0|0,2:0|2:0,2:0:0:0:
180,117,191308,2,0,P|208:90|257:84,1,59.9999961853028,8|0,2:0|2:0,2:0:0:0:
302,182,191498,2,0,P|284:203|251:216,1,59.9999961853028,0|0,2:0|2:0,2:0:0:0:
178,94,191688,2,0,P|210:72|261:75,1,61.8749966561795,0|0,2:0|2:0,2:0:0:0:
298,205,191877,2,0,P|276:222|238:229,1,61.8749966561795,0|0,2:0|2:0,2:0:0:0:
195,98,192067,2,0,P|230:82|283:93,1,63.7499971628189,8|0,2:0|2:0,2:0:0:0:
287,201,192257,2,0,P|263:215|225:217,1,63.7499971628189,0|0,2:0|2:0,2:0:0:0:
209,102,192447,2,0,P|247:92|296:112,1,61.8749966561795,0|0,2:0|2:0,2:0:0:0:
277,195,192637,2,0,P|251:204|215:200,1,61.8749966561795,0|0,2:0|2:0,2:0:0:0:
218,110,192827,2,0,P|258:102|296:126,1,59.9999961853028,0|0,2:0|2:0,2:0:0:0:
269,184,193017,2,0,P|242:189|210:179,1,59.9999961853028,0|0,2:0|2:0,2:0:0:0:
199,151,193207,2,0,P|235:101|303:103,1,116.249993495941,0|0,2:0|2:0,2:0:0:0:
350,208,193586,6,0,P|320:253|266:258,1,112.499997138977,8|0,2:0|2:0,2:0:0:0:
211,116,193966,2,0,P|261:137|283:187,1,112.499997138977,0|0,2:0|2:0,2:0:0:0:
348,333,194346,2,0,P|246:294|214:190,1,224.999994277954,8|0,2:0|2:0,2:0:0:0:
279,130,194915,1,0,2:0:0:0:
364,122,195105,1,8,2:0:0:0:
410,200,195295,2,0,P|350:316|338:182,1,337.499991416931,0|8,2:0|2:0,2:0:0:0:
375,54,196055,1,0,2:0:0:0:
218,79,196245,2,0,P|143:65|31:161,1,224.999994277954,0|8,2:0|2:0,2:0:0:0:
112,326,196814,2,0,P|275:334|388:216,1,337.499991416931,0|8,2:0|2:0,2:0:0:0:
256,132,197574,1,0,2:0:0:0:
134,210,197764,6,0,P|154:280|205:308,1,112.499997138977,0|0,2:0|2:0,2:0:0:0:
385,221,198143,2,0,P|375:166|335:129,1,112.499997138977,8|0,2:0|2:0,2:0:0:0:
273,338,198523,2,0,P|327:328|364:288,1,112.499997138977,0|0,2:0|2:0,2:0:0:0:
259,90,198903,2,0,P|204:99|167:139,1,112.499997138977,8|0,2:0|2:0,2:0:0:0:
333,335,199283,2,0,P|419:272|352:173,1,224.999994277954,0|8,2:0|2:0,2:0:0:0:
257,80,199852,1,0,2:0:0:0:
120,201,200042,1,0,2:0:0:0:
255,330,200232,1,0,2:0:0:0:
429,175,200422,6,0,P|363:70|233:97,1,224.999994277954,8|0,2:0|2:0,2:0:0:0:
262,230,200991,1,0,2:0:0:0:
262,230,201181,1,8,2:0:0:0:
271,69,201371,2,0,P|379:79|429:174,1,224.999994277954,0|0,2:0|2:0,2:0:0:0:
411,342,201941,1,8,2:0:0:0:
396,258,202131,6,0,B|454:214|454:214|393:193|393:193|438:168|438:168|380:151|380:151|426:124|426:124|378:105|378:105|418:87|418:87|363:71|363:71|411:39|411:39|348:29|348:29,1,562.499985694885,0|0,2:0|2:0,2:0:0:0:
274,134,203270,1,0,2:0:0:0:
187,35,203460,6,0,P|110:64|64:205,1,224.999994277954,8|8,2:0|2:0,2:0:0:0:
219,296,204029,1,0,2:0:0:0:
380,216,204219,5,8,2:0:0:0:
264,303,204409,1,0,2:0:0:0:
397,202,204599,5,8,2:0:0:0:
246,316,204789,1,0,2:0:0:0:
409,194,204979,5,8,2:0:0:0:
235,324,205169,1,0,2:0:0:0:
424,181,205358,6,0,P|404:281|295:269,1,224.999994277954,4|8,2:0|2:0,2:0:0:0:
280,105,205928,1,0,2:0:0:0:
118,184,206118,2,0,P|50:262|117:342,1,224.999994277954,0|8,2:0|2:0,2:0:0:0:
287,265,206688,1,0,2:0:0:0:
117,342,206877,2,0,P|51:268|145:185,1,224.999994277954,0|8,2:0|2:0,2:0:0:0:
334,155,207447,2,0,P|448:192|345:333,1,337.499991416931,0|8,2:0|2:0,2:0:0:0:
335,335,208207,1,0,2:0:0:0:
137,254,208396,6,0,P|119:200|164:162,1,112.499997138977,0|0,2:0|2:0,2:0:0:0:
292,329,208776,2,0,P|236:353|198:308,1,112.499997138977,8|0,2:0|2:0,2:0:0:0:
371,170,209156,2,0,P|389:220|354:260,1,112.499997138977,0|0,2:0|2:0,2:0:0:0:
222,98,209536,2,0,P|268:72|312:103,1,112.499997138977,8|0,2:0|2:0,2:0:0:0:
371,282,209915,2,0,P|274:331|173:264,1,224.999994277954,0|8,2:0|2:0,2:0:0:0:
93,140,210485,1,0,2:0:0:0:
239,51,210675,1,0,2:0:0:0:
367,155,210865,6,0,P|394:199|364:252,2,112.499997138977,0|8|0,2:0|2:0|2:0,2:0:0:0:
217,82,211434,2,0,P|112:107|72:208,1,224.999994277954,0|8,2:0|2:0,2:0:0:0:
227,328,212004,2,0,P|383:337|426:186,1,337.499991416931,0|8,2:0|2:0,2:0:0:0:
296,127,212764,1,0,2:0:0:0:
155,201,212953,2,0,L|335:355,1,224.999994277954,0|8,2:0|2:0,2:0:0:0:
461,193,213523,2,0,P|389:97|174:70,1,337.499991416931,0|8,2:0|2:0,2:0:0:0:
59,195,214283,1,0,2:0:0:0:
198,332,214472,6,0,L|284:320,1,56.2499985694885,2|0,3:0|3:0,3:0:0:0:
303,274,214662,2,0,L|295:218,1,56.2499985694885,0|0,3:0|3:0,3:0:0:0:
242,181,214852,2,0,L|186:188,1,56.2499985694885,0|0,3:0|3:0,3:0:0:0:
136,235,215042,2,0,L|143:290,1,56.2499985694885,0|0,3:0|3:0,3:0:0:0:
257,331,215232,6,0,L|195:339,1,56.2499985694885,2|0,3:0|3:0,3:0:0:0:
135,293,215422,2,0,L|127:232,1,56.2499985694885,0|0,3:0|3:0,3:0:0:0:
182,181,215612,2,0,L|244:173,1,56.2499985694885,0|0,3:0|3:0,3:0:0:0:
302,214,215802,2,0,L|311:275,1,56.2499985694885,0|0,3:0|3:0,3:0:0:0:
188,347,215991,6,0,L|255:338,1,56.2499985694885,2|0,3:0|3:0,3:0:0:0:
314,278,216181,2,0,L|301:207,1,56.2499985694885,0|0,3:0|3:0,3:0:0:0:
174,175,216371,2,0,L|241:166,1,56.2499985694885,2|0,3:0|3:0,3:0:0:0:
304,211,216561,2,0,L|313:277,1,56.2499985694885,0|0,3:0|3:0,3:0:0:0:
263,344,216751,6,0,L|191:355,1,56.2499985694885,2|0,3:0|3:0,3:0:0:0:
120,300,216941,2,0,L|111:229,1,56.2499985694885,2|0,3:0|3:0,3:0:0:0:
176,167,217131,2,0,L|248:158,1,56.2499985694885,2|0,3:0|3:0,3:0:0:0:
317,206,217321,2,0,L|327:279,1,56.2499985694885,2|0,3:0|3:0,3:0:0:0:
331,299,217510,6,0,P|393:261|416:191,1,149.999990463257,4|8,2:0|2:0,2:0:0:0:
253,83,218080,1,0,2:0:0:0:
102,195,218270,2,0,P|125:264|191:296,1,149.999990463257,0|8,2:0|2:0,2:0:0:0:
372,203,218840,1,0,2:0:0:0:
276,58,219029,2,0,P|193:103|189:165,1,149.999990463257,0|8,2:0|2:0,2:0:0:0:
282,295,219599,2,0,P|344:305|277:255,1,224.999985694886,0|8,2:0|2:0,2:0:0:0:
128,303,220358,1,0,2:0:0:0:
208,143,220548,6,0,P|271:111|343:138,1,149.999990463257,0|8,2:0|2:0,2:0:0:0:
460,280,221118,1,0,2:0:0:0:
363,164,221308,2,0,L|475:298,1,149.999990463257,0|8,2:0|2:0,2:0:0:0:
290,331,221877,1,0,2:0:0:0:
202,236,222067,2,0,P|228:310|298:331,1,149.999990463257,0|8,2:0|2:0,2:0:0:0:
290,331,222637,1,0,2:0:0:0:
180,311,222827,1,0,2:0:0:0:
154,201,223017,5,0,2:0:0:0:
269,139,223207,1,8,2:0:0:0:
359,237,223396,1,0,2:0:0:0:
223,307,223586,2,0,P|145:266|133:199,1,149.999990463257,0|8,2:0|2:0,2:0:0:0:
308,85,224156,2,0,P|411:107|391:217,1,224.999985694886,0|8,2:0|2:0,2:0:0:0:
302,330,224915,1,0,2:0:0:0:
144,255,225105,2,0,P|124:183|175:137,1,149.999990463257,0|8,2:0|2:0,2:0:0:0:
284,292,225675,2,0,P|254:184|331:115,1,224.999985694886,0|8,2:0|2:0,2:0:0:0:
444,231,226434,1,0,2:0:0:0:
333,339,226624,6,0,L|167:269,1,149.999990463257,0|8,2:0|2:0,2:0:0:0:
72,195,227194,2,0,P|85:66|187:48,1,224.999985694886,0|8,2:0|2:0,2:0:0:0:
289,163,227953,1,0,2:0:0:0:
122,237,228143,2,0,P|142:303|215:338,1,149.999990463257,0|8,2:0|2:0,2:0:0:0:
348,134,228713,1,0,2:0:0:0:
193,182,228903,2,0,P|214:251|282:274,1,149.999990463257,0|8,2:0|2:0,2:0:0:0:
445,192,229472,5,8,2:1:0:0:
372,62,229662,1,8,2:1:0:0:
327,321,229852,1,8,2:1:0:0:
256,192,230042,1,4,2:1:0:0:
256,192,230137,12,0,232321,2:0:0:0:
255,162,232700,5,0,3:0:0:0:
226,192,232795,1,0,3:0:0:0:
255,222,232890,1,0,3:0:0:0:
286,192,232985,1,0,3:0:0:0:
255,192,233080,1,4,3:1:0:0:
