osu file format v14

[General]
AudioFilename: Viktoria Modesta - Prototype (Cut Ver.).mp3
AudioLeadIn: 1250
PreviewTime: 56090
Countdown: 0
SampleSet: Soft
StackLeniency: 0.5
Mode: 0
LetterboxInBreaks: 1
WidescreenStoryboard: 1

[Editor]
Bookmarks: 101090
DistanceSpacing: 1.2
BeatDivisor: 4
GridSize: 4
TimelineZoom: 1

[Metadata]
Title:Prototype
TitleUnicode:Prototype
Artist:Viktoria Modesta
ArtistUnicode:Viktoria Modesta
Creator:Prismetical
Version:Normal
Source:
Tags:channel4 cut pro amputee ReFaller
BeatmapID:876876
BeatmapSetID:403167

[Difficulty]
HPDrainRate:3
CircleSize:3.5
OverallDifficulty:4
ApproachRate:5
SliderMultiplier:1.4
SliderTickRate:2

[Events]
//Background and Video events
0,0,"ImThePro1.jpg",0,0
Video,445,"NotSoModest.avi"
//Break Periods
//Storyboard Layer 0 (Background)
//Storyboard Layer 1 (Fail)
//Storyboard Layer 2 (Pass)
//Storyboard Layer 3 (Foreground)
//Storyboard Sound Samples

[TimingPoints]
625,697.674418604651,4,2,0,60,1,0
22950,-100,4,2,0,60,0,1
33764,-100,4,2,0,60,0,0
56438,-100,4,2,0,60,0,1
78415,-100,4,2,0,60,0,0
100218,-100,4,2,0,35,0,0

[Colours]
Combo1 : 251,85,176
Combo2 : 34,242,174

[HitObjects]
71,180,625,6,0,P|97:115|154:77,1,140,0|4,0:0|0:0,0:0:0:0:
236,56,1671,1,0,0:0:0:0:
316,77,2020,2,0,P|373:115|398:179,1,140,0|4,0:0|0:0,0:0:0:0:
432,256,3066,1,0,0:0:0:0:
364,304,3415,2,0,P|296:340|196:308,1,140,0|4,0:0|0:0,0:0:0:0:
176,272,4462,1,0,0:0:0:0:
100,232,4811,2,0,P|60:178|60:84,2,140
252,304,6904,5,4,0:0:0:0:
332,328,7252,1,0,0:0:0:0:
416,344,7601,2,0,B|436:292|436:292|416:260|416:260|436:208,1,140,0|4,0:0|0:0,0:0:0:0:
468,140,8648,1,0,0:0:0:0:
384,144,8997,2,0,P|316:136|240:168,1,140,0|4,0:0|0:0,0:0:0:0:
192,220,10043,1,0,0:0:0:0:
136,284,10392,2,0,L|72:360,2,70
252,160,11787,5,0,0:0:0:0:
316,216,12136,2,0,L|380:264,1,70,0|2,0:0|0:0,0:0:0:0:
376,344,12834,2,0,L|288:352,1,70
224,344,13531,2,0,L|160:300,2,70,0|2|0,0:0|0:0|0:0,0:0:0:0:
272,276,14578,1,0,0:0:0:0:
320,212,14927,1,0,0:0:0:0:
372,148,15276,2,0,L|384:48,1,70,2|0,0:0|0:0,0:0:0:0:
296,80,15973,2,2,L|184:80,2,70
128,80,17369,5,0,0:0:0:0:
76,148,17718,2,0,P|68:212|84:244,1,70,0|2,0:0|0:0,0:0:0:0:
100,296,18415,2,0,P|147:339|183:344,1,70
176,260,19113,1,0,0:0:0:0:
244,208,19462,2,0,P|208:180|152:184,2,70,2|0|0,0:0|0:0|0:0,0:0:0:0:
256,292,20508,1,0,0:0:0:0:
340,292,20857,2,0,L|432:292,1,70,2|0,0:0|0:0,0:0:0:0:
488,324,21555,2,2,P|496:288|484:248,2,70
376,200,22950,5,0,0:0:0:0:
376,116,23299,2,0,L|376:32,2,70,0|2|0,0:0|0:0|0:0,0:0:0:0:
376,200,24345,1,0,0:0:0:0:
292,200,24694,2,0,L|200:200,1,70,0|2,0:0|0:0,0:0:0:0:
136,200,25392,1,0,0:0:0:0:
60,236,25741,2,0,P|48:200|60:160,1,70
120,116,26438,2,0,L|232:116,1,70,2|0,0:0|0:0,0:0:0:0:
276,120,27136,1,2,0:0:0:0:
324,188,27485,1,2,0:0:0:0:
276,256,27834,1,2,0:0:0:0:
190,115,28531,6,0,P|192:72|180:32,2,70,0|0|2,0:0|0:0|0:0,0:0:0:0:
152,192,29578,1,0,0:0:0:0:
92,252,29927,2,0,P|90:295|101:335,2,70,0|0|2,0:0|0:0|0:0,0:0:0:0:
152,192,30973,1,0,0:0:0:0:
236,192,31322,2,0,L|344:192,1,70
392,192,32020,2,0,L|392:112,1,70,2|0,0:0|0:0,0:0:0:0:
392,36,32718,2,2,L|322:36,1,70
236,36,33415,1,2,0:0:0:0:
112,152,34113,6,0,P|132:200|160:224,1,70
212,260,34811,1,2,0:0:0:0:
296,260,35159,2,0,P|347:253|377:233,2,70
212,260,36206,1,2,0:0:0:0:
240,180,36555,1,0,0:0:0:0:
288,112,36904,6,0,P|392:60|396:60,1,70
428,68,37601,2,0,P|436:108|424:172,1,70,2|0,0:0|0:0,0:0:0:0:
408,216,38299,2,0,P|383:248|324:280,1,70
284,304,38997,1,2,0:0:0:0:
200,312,39345,1,0,0:0:0:0:
128,268,39694,6,0,L|60:212,1,70
28,156,40392,2,0,L|136:120,1,70,2|0,0:0|0:0,0:0:0:0:
160,188,41090,2,0,L|192:112,1,70
184,40,41787,2,0,P|216:44|260:76,1,70,2|0,0:0|0:0,0:0:0:0:
272,144,42485,5,0,0:0:0:0:
356,156,42834,1,0,0:0:0:0:
344,240,43183,1,2,0:0:0:0:
420,276,43531,1,0,0:0:0:0:
360,336,43880,2,0,P|325:341|290:340,1,70,0|2,0:0|0:0,0:0:0:0:
228,284,44578,1,0,0:0:0:0:
156,324,44927,1,0,0:0:0:0:
128,244,45276,6,0,P|116:200|92:164,1,70
92,96,45973,2,0,P|130:80|162:36,1,70,2|0,0:0|0:0,0:0:0:0:
224,100,46671,2,0,P|248:136|276:153,2,70,0|0|2,0:0|0:0|0:0,0:0:0:0:
252,20,47718,1,0,0:0:0:0:
316,76,48066,6,0,P|347:105|360:135,1,70
384,212,48764,1,0,0:0:0:0:
316,264,49113,1,0,0:0:0:0:
392,300,49462,2,0,L|464:340,2,70,0|0|2,0:0|0:0|0:0,0:0:0:0:
316,264,50508,1,0,0:0:0:0:
248,216,50857,6,0,L|148:148,1,70
112,144,51555,2,0,L|92:216,1,70,2|0,0:0|0:0,0:0:0:0:
164,256,52252,2,0,L|180:348,1,70
252,292,52950,2,0,L|364:280,1,70,2|0,0:0|0:0,0:0:0:0:
256,192,53648,12,0,55392,0:0:0:0:
304,304,56438,5,0,0:0:0:0:
376,264,56787,2,0,P|402:237|432:180,1,70,0|2,0:0|0:0,0:0:0:0:
452,132,57485,2,0,P|416:104|372:92,1,70
352,168,58183,1,0,0:0:0:0:
312,92,58531,2,0,P|268:152|288:228,1,140,2|0,0:0|0:0,0:0:0:0:
328,280,59578,1,0,0:0:0:0:
244,292,59927,2,0,L|184:344,1,70,2|0,0:0|0:0,0:0:0:0:
108,356,60624,1,2,0:0:0:0:
60,288,60973,1,2,0:0:0:0:
116,224,61322,1,2,0:0:0:0:
260,136,62020,5,0,0:0:0:0:
328,188,62369,2,0,L|408:252,1,70,0|2,0:0|0:0,0:0:0:0:
408,312,63066,2,0,L|280:324,1,70
256,308,63764,2,0,L|180:292,2,70,0|2|0,0:0|0:0|0:0,0:0:0:0:
308,244,64811,1,0,0:0:0:0:
292,160,65159,2,0,P|276:100|264:76,1,70,0|2,0:0|0:0,0:0:0:0:
224,24,65857,1,0,0:0:0:0:
180,96,66206,2,2,L|148:160,1,70
108,232,66904,1,2,0:0:0:0:
272,200,67601,6,0,L|400:180,2,70,0|0|2,0:0|0:0|0:0,0:0:0:0:
188,216,68648,1,0,0:0:0:0:
108,232,68997,2,0,P|116:284|140:316,1,70
188,356,69694,1,2,0:0:0:0:
272,356,70043,1,0,0:0:0:0:
356,352,70392,2,0,P|388:300|404:284,2,70,0|0|2,0:0|0:0|0:0,0:0:0:0:
272,356,71438,1,0,0:0:0:0:
256,272,71787,2,2,L|240:180,1,70
228,120,72485,1,2,0:0:0:0:
392,88,73183,5,0,0:0:0:0:
452,28,73531,2,0,P|476:64|464:128,1,70,0|2,0:0|0:0,0:0:0:0:
436,164,74229,1,0,0:0:0:0:
388,232,74578,2,0,L|328:300,2,70,0|0|2,0:0|0:0|0:0,0:0:0:0:
436,164,75624,1,0,0:0:0:0:
352,156,75973,2,0,L|280:96,1,70
240,172,76671,2,0,L|184:228,1,70,2|0,0:0|0:0,0:0:0:0:
132,284,77369,1,2,0:0:0:0:
196,340,77718,1,2,0:0:0:0:
252,280,78066,1,2,0:0:0:0:
420,304,78764,6,0,P|472:252|484:220,1,70
480,172,79462,2,0,P|467:128|439:89,1,70,4|0,0:0|0:0,0:0:0:0:
396,48,80159,2,0,L|370:22,2,35
376,132,80857,5,4,0:0:0:0:
308,180,81206,1,0,0:0:0:0:
240,232,81555,2,0,L|168:284,1,70
148,348,82252,2,0,P|120:332|104:296,1,70,4|0,0:0|0:0,0:0:0:0:
128,216,82950,1,0,0:0:0:0:
444,60,84345,6,0,L|412:152,1,70
392,204,85043,1,4,0:0:0:0:
340,268,85392,1,0,0:0:0:0:
260,296,85741,2,0,L|211:211,1,70
185,162,86439,1,4,0:0:0:0:
171,81,86788,1,0,0:0:0:0:
252,64,87136,6,0,L|316:56,2,35
171,81,87834,1,4,0:0:0:0:
104,132,88183,1,0,0:0:0:0:
92,216,88531,2,0,L|80:300,1,70
152,332,89229,2,0,L|244:376,1,70
296,380,89927,5,0,0:0:0:0:
356,324,90276,1,0,0:0:0:0:
380,244,90624,2,0,L|388:164,1,70,4|0,0:0|0:0,0:0:0:0:
392,92,91322,1,0,0:0:0:0:
256,192,92020,1,4,0:0:0:0:
200,128,92369,1,0,0:0:0:0:
168,204,92718,6,0,L|128:308,2,70,0|0|4,0:0|0:0|0:0,0:0:0:0:
200,128,93764,1,0,0:0:0:0:
260,72,94113,2,0,P|332:60|416:100,1,140
456,136,95159,5,0,0:0:0:0:
476,220,95508,2,0,L|492:280,2,35
396,196,96206,1,4,0:0:0:0:
316,220,96555,1,0,0:0:0:0:
240,184,96904,2,0,L|224:124,2,35
192,252,97601,1,4,0:0:0:0:
112,272,97950,1,0,0:0:0:0:
32,252,98299,6,0,L|4:140,1,70
36,104,98997,2,0,L|148:96,1,70,4|0,0:0|0:0,0:0:0:0:
188,112,99694,2,0,L|276:128,1,70
336,150,100392,1,6,0:0:0:0:
