osu file format v14

[General]
AudioFilename: REMIX ZONE.mp3
AudioLeadIn: 0
PreviewTime: 40202
Countdown: 0
SampleSet: None
StackLeniency: 0.7
Mode: 3
LetterboxInBreaks: 0
SpecialStyle: 0
WidescreenStoryboard: 1

[Editor]
Bookmarks: 56220
DistanceSpacing: 1.2
BeatDivisor: 4
GridSize: 16
TimelineZoom: 1.4

[Metadata]
Title:REMIX ZONE
TitleUnicode:REMIX ZONE
Artist:Viksem
ArtistUnicode:ヴィクセム
Creator:-[ AmiShici ]-
Version:OLD EXTRA
Source:
Tags:Nico Douga beatmania IIDX 11 RED DanceDanceRevolution DDR SuperNOVA Jubeat saucer plus jukebeat chiptune Touhou 東方 Project Critical_Star [Baim] Shinzo-
BeatmapID:972574
BeatmapSetID:356979

[Difficulty]
HPDrainRate:8
CircleSize:4
OverallDifficulty:8
ApproachRate:5
SliderMultiplier:1.4
SliderTickRate:1

[Events]
//Background and Video events
0,0,"Red Shine.jpg",0,0
//Break Periods
//Storyboard Layer 0 (Background)
//Storyboard Layer 1 (Fail)
//Storyboard Layer 2 (Pass)
//Storyboard Layer 3 (Foreground)
//Storyboard Sound Samples
Sample,6020,0,"BassS.wav",35
Sample,6383,0,"BassS.wav",35
Sample,7474,0,"BassS.wav",35
Sample,7838,0,"BassS.wav",35
Sample,8929,0,"BassS.wav",35
Sample,9293,0,"BassS.wav",35
Sample,10383,0,"BassS.wav",35
Sample,10747,0,"BassS.wav",35
Sample,11838,0,"BassS.wav",35
Sample,12202,0,"BassS.wav",35
Sample,13293,0,"BassS.wav",35
Sample,13656,0,"BassS.wav",35
Sample,14747,0,"BassS.wav",35
Sample,15111,0,"BassS.wav",35
Sample,40565,0,"drum.wav",35
Sample,41293,0,"drum.wav",35
Sample,42020,0,"drum.wav",35
Sample,42747,0,"drum.wav",35
Sample,43474,0,"drum.wav",35
Sample,44202,0,"drum.wav",35
Sample,44929,0,"drum.wav",35
Sample,45656,0,"drum.wav",35
Sample,45747,0,"drum.wav",35
Sample,45838,0,"drum.wav",35
Sample,45929,0,"drum.wav",35
Sample,46383,0,"drum.wav",35
Sample,47111,0,"drum.wav",35
Sample,47838,0,"drum.wav",35
Sample,48565,0,"drum.wav",35
Sample,48656,0,"drum.wav",35
Sample,48747,0,"drum.wav",35
Sample,48838,0,"drum.wav",35
Sample,49293,0,"drum.wav",35
Sample,50020,0,"drum.wav",35
Sample,50747,0,"drum.wav",35

[TimingPoints]
5293,363.636363636364,4,2,0,25,1,0

[HitObjects]
448,192,5293,5,0,0:0:0:35:BassS.wav
64,192,5383,1,0,0:0:0:0:
448,192,5474,1,0,0:0:0:0:
64,192,5565,1,0,0:0:0:0:
448,192,5656,1,0,0:0:0:35:BassS.wav
448,192,5838,1,0,0:0:0:0:
64,192,5929,1,0,0:0:0:0:
448,192,6111,1,0,0:0:0:0:
64,192,6202,1,0,0:0:0:0:
192,192,6383,128,0,6565:0:0:0:0:
320,192,6565,128,0,6747:0:0:0:0:
448,192,6747,1,0,0:0:0:35:BassS.wav
64,192,6838,1,0,0:0:0:0:
448,192,6929,1,0,0:0:0:0:
64,192,7020,1,0,0:0:0:0:
448,192,7111,1,0,0:0:0:35:BassS.wav
448,192,7293,1,0,0:0:0:0:
64,192,7383,1,0,0:0:0:0:
448,192,7565,1,0,0:0:0:0:
64,192,7656,1,0,0:0:0:0:
320,192,7838,128,0,8020:0:0:0:0:
64,192,8020,128,0,8202:0:0:0:0:
448,192,8202,1,0,0:0:0:35:BassS.wav
192,192,8293,1,0,0:0:0:0:
448,192,8383,1,0,0:0:0:0:
192,192,8474,1,0,0:0:0:0:
448,192,8565,1,0,0:0:0:35:BassS.wav
448,192,8747,1,0,0:0:0:0:
192,192,8838,1,0,0:0:0:0:
448,192,9020,1,0,0:0:0:0:
192,192,9111,1,0,0:0:0:0:
448,192,9293,128,0,9474:0:0:0:0:
192,192,9474,128,0,9656:0:0:0:0:
320,192,9656,1,0,0:0:0:35:BassS.wav
64,192,9747,1,0,0:0:0:0:
320,192,9838,1,0,0:0:0:0:
64,192,9929,1,0,0:0:0:0:
320,192,10020,1,0,0:0:0:35:BassS.wav
320,192,10202,1,0,0:0:0:0:
64,192,10293,1,0,0:0:0:0:
320,192,10474,1,0,0:0:0:0:
64,192,10565,1,0,0:0:0:0:
448,192,10747,128,0,10929:0:0:0:0:
64,192,10929,128,0,11111:0:0:0:0:
192,192,11111,5,0,0:0:0:35:BassS.wav
448,192,11202,1,0,0:0:0:0:
192,192,11293,1,0,0:0:0:35:hihat.wav
448,192,11383,1,0,0:0:0:0:
192,192,11474,1,0,0:0:0:35:BassS.wav
64,192,11474,1,0,0:0:0:0:
192,192,11656,1,0,0:0:0:0:
448,192,11747,1,0,0:0:0:0:
192,192,11929,1,0,0:0:0:0:
448,192,12020,1,0,0:0:0:35:hihat.wav
192,192,12202,128,0,12383:0:0:0:0:
64,192,12202,1,0,0:0:0:0:
448,192,12383,128,0,12565:0:0:0:0:
320,192,12565,1,0,0:0:0:35:BassS.wav
192,192,12656,1,0,0:0:0:0:
320,192,12747,1,0,0:0:0:35:hihat.wav
192,192,12838,1,0,0:0:0:0:
320,192,12929,1,0,0:0:0:35:BassS.wav
448,192,12929,1,0,0:0:0:0:
320,192,13111,1,0,0:0:0:0:
192,192,13202,1,0,0:0:0:0:
320,192,13383,1,0,0:0:0:0:
192,192,13474,1,0,0:0:0:35:hihat.wav
320,192,13656,128,0,13838:0:0:0:0:
448,192,13656,1,0,0:0:0:0:
192,192,13838,128,0,14020:0:0:0:0:
64,192,14020,1,0,0:0:0:35:BassS.wav
448,192,14111,1,0,0:0:0:0:
64,192,14202,1,0,0:0:0:35:hihat.wav
448,192,14293,1,0,0:0:0:0:
64,192,14383,1,0,0:0:0:35:BassS.wav
192,192,14383,1,0,0:0:0:0:
64,192,14565,1,0,0:0:0:0:
448,192,14656,1,0,0:0:0:0:
64,192,14838,1,0,0:0:0:0:
448,192,14929,1,0,0:0:0:35:hihat.wav
64,192,15111,128,0,15293:0:0:0:0:
192,192,15111,1,0,0:0:0:0:
320,192,15293,128,0,15474:0:0:0:0:
192,192,15474,1,0,0:0:0:35:kickdrum.wav
64,192,15474,1,0,0:0:0:0:
448,192,15565,1,0,0:0:0:0:
320,192,15565,1,0,0:0:0:35:kickdrum.wav
64,192,15656,1,0,0:0:0:0:
192,192,15656,1,0,0:0:0:35:kickdrum.wav
320,192,15747,1,0,0:0:0:35:kickdrum.wav
448,192,15747,1,0,0:0:0:0:
64,192,15838,1,0,0:0:0:0:
192,192,15838,1,0,0:0:0:35:kickdrum.wav
64,192,16020,1,0,0:0:0:0:
192,192,16020,1,0,0:0:0:35:kickdrum.wav
320,192,16111,1,0,0:0:0:35:kickdrum.wav
448,192,16111,1,0,0:0:0:0:
64,192,16293,1,0,0:0:0:0:
192,192,16293,1,0,0:0:0:35:kickdrum.wav
320,192,16383,1,0,0:0:0:35:kickdrum.wav
448,192,16383,1,0,0:0:0:0:
192,192,16565,1,0,0:0:0:35:kickdrum.wav
64,192,16565,1,0,0:0:0:0:
320,192,16656,1,0,0:0:0:35:kickdrum.wav
448,192,16656,1,0,0:0:0:0:
192,192,16747,1,0,0:0:0:35:kickdrum.wav
64,192,16747,1,0,0:0:0:0:
320,192,16838,1,0,0:0:0:35:kickdrum.wav
448,192,16838,1,0,0:0:0:0:
448,192,16929,1,0,0:0:0:35:bass.wav
64,192,16929,1,0,0:0:0:35:crash.wav
192,192,16929,1,0,0:0:0:0:
320,192,17020,1,0,0:0:0:0:
192,192,17111,1,0,0:0:0:0:
448,192,17202,1,0,0:0:0:0:
320,192,17293,1,0,0:0:0:35:drum.wav
64,192,17383,1,0,0:0:0:0:
448,192,17474,1,0,0:0:0:0:
192,192,17565,1,0,0:0:0:0:
64,192,17656,1,0,0:0:0:35:bass.wav
448,192,17747,1,0,0:0:0:0:
320,192,17838,1,0,0:0:0:0:
192,192,17929,1,0,0:0:0:0:
448,192,18020,1,0,0:0:0:35:drum.wav
64,192,18020,1,0,0:0:0:0:
320,192,18111,1,0,0:0:0:0:
448,192,18202,1,0,0:0:0:0:
64,192,18202,1,0,0:0:0:0:
448,192,18383,1,0,0:0:0:0:
320,192,18383,1,0,0:0:0:35:bass.wav
64,192,18474,1,0,0:0:0:0:
192,192,18565,1,0,0:0:0:0:
320,192,18656,1,0,0:0:0:0:
448,192,18747,1,0,0:0:0:35:drum.wav
64,192,18838,1,0,0:0:0:0:
192,192,18929,1,0,0:0:0:0:
320,192,19020,1,0,0:0:0:0:
448,192,19111,1,0,0:0:0:35:bass.wav
320,192,19202,1,0,0:0:0:0:
64,192,19293,1,0,0:0:0:0:
192,192,19383,1,0,0:0:0:0:
320,192,19474,1,0,0:0:0:0:
64,192,19474,1,0,0:0:0:35:drum.wav
320,192,19565,1,0,0:0:0:0:
320,192,19747,1,0,0:0:0:0:
448,192,19838,1,0,0:0:0:35:bass.wav
64,192,19838,1,0,0:0:0:0:
192,192,19929,1,0,0:0:0:0:
320,192,20020,1,0,0:0:0:0:
192,192,20111,1,0,0:0:0:0:
320,192,20202,1,0,0:0:0:35:drum.wav
448,192,20293,1,0,0:0:0:0:
64,192,20383,1,0,0:0:0:0:
320,192,20474,1,0,0:0:0:0:
448,192,20565,1,0,0:0:0:35:bass.wav
64,192,20656,1,0,0:0:0:0:
192,192,20747,1,0,0:0:0:0:
320,192,20838,1,0,0:0:0:0:
448,192,20929,1,0,0:0:0:0:
64,192,20929,1,0,0:0:0:35:drum.wav
192,192,21020,1,0,0:0:0:0:
64,192,21111,1,0,0:0:0:0:
448,192,21111,1,0,0:0:0:0:
320,192,21293,1,0,0:0:0:35:bass.wav
448,192,21293,1,0,0:0:0:0:
192,192,21383,1,0,0:0:0:0:
64,192,21474,1,0,0:0:0:0:
448,192,21565,1,0,0:0:0:0:
320,192,21656,1,0,0:0:0:35:drum.wav
192,192,21747,1,0,0:0:0:0:
448,192,21838,1,0,0:0:0:0:
320,192,21929,1,0,0:0:0:0:
64,192,22020,1,0,0:0:0:0:
192,192,22020,1,0,0:0:0:35:bass.wav
64,192,22202,1,0,0:0:0:0:
192,192,22202,1,0,0:0:0:35:bass.wav
64,192,22383,1,0,0:0:0:0:
192,192,22383,1,0,0:0:0:35:drum.wav
448,192,22505,1,0,0:0:0:0:
320,192,22505,1,0,0:0:0:35:drum.wav
64,192,22626,1,0,0:0:0:0:
192,192,22626,1,0,0:0:0:35:drum.wav
448,192,22747,1,0,0:0:0:35:crash.wav
320,192,22747,1,0,0:0:0:35:bass.wav
64,192,22747,1,0,0:0:0:0:
192,192,22838,1,0,0:0:0:0:
320,192,22929,1,0,0:0:0:0:
64,192,23020,1,0,0:0:0:0:
320,192,23111,1,0,0:0:0:35:drum.wav
448,192,23202,1,0,0:0:0:0:
192,192,23293,1,0,0:0:0:0:
320,192,23383,1,0,0:0:0:0:
448,192,23474,1,0,0:0:0:35:bass.wav
64,192,23565,1,0,0:0:0:0:
192,192,23656,1,0,0:0:0:0:
320,192,23747,1,0,0:0:0:0:
448,192,23838,1,0,0:0:0:0:
64,192,23838,1,0,0:0:0:35:drum.wav
192,192,23929,1,0,0:0:0:0:
64,192,24020,1,0,0:0:0:0:
448,192,24020,1,0,0:0:0:0:
192,192,24202,1,0,0:0:0:35:bass.wav
64,192,24202,1,0,0:0:0:0:
320,192,24293,1,0,0:0:0:0:
448,192,24383,1,0,0:0:0:0:
64,192,24474,1,0,0:0:0:0:
448,192,24565,1,0,0:0:0:35:drum.wav
192,192,24656,1,0,0:0:0:0:
320,192,24747,1,0,0:0:0:0:
448,192,24838,1,0,0:0:0:0:
192,192,24929,1,0,0:0:0:35:bass.wav
64,192,25020,1,0,0:0:0:0:
192,192,25111,1,0,0:0:0:0:
320,192,25202,1,0,0:0:0:0:
448,192,25293,1,0,0:0:0:35:drum.wav
320,192,25383,1,0,0:0:0:0:
192,192,25474,1,0,0:0:0:0:
64,192,25565,1,0,0:0:0:0:
192,192,25656,1,0,0:0:0:35:bass.wav
448,192,25656,1,0,0:0:0:0:
320,192,25747,1,0,0:0:0:0:
64,192,25838,1,0,0:0:0:0:
448,192,25929,1,0,0:0:0:0:
192,192,26020,1,0,0:0:0:35:drum.wav
64,192,26111,1,0,0:0:0:0:
320,192,26202,1,0,0:0:0:0:
192,192,26293,1,0,0:0:0:0:
64,192,26383,1,0,0:0:0:35:bass.wav
448,192,26474,1,0,0:0:0:0:
320,192,26565,1,0,0:0:0:0:
192,192,26656,1,0,0:0:0:0:
320,192,26747,1,0,0:0:0:35:drum.wav
192,192,26838,1,0,0:0:0:0:
64,192,26929,1,0,0:0:0:0:
192,192,27020,1,0,0:0:0:0:
448,192,27202,1,0,0:0:0:0:
64,192,27202,1,0,0:0:0:0:
192,192,27383,1,0,0:0:0:35:drum.wav
448,192,27474,1,0,0:0:0:35:drum.wav
64,192,27474,1,0,0:0:0:0:
320,192,27565,1,0,0:0:0:0:
192,192,27656,1,0,0:0:0:35:drum.wav
64,192,27747,1,0,0:0:0:0:
448,192,27747,1,0,0:0:0:35:drum.wav
64,192,27929,1,0,0:0:0:35:bass.wav
448,192,27929,128,0,28111:0:0:0:0:
320,192,28020,1,0,0:0:0:35:bass.wav
64,192,28111,128,0,28202:0:0:0:0:
192,192,28202,128,0,28293:0:0:0:0:
448,192,28202,1,0,0:0:0:35:bass.wav
320,192,28293,128,0,28383:0:0:0:0:
64,192,28293,1,0,0:0:0:35:bass.wav
448,192,28383,128,0,28474:0:0:0:0:
192,192,28383,1,0,0:0:0:35:bass.wav
320,192,28474,1,0,0:0:0:35:bass.wav
64,192,28474,128,0,28565:0:0:0:0:
448,192,28565,1,0,0:0:0:35:crash.wav
192,192,28565,1,0,0:0:0:0:
64,192,28747,128,0,28929:0:0:0:0:
320,192,28747,1,0,0:0:0:0:
448,192,28929,1,0,0:0:0:35:drum.wav
192,192,28929,1,0,0:0:0:0:
320,192,29111,1,0,0:0:0:0:
64,192,29111,128,0,29293:0:0:0:0:
192,192,29293,1,0,0:0:0:0:
448,192,29293,1,0,0:0:0:35:bass.wav
320,192,29383,1,0,0:0:0:0:
192,192,29474,1,0,0:0:0:0:
64,192,29474,128,0,29656:0:0:0:0:
320,192,29656,1,0,0:0:0:0:
448,192,29656,1,0,0:0:0:35:drum.wav
64,192,29838,128,0,30020:0:0:0:0:
192,192,29838,1,0,0:0:0:0:
320,192,30020,1,0,0:0:0:0:
448,192,30020,1,0,0:0:0:35:bass.wav
192,192,30202,128,0,30383:0:0:0:0:
448,192,30202,1,0,0:0:0:0:
320,192,30383,1,0,0:0:0:35:drum.wav
64,192,30383,1,0,0:0:0:0:
192,192,30565,128,0,30747:0:0:0:0:
448,192,30565,1,0,0:0:0:0:
64,192,30747,1,0,0:0:0:0:
320,192,30747,1,0,0:0:0:35:bass.wav
448,192,30838,1,0,0:0:0:0:
320,192,30929,128,0,31111:0:0:0:0:
64,192,30929,1,0,0:0:0:0:
192,192,31020,1,0,0:0:0:0:
64,192,31111,1,0,0:0:0:0:
448,192,31111,1,0,0:0:0:35:drum.wav
320,192,31293,128,0,31474:0:0:0:0:
192,192,31293,1,0,0:0:0:0:
192,192,31474,1,0,0:0:0:35:crash.wav
448,192,31474,1,0,0:0:0:0:
64,192,31474,1,0,0:0:0:0:
320,192,31565,1,0,0:0:0:0:
192,192,31656,1,0,0:0:0:0:
64,192,31747,1,0,0:0:0:0:
448,192,31747,1,0,0:0:0:35:cymbol.wav
320,192,31747,1,0,0:0:0:0:
192,192,31838,1,0,0:0:0:0:
64,192,31929,1,0,0:0:0:0:
448,192,32020,1,0,0:0:0:35:cymbol.wav
320,192,32020,1,0,0:0:0:0:
192,192,32020,1,0,0:0:0:0:
64,192,32111,1,0,0:0:0:0:
448,192,32202,1,0,0:0:0:0:
320,192,32293,1,0,0:0:0:0:
192,192,32383,1,0,0:0:0:35:cymbol.wav
64,192,32383,1,0,0:0:0:0:
448,192,32383,1,0,0:0:0:0:
320,192,32474,1,0,0:0:0:0:
192,192,32565,1,0,0:0:0:35:cymbol.wav
64,192,32565,1,0,0:0:0:0:
448,192,32565,1,0,0:0:0:0:
320,192,32656,1,0,0:0:0:0:
192,192,32747,1,0,0:0:0:35:cymbol.wav
448,192,32747,1,0,0:0:0:0:
64,192,32747,1,0,0:0:0:0:
448,192,32929,1,0,0:0:0:35:cymbol.wav
192,192,32929,1,0,0:0:0:0:
320,192,33020,1,0,0:0:0:35:cymbol.wav
64,192,33020,1,0,0:0:0:0:
192,192,33111,1,0,0:0:0:0:
448,192,33202,1,0,0:0:0:0:
320,192,33202,1,0,0:0:0:35:cymbol.wav
192,192,33293,1,0,0:0:0:35:cymbol.wav
64,192,33293,1,0,0:0:0:0:
320,192,33383,1,0,0:0:0:0:
448,192,33474,1,0,0:0:0:0:
192,192,33474,1,0,0:0:0:35:cymbol.wav
320,192,33565,1,0,0:0:0:35:cymbol.wav
64,192,33565,1,0,0:0:0:0:
192,192,33656,1,0,0:0:0:0:
64,192,33747,1,0,0:0:0:35:cymbol.wav
448,192,33747,1,0,0:0:0:0:
192,192,33838,1,0,0:0:0:35:cymbol.wav
320,192,33838,1,0,0:0:0:0:
448,192,33929,1,0,0:0:0:0:
192,192,34020,1,0,0:0:0:35:cymbol.wav
64,192,34020,1,0,0:0:0:0:
320,192,34020,1,0,0:0:0:0:
448,192,34111,1,0,0:0:0:0:
320,192,34202,1,0,0:0:0:0:
64,192,34202,1,0,0:0:0:0:
192,192,34202,1,0,0:0:0:35:cymbol.wav
448,192,34293,1,0,0:0:0:0:
320,192,34383,1,0,0:0:0:35:bass.wav
64,192,34383,1,0,0:0:0:0:
192,192,34565,128,0,34747:0:0:0:0:
320,192,34565,1,0,0:0:0:0:
64,192,34747,1,0,0:0:0:0:
448,192,34747,1,0,0:0:0:35:drum.wav
320,192,34929,1,0,0:0:0:0:
192,192,34929,128,0,35111:0:0:0:0:
448,192,35111,1,0,0:0:0:35:bass.wav
64,192,35111,1,0,0:0:0:0:
320,192,35202,1,0,0:0:0:0:
192,192,35293,128,0,35474:0:0:0:0:
448,192,35293,1,0,0:0:0:0:
64,192,35474,1,0,0:0:0:0:
320,192,35474,1,0,0:0:0:35:drum.wav
192,192,35656,128,0,35838:0:0:0:0:
448,192,35656,1,0,0:0:0:0:
64,192,35838,1,0,0:0:0:0:
320,192,35838,1,0,0:0:0:35:bass.wav
320,192,36020,128,0,36202:0:0:0:0:
192,192,36020,1,0,0:0:0:0:
64,192,36202,1,0,0:0:0:0:
448,192,36202,1,0,0:0:0:35:drum.wav
320,192,36383,128,0,36565:0:0:0:0:
192,192,36383,1,0,0:0:0:0:
448,192,36565,1,0,0:0:0:0:
64,192,36565,1,0,0:0:0:35:bass.wav
192,192,36656,1,0,0:0:0:0:
448,192,36747,128,0,36929:0:0:0:0:
320,192,36747,1,0,0:0:0:0:
192,192,36838,1,0,0:0:0:0:
64,192,36929,1,0,0:0:0:35:drum.wav
320,192,36929,1,0,0:0:0:0:
448,192,37111,128,0,37293:0:0:0:0:
192,192,37111,1,0,0:0:0:0:
192,192,37293,1,0,0:0:0:0:
64,192,37293,1,0,0:0:0:35:crash.wav
320,192,37293,1,0,0:0:0:0:
448,192,37383,1,0,0:0:0:0:
64,192,37474,1,0,0:0:0:0:
448,192,37565,1,0,0:0:0:0:
192,192,37565,1,0,0:0:0:0:
320,192,37565,1,0,0:0:0:35:cymbol.wav
64,192,37656,1,0,0:0:0:0:
448,192,37747,1,0,0:0:0:0:
64,192,37838,1,0,0:0:0:0:
192,192,37838,1,0,0:0:0:0:
320,192,37838,1,0,0:0:0:35:cymbol.wav
448,192,37929,1,0,0:0:0:0:
64,192,38020,1,0,0:0:0:0:
192,192,38111,1,0,0:0:0:0:
320,192,38202,1,0,0:0:0:35:cymbol.wav
448,192,38202,1,0,0:0:0:0:
64,192,38202,1,0,0:0:0:0:
192,192,38293,1,0,0:0:0:0:
320,192,38383,1,0,0:0:0:35:cymbol.wav
448,192,38383,1,0,0:0:0:0:
64,192,38383,1,0,0:0:0:0:
192,192,38474,1,0,0:0:0:0:
320,192,38565,1,0,0:0:0:35:cymbol.wav
64,192,38565,1,0,0:0:0:0:
448,192,38565,1,0,0:0:0:0:
448,192,38747,1,0,0:0:0:0:
64,192,38747,1,0,0:0:0:0:
192,192,38838,1,0,0:0:0:0:
320,192,38838,1,0,0:0:0:0:
448,192,39020,1,0,0:0:0:0:
64,192,39020,1,0,0:0:0:0:
64,192,39202,1,0,0:0:0:0:
320,192,39202,1,0,0:0:0:0:
64,192,39383,1,0,0:0:0:0:
192,192,39383,1,0,0:0:0:35:BassS.wav
320,192,39474,1,0,0:0:0:35:BassS.wav
448,192,39474,1,0,0:0:0:0:
64,192,39565,1,0,0:0:0:0:
192,192,39565,1,0,0:0:0:35:BassS.wav
448,192,39656,1,0,0:0:0:0:
320,192,39656,1,0,0:0:0:35:BassS.wav
64,192,39747,1,0,0:0:0:0:
192,192,39747,1,0,0:0:0:35:BassS.wav
320,192,39838,1,0,0:0:0:35:BassS.wav
448,192,39883,1,0,0:0:0:35:BassS.wav
64,192,39929,1,0,0:0:0:35:BassS.wav
192,192,39974,1,0,0:0:0:35:BassS.wav
320,192,40020,1,0,0:0:0:35:BassS.wav
448,192,40065,1,0,0:0:0:35:BassS.wav
320,192,40111,1,0,0:0:0:35:BassS.wav
192,192,40156,1,0,0:0:0:35:BassS.wav
320,192,40202,1,0,0:0:0:35:crash.wav
448,192,40202,128,0,40383:0:0:0:0:
64,192,40202,128,0,40929:0:0:0:0:
192,192,40383,128,0,40565:0:0:0:0:
448,192,40565,128,0,40747:0:0:0:0:
320,192,40565,1,0,0:0:0:0:
192,192,40747,128,0,40929:0:0:0:0:
448,192,40929,1,0,0:0:0:0:
320,192,40929,128,0,41656:0:0:0:0:
448,192,41020,1,0,0:0:0:0:
192,192,41111,1,0,0:0:0:0:
448,192,41202,128,0,41383:0:0:0:0:
64,192,41383,1,0,0:0:0:0:
192,192,41474,1,0,0:0:0:0:
448,192,41565,1,0,0:0:0:0:
192,192,41656,1,0,0:0:0:0:
64,192,41656,128,0,42383:0:0:0:0:
448,192,41747,1,0,0:0:0:0:
320,192,41838,128,0,42020:0:0:0:0:
192,192,42020,128,0,42202:0:0:0:0:
320,192,42202,128,0,42383:0:0:0:0:
192,192,42383,1,0,0:0:0:0:
448,192,42383,128,0,42747:0:0:0:0:
192,192,42474,1,0,0:0:0:0:
320,192,42565,1,0,0:0:0:0:
64,192,42656,128,0,42838:0:0:0:0:
320,192,42747,128,0,43111:0:0:0:0:
192,192,42838,128,0,42929:0:0:0:0:
448,192,42929,128,0,43020:0:0:0:0:
192,192,43020,128,0,43111:0:0:0:0:
64,192,43111,128,0,43838:0:0:0:0:
448,192,43111,128,0,43293:0:0:0:0:
192,192,43293,128,0,43474:0:0:0:0:
320,192,43474,128,0,43656:0:0:0:0:
192,192,43656,128,0,43838:0:0:0:0:
448,192,43838,1,0,0:0:0:0:
320,192,43838,128,0,44565:0:0:0:0:
448,192,43929,1,0,0:0:0:0:
192,192,44020,1,0,0:0:0:0:
64,192,44111,128,0,44383:0:0:0:0:
448,192,44383,128,0,44565:0:0:0:0:
192,192,44565,128,0,45293:0:0:0:0:
64,192,44565,128,0,44656:0:0:0:0:
320,192,44656,128,0,44747:0:0:0:0:
64,192,44747,128,0,44838:0:0:0:0:
448,192,44838,128,0,44929:0:0:0:0:
320,192,44929,128,0,45111:0:0:0:0:
64,192,45111,128,0,45293:0:0:0:0:
448,192,45293,128,0,45656:0:0:0:0:
320,192,45293,128,0,45383:0:0:0:0:
64,192,45383,128,0,45474:0:0:0:0:
192,192,45474,128,0,45747:0:0:0:0:
320,192,45656,128,0,46020:0:0:0:0:
64,192,45747,128,0,45838:0:0:0:0:
448,192,45838,128,0,45929:0:0:0:0:
64,192,45929,128,0,46020:0:0:0:0:
448,192,46020,128,0,46747:0:0:0:0:
192,192,46020,1,0,0:0:0:35:crash.wav
192,192,46111,1,0,0:0:0:0:
320,192,46202,128,0,46383:0:0:0:0:
64,192,46383,128,0,46565:0:0:0:0:
192,192,46383,1,0,0:0:0:0:
320,192,46565,128,0,46747:0:0:0:0:
64,192,46747,1,0,0:0:0:0:
192,192,46747,128,0,47474:0:0:0:0:
64,192,46838,1,0,0:0:0:0:
320,192,46929,1,0,0:0:0:0:
64,192,47020,128,0,47202:0:0:0:0:
448,192,47202,1,0,0:0:0:0:
320,192,47293,1,0,0:0:0:0:
320,192,47383,1,0,0:0:0:0:
64,192,47474,1,0,0:0:0:0:
448,192,47474,128,0,48202:0:0:0:0:
64,192,47565,1,0,0:0:0:0:
192,192,47656,128,0,47838:0:0:0:0:
320,192,47838,128,0,48020:0:0:0:0:
192,192,48020,128,0,48202:0:0:0:0:
320,192,48202,1,0,0:0:0:0:
64,192,48202,128,0,48565:0:0:0:0:
320,192,48293,1,0,0:0:0:0:
192,192,48383,1,0,0:0:0:0:
448,192,48474,128,0,48656:0:0:0:0:
192,192,48565,128,0,48929:0:0:0:0:
320,192,48656,128,0,48747:0:0:0:0:
64,192,48747,128,0,48838:0:0:0:0:
320,192,48838,128,0,48929:0:0:0:0:
448,192,48929,128,0,49656:0:0:0:0:
64,192,48929,128,0,49111:0:0:0:0:
320,192,49111,128,0,49293:0:0:0:0:
192,192,49293,128,0,49474:0:0:0:0:
320,192,49474,128,0,49656:0:0:0:0:
64,192,49656,1,0,0:0:0:0:
192,192,49656,128,0,50383:0:0:0:0:
64,192,49747,1,0,0:0:0:0:
320,192,49838,1,0,0:0:0:0:
448,192,49929,128,0,50202:0:0:0:0:
64,192,50202,128,0,50383:0:0:0:0:
320,192,50383,128,0,51111:0:0:0:0:
448,192,50383,128,0,50474:0:0:0:0:
192,192,50474,128,0,50565:0:0:0:0:
448,192,50565,128,0,50656:0:0:0:0:
64,192,50656,128,0,50747:0:0:0:0:
192,192,50747,128,0,50929:0:0:0:0:
448,192,50929,128,0,51111:0:0:0:0:
64,192,51111,128,0,51474:0:0:0:0:
192,192,51111,128,0,51202:0:0:0:0:
448,192,51202,128,0,51293:0:0:0:0:
320,192,51293,128,0,51838:0:0:0:0:
192,192,51474,128,0,51838:0:0:0:0:
448,192,51474,1,0,0:0:0:35:drum.wav
64,192,51565,1,0,0:0:0:35:drum.wav
448,192,51656,1,0,0:0:0:35:drum.wav
64,192,51747,1,0,0:0:0:35:drum.wav
448,192,51838,1,0,0:0:0:35:crash.wav
64,192,51838,1,0,0:0:0:0:
192,192,52020,1,0,0:0:0:0:
64,192,52020,1,0,0:0:0:0:
320,192,52202,1,0,0:0:0:0:
448,192,52202,1,0,0:0:0:0:
192,192,52383,1,0,0:0:0:0:
448,192,52383,1,0,0:0:0:0:
320,192,52474,1,0,0:0:0:0:
64,192,52474,1,0,0:0:0:0:
192,192,52656,1,0,0:0:0:0:
64,192,52656,1,0,0:0:0:0:
320,192,52838,1,0,0:0:0:0:
64,192,52838,1,0,0:0:0:0:
448,192,52929,1,0,0:0:0:0:
192,192,52929,1,0,0:0:0:0:
320,192,53111,1,0,0:0:0:0:
448,192,53111,1,0,0:0:0:0:
64,192,53293,128,0,53656:0:0:0:0:
192,192,53383,128,0,53656:0:0:0:0:
320,192,53474,128,0,53656:0:0:0:0:
448,192,53656,128,0,53929:0:0:0:0:
320,192,53747,128,0,53929:0:0:0:0:
64,192,53929,128,0,54202:0:0:0:0:
192,192,54020,128,0,54202:0:0:0:0:
448,192,54202,128,0,54747:0:0:0:0:
320,192,54293,128,0,54747:0:0:0:0:
192,192,54747,1,0,0:0:0:0:
64,192,54747,1,0,0:0:0:0:
320,192,54929,1,0,0:0:0:0:
64,192,54929,1,0,0:0:0:0:
448,192,55111,1,0,0:0:0:0:
192,192,55111,1,0,0:0:0:0:
320,192,55293,1,0,0:0:0:0:
64,192,55293,1,0,0:0:0:0:
192,192,55383,1,0,0:0:0:0:
448,192,55383,1,0,0:0:0:0:
448,192,55565,1,0,0:0:0:0:
320,192,55565,1,0,0:0:0:0:
192,192,55747,1,0,0:0:0:0:
448,192,55747,1,0,0:0:0:0:
320,192,55838,1,0,0:0:0:0:
64,192,55838,1,0,0:0:0:0:
192,192,56020,1,0,0:0:0:0:
64,192,56020,1,0,0:0:0:0:
192,192,56202,128,0,56293:0:0:0:0:
320,192,56293,128,0,56383:0:0:0:0:
448,192,56383,128,0,56474:0:0:0:0:
64,192,56474,128,0,56565:0:0:0:0:
320,192,56565,128,0,56656:0:0:0:0:
448,192,56656,128,0,56747:0:0:0:0:
192,192,56747,128,0,56838:0:0:0:0:
320,192,56838,128,0,56929:0:0:0:0:
448,192,56929,128,0,57020:0:0:0:0:
64,192,57020,128,0,57111:0:0:0:0:
320,192,57111,128,0,57202:0:0:0:0:
448,192,57202,128,0,57293:0:0:0:0:
192,192,57293,128,0,57383:0:0:0:0:
64,192,57383,128,0,57656:0:0:0:0:
448,192,57656,1,0,0:0:0:0:
192,192,57656,1,0,0:0:0:0:
192,192,57838,1,0,0:0:0:0:
320,192,57838,1,0,0:0:0:0:
64,192,58020,1,0,0:0:0:0:
448,192,58020,1,0,0:0:0:0:
320,192,58202,1,0,0:0:0:0:
192,192,58202,1,0,0:0:0:0:
448,192,58293,1,0,0:0:0:0:
64,192,58293,1,0,0:0:0:0:
192,192,58474,1,0,0:0:0:0:
320,192,58474,1,0,0:0:0:0:
320,192,58656,1,0,0:0:0:0:
64,192,58656,1,0,0:0:0:0:
448,192,58747,1,0,0:0:0:0:
320,192,58838,1,0,0:0:0:0:
192,192,58929,1,0,0:0:0:0:
320,192,59020,1,0,0:0:0:0:
448,192,59111,128,0,59293:0:0:0:0:
320,192,59202,128,0,59293:0:0:0:0:
64,192,59293,128,0,59565:0:0:0:0:
192,192,59383,128,0,59565:0:0:0:0:
448,192,59565,128,0,59838:0:0:0:0:
320,192,59656,128,0,59838:0:0:0:0:
64,192,59838,128,0,60020:0:0:0:0:
320,192,60020,128,0,60293:0:0:0:0:
448,192,60111,128,0,60293:0:0:0:0:
192,192,60293,128,0,60565:0:0:0:0:
64,192,60383,128,0,60565:0:0:0:0:
320,192,60656,5,0,0:0:0:35:kickdrum.wav
448,192,60656,1,0,0:0:0:0:
64,192,60747,1,0,0:0:0:0:
192,192,60747,1,0,0:0:0:35:kickdrum.wav
448,192,60838,1,0,0:0:0:0:
320,192,60838,1,0,0:0:0:35:kickdrum.wav
448,192,61020,1,0,0:0:0:0:
320,192,61020,1,0,0:0:0:35:kickdrum.wav
192,192,61111,1,0,0:0:0:35:kickdrum.wav
64,192,61111,1,0,0:0:0:0:
320,192,61202,1,0,0:0:0:35:kickdrum.wav
448,192,61202,1,0,0:0:0:0:
192,192,61293,1,0,0:0:0:35:kickdrum.wav
64,192,61293,1,0,0:0:0:0:
320,192,61474,1,0,0:0:0:35:kickdrum.wav
448,192,61474,1,0,0:0:0:0:
64,192,61565,1,0,0:0:0:0:
192,192,61565,1,0,0:0:0:35:kickdrum.wav
320,192,61656,1,0,0:0:0:35:kickdrum.wav
448,192,61656,1,0,0:0:0:0:
64,192,61747,1,0,0:0:0:0:
192,192,61747,1,0,0:0:0:35:kickdrum.wav
320,192,61838,1,0,0:0:0:35:kickdrum.wav
448,192,61838,1,0,0:0:0:0:
192,192,61929,1,0,0:0:0:35:kickdrum.wav
64,192,61929,1,0,0:0:0:0:
448,192,62111,1,0,0:0:0:0:
320,192,62111,1,0,0:0:0:35:kick.wav
64,192,62202,1,0,0:0:0:0:
192,192,62202,1,0,0:0:0:35:kick.wav
320,192,62293,5,0,0:0:0:35:kick.wav
448,192,62293,1,0,0:0:0:0:
192,192,62383,1,0,0:0:0:35:kick.wav
64,192,62383,1,0,0:0:0:0:
448,192,62474,1,0,0:0:0:0:
320,192,62474,1,0,0:0:0:35:kick.wav
64,192,62565,1,0,0:0:0:0:
192,192,62565,1,0,0:0:0:35:kick.wav
448,192,62656,1,0,0:0:0:0:
320,192,62656,1,0,0:0:0:35:kick.wav
64,192,62747,128,0,63474:0:0:0:0:
192,192,62747,1,0,0:0:0:35:kick.wav
192,192,63020,128,0,63474:0:0:0:0:
320,192,63020,1,0,0:0:0:35:kick.wav
320,192,63293,128,0,63474:0:0:0:0:
448,192,63293,1,0,0:0:0:35:kick.wav
448,192,63474,128,0,63656:0:0:0:0:
64,192,63656,1,0,0:0:0:0:
192,192,63747,1,0,0:0:0:0:
448,192,63838,128,0,64020:0:0:0:0:
320,192,63838,1,0,0:0:0:0:
192,192,64020,1,0,0:0:0:0:
64,192,64202,128,0,64474:0:0:0:0:
448,192,64202,1,0,0:0:0:0:
320,192,64383,1,0,0:0:0:0:
64,192,64565,128,0,64747:0:0:0:0:
448,192,64565,1,0,0:0:0:0:
192,192,64747,128,0,65020:0:0:0:0:
320,192,64747,1,0,0:0:0:0:
448,192,64929,1,0,0:0:0:0:
192,192,65111,128,0,65293:0:0:0:0:
320,192,65111,1,0,0:0:0:0:
64,192,65202,1,0,0:0:0:0:
320,192,65293,128,0,65474:0:0:0:0:
448,192,65293,1,0,0:0:0:0:
448,192,65474,128,0,65838:0:0:0:0:
64,192,65474,1,0,0:0:0:0:
192,192,65656,1,0,0:0:0:0:
320,192,65838,128,0,66020:0:0:0:0:
64,192,65838,1,0,0:0:0:0:
192,192,66020,128,0,66202:0:0:0:0:
448,192,66020,1,0,0:0:0:0:
64,192,66202,128,0,66383:0:0:0:0:
320,192,66202,1,0,0:0:0:0:
448,192,66383,128,0,66565:0:0:0:0:
192,192,66383,1,0,0:0:0:0:
320,192,66565,1,0,0:0:0:0:
192,192,66656,1,0,0:0:0:0:
448,192,66747,128,0,66929:0:0:0:0:
64,192,66747,1,0,0:0:0:0:
320,192,66929,1,0,0:0:0:0:
192,192,67111,128,0,67383:0:0:0:0:
448,192,67111,1,0,0:0:0:0:
64,192,67293,1,0,0:0:0:0:
192,192,67474,128,0,67656:0:0:0:0:
448,192,67474,1,0,0:0:0:0:
320,192,67656,128,0,68020:0:0:0:0:
64,192,67656,1,0,0:0:0:0:
448,192,67838,1,0,0:0:0:0:
192,192,68020,128,0,68202:0:0:0:0:
64,192,68020,1,0,0:0:0:0:
448,192,68111,1,0,0:0:0:0:
64,192,68202,128,0,68383:0:0:0:0:
320,192,68202,1,0,0:0:0:0:
448,192,68383,128,0,68565:0:0:0:0:
192,192,68383,1,0,0:0:0:0:
320,192,68565,128,0,68747:0:0:0:0:
64,192,68565,1,0,0:0:0:0:
448,192,68747,1,0,0:0:0:0:
64,192,68747,128,0,69202:0:0:0:0:
448,192,68929,1,0,0:0:0:35:cymbol.wav
320,192,69020,1,0,0:0:0:35:cymbol.wav
192,192,69111,1,0,0:0:0:35:cymbol.wav
448,192,69202,1,0,0:0:0:35:cymbol.wav
320,192,69293,1,0,0:0:0:35:crash.wav
192,192,69293,1,0,0:0:0:0:
64,192,69293,128,0,69474:0:0:0:0:
192,192,69474,1,0,0:0:0:0:
320,192,69565,1,0,0:0:0:0:
64,192,69656,128,0,69838:0:0:0:0:
448,192,69656,1,0,0:0:0:0:
192,192,69838,1,0,0:0:0:0:
320,192,70020,128,0,70293:0:0:0:0:
448,192,70020,1,0,0:0:0:0:
64,192,70202,1,0,0:0:0:0:
320,192,70383,128,0,70565:0:0:0:0:
448,192,70383,1,0,0:0:0:0:
192,192,70565,128,0,70838:0:0:0:0:
64,192,70565,1,0,0:0:0:0:
448,192,70747,1,0,0:0:0:0:
192,192,70929,128,0,71111:0:0:0:0:
64,192,70929,1,0,0:0:0:0:
448,192,71020,1,0,0:0:0:0:
320,192,71111,128,0,71293:0:0:0:0:
64,192,71111,1,0,0:0:0:0:
448,192,71293,128,0,71565:0:0:0:0:
192,192,71293,1,0,0:0:0:0:
64,192,71474,1,0,0:0:0:0:
448,192,71656,128,0,71838:0:0:0:0:
192,192,71656,1,0,0:0:0:0:
320,192,71838,128,0,72020:0:0:0:0:
64,192,71838,1,0,0:0:0:0:
192,192,72020,128,0,72202:0:0:0:0:
448,192,72020,1,0,0:0:0:0:
64,192,72202,1,0,0:0:0:0:
320,192,72202,1,0,0:0:0:35:crash.wav
448,192,72202,128,0,72383:0:0:0:0:
64,192,72383,1,0,0:0:0:0:
192,192,72474,1,0,0:0:0:0:
448,192,72565,128,0,72747:0:0:0:0:
320,192,72565,1,0,0:0:0:0:
192,192,72747,1,0,0:0:0:0:
448,192,72929,1,0,0:0:0:0:
64,192,72929,128,0,73202:0:0:0:0:
320,192,73111,1,0,0:0:0:0:
448,192,73293,1,0,0:0:0:0:
64,192,73293,128,0,73474:0:0:0:0:
192,192,73474,128,0,73747:0:0:0:0:
320,192,73474,1,0,0:0:0:0:
448,192,73656,1,0,0:0:0:0:
192,192,73838,128,0,74020:0:0:0:0:
320,192,73838,1,0,0:0:0:0:
64,192,73929,1,0,0:0:0:0:
448,192,74020,1,0,0:0:0:0:
320,192,74020,128,0,74202:0:0:0:0:
448,192,74202,128,0,74383:0:0:0:0:
64,192,74202,1,0,0:0:0:0:
320,192,74383,128,0,74565:0:0:0:0:
192,192,74383,1,0,0:0:0:35:cymbol.wav
448,192,74474,1,0,0:0:0:35:cymbol.wav
64,192,74565,128,0,75111:0:0:0:0:
192,192,74565,1,0,0:0:0:35:cymbol.wav
448,192,74656,1,0,0:0:0:35:cymbol.wav
192,192,74747,1,0,0:0:0:35:cymbol.wav
448,192,74838,1,0,0:0:0:35:cymbol.wav
192,192,74929,1,0,0:0:0:35:cymbol.wav
448,192,75020,1,0,0:0:0:35:cymbol.wav
320,192,75111,128,0,75293:0:0:0:0:
192,192,75111,1,0,0:0:0:0:
64,192,75293,128,0,75474:0:0:0:0:
448,192,75474,1,0,0:0:0:35:drum.wav
192,192,75474,1,0,0:0:0:0:
320,192,75565,1,0,0:0:0:0:
192,192,75656,128,0,75838:0:0:0:0:
448,192,75838,128,0,76020:0:0:0:0:
64,192,75838,1,0,0:0:0:0:
320,192,76020,128,0,76202:0:0:0:0:
192,192,76202,1,0,0:0:0:0:
448,192,76202,1,0,0:0:0:35:drum.wav
64,192,76293,1,0,0:0:0:0:
192,192,76383,1,0,0:0:0:0:
320,192,76474,1,0,0:0:0:0:
448,192,76565,128,0,76747:0:0:0:0:
64,192,76565,1,0,0:0:0:35:bass.wav
192,192,76747,128,0,76929:0:0:0:0:
320,192,76929,1,0,0:0:0:0:
64,192,76929,1,0,0:0:0:35:drum.wav
448,192,77020,1,0,0:0:0:0:
320,192,77111,1,0,0:0:0:0:
448,192,77202,1,0,0:0:0:0:
64,192,77293,128,0,77474:0:0:0:0:
320,192,77293,1,0,0:0:0:35:bass.wav
448,192,77474,128,0,77656:0:0:0:0:
320,192,77656,128,0,77838:0:0:0:0:
192,192,77656,1,0,0:0:0:35:drum.wav
64,192,77838,128,0,78020:0:0:0:0:
192,192,78020,128,0,78202:0:0:0:0:
448,192,78020,1,0,0:0:0:35:bass.wav
320,192,78202,128,0,78383:0:0:0:0:
448,192,78383,1,0,0:0:0:0:
64,192,78383,1,0,0:0:0:35:drum.wav
192,192,78474,1,0,0:0:0:0:
448,192,78565,128,0,78747:0:0:0:0:
320,192,78747,128,0,78929:0:0:0:0:
64,192,78747,1,0,0:0:0:35:bass.wav
192,192,78929,128,0,79111:0:0:0:0:
64,192,79111,1,0,0:0:0:0:
448,192,79111,1,0,0:0:0:35:drum.wav
320,192,79202,1,0,0:0:0:0:
192,192,79293,1,0,0:0:0:0:
320,192,79383,1,0,0:0:0:0:
64,192,79474,128,0,79656:0:0:0:0:
448,192,79474,1,0,0:0:0:35:bass.wav
320,192,79656,128,0,79838:0:0:0:0:
448,192,79838,1,0,0:0:0:0:
64,192,79838,1,0,0:0:0:35:drum.wav
192,192,79929,1,0,0:0:0:0:
448,192,80020,1,0,0:0:0:0:
192,192,80111,1,0,0:0:0:0:
448,192,80202,128,0,80383:0:0:0:0:
64,192,80202,1,0,0:0:0:35:bass.wav
192,192,80383,128,0,80565:0:0:0:0:
64,192,80565,128,0,80747:0:0:0:0:
448,192,80565,1,0,0:0:0:35:drum.wav
192,192,80656,1,0,0:0:0:35:drum.wav
320,192,80747,128,0,80929:0:0:0:0:
448,192,80747,1,0,0:0:0:35:drum.wav
192,192,80838,1,0,0:0:0:35:drum.wav
64,192,80929,1,0,0:0:0:35:crash.wav
448,192,80929,128,0,81111:0:0:0:0:
192,192,81111,128,0,81293:0:0:0:0:
64,192,81293,1,0,0:0:0:35:drum.wav
448,192,81293,1,0,0:0:0:0:
320,192,81383,1,0,0:0:0:0:
448,192,81474,128,0,81656:0:0:0:0:
64,192,81656,128,0,81838:0:0:0:0:
192,192,81656,1,0,0:0:0:35:bass.wav
320,192,81838,128,0,82020:0:0:0:0:
192,192,82020,1,0,0:0:0:0:
64,192,82020,1,0,0:0:0:35:drum.wav
448,192,82111,1,0,0:0:0:0:
192,192,82202,1,0,0:0:0:0:
320,192,82293,1,0,0:0:0:0:
192,192,82383,128,0,82565:0:0:0:0:
64,192,82383,1,0,0:0:0:35:bass.wav
320,192,82565,128,0,82747:0:0:0:0:
448,192,82747,1,0,0:0:0:35:drum.wav
64,192,82747,1,0,0:0:0:0:
192,192,82838,1,0,0:0:0:0:
64,192,82929,1,0,0:0:0:0:
192,192,83020,1,0,0:0:0:0:
64,192,83111,128,0,83293:0:0:0:0:
448,192,83111,1,0,0:0:0:35:bass.wav
320,192,83293,128,0,83474:0:0:0:0:
192,192,83474,128,0,83656:0:0:0:0:
448,192,83474,1,0,0:0:0:35:drum.wav
64,192,83656,128,0,83838:0:0:0:0:
320,192,83838,128,0,84020:0:0:0:0:
448,192,83838,1,0,0:0:0:35:bass.wav
64,192,84020,128,0,84202:0:0:0:0:
192,192,84202,1,0,0:0:0:0:
448,192,84202,1,0,0:0:0:35:drum.wav
320,192,84293,1,0,0:0:0:0:
192,192,84383,128,0,84565:0:0:0:0:
64,192,84565,1,0,0:0:0:35:bass.wav
448,192,84565,128,0,84747:0:0:0:0:
320,192,84747,128,0,84929:0:0:0:0:
192,192,84929,1,0,0:0:0:35:drum.wav
448,192,84929,1,0,0:0:0:0:
64,192,85020,1,0,0:0:0:0:
192,192,85111,1,0,0:0:0:0:
320,192,85202,1,0,0:0:0:0:
64,192,85293,128,0,85474:0:0:0:0:
448,192,85293,1,0,0:0:0:35:bass.wav
320,192,85474,128,0,85656:0:0:0:0:
192,192,85656,1,0,0:0:0:0:
448,192,85656,1,0,0:0:0:35:drum.wav
64,192,85747,1,0,0:0:0:0:
192,192,85838,1,0,0:0:0:0:
64,192,85929,1,0,0:0:0:0:
448,192,86020,1,0,0:0:0:35:bass.wav
192,192,86020,128,0,86202:0:0:0:0:
64,192,86111,1,0,0:0:0:35:bass.wav
320,192,86202,128,0,86383:0:0:0:0:
448,192,86383,1,0,0:0:0:35:drum.wav
192,192,86383,128,0,86565:0:0:0:0:
64,192,86474,1,0,0:0:0:35:drum.wav
320,192,86565,128,0,86747:0:0:0:0:
448,192,86565,1,0,0:0:0:35:drum.wav
64,192,86656,1,0,0:0:0:35:drum.wav
448,192,86747,1,0,0:0:0:35:crash.wav
192,192,86747,1,0,0:0:0:0:
64,192,86929,1,0,0:0:0:0:
320,192,86929,1,0,0:0:0:0:
448,192,87111,1,0,0:0:0:0:
192,192,87111,1,0,0:0:0:0:
64,192,87293,1,0,0:0:0:0:
448,192,87293,1,0,0:0:0:0:
192,192,87383,1,0,0:0:0:0:
320,192,87383,1,0,0:0:0:0:
192,192,87565,1,0,0:0:0:0:
64,192,87565,1,0,0:0:0:0:
64,192,87747,1,0,0:0:0:0:
448,192,87747,1,0,0:0:0:0:
320,192,87838,1,0,0:0:0:0:
192,192,87838,1,0,0:0:0:0:
320,192,88020,1,0,0:0:0:0:
448,192,88020,1,0,0:0:0:0:
64,192,88202,128,0,88565:0:0:0:0:
192,192,88293,128,0,88565:0:0:0:0:
448,192,88383,128,0,88565:0:0:0:0:
320,192,88565,128,0,88838:0:0:0:0:
192,192,88656,128,0,88838:0:0:0:0:
64,192,88838,128,0,89111:0:0:0:0:
448,192,88929,128,0,89111:0:0:0:0:
320,192,89111,128,0,89656:0:0:0:0:
192,192,89202,128,0,89656:0:0:0:0:
64,192,89656,1,0,0:0:0:0:
448,192,89656,1,0,0:0:0:35:crash.wav
64,192,89838,1,0,0:0:0:0:
320,192,89838,1,0,0:0:0:0:
192,192,90020,1,0,0:0:0:0:
64,192,90020,1,0,0:0:0:0:
64,192,90202,1,0,0:0:0:0:
320,192,90202,1,0,0:0:0:0:
448,192,90293,1,0,0:0:0:0:
192,192,90293,1,0,0:0:0:0:
448,192,90474,1,0,0:0:0:0:
320,192,90474,1,0,0:0:0:0:
448,192,90656,1,0,0:0:0:0:
192,192,90656,1,0,0:0:0:0:
320,192,90747,1,0,0:0:0:0:
64,192,90747,1,0,0:0:0:0:
64,192,90929,1,0,0:0:0:0:
448,192,90929,1,0,0:0:0:0:
192,192,91111,128,0,91202:0:0:0:0:
320,192,91202,128,0,91293:0:0:0:0:
448,192,91293,128,0,91383:0:0:0:0:
192,192,91383,128,0,91474:0:0:0:0:
320,192,91474,128,0,91565:0:0:0:0:
448,192,91565,128,0,91656:0:0:0:0:
192,192,91656,128,0,91747:0:0:0:0:
320,192,91747,128,0,91838:0:0:0:0:
448,192,91838,128,0,91929:0:0:0:0:
192,192,91929,128,0,92020:0:0:0:0:
320,192,92020,128,0,92111:0:0:0:0:
448,192,92111,128,0,92202:0:0:0:0:
192,192,92202,128,0,92293:0:0:0:0:
320,192,92293,128,0,92565:0:0:0:0:
448,192,92565,1,0,0:0:0:0:
64,192,92565,1,0,0:0:0:35:crash.wav
320,192,92747,1,0,0:0:0:0:
192,192,92747,1,0,0:0:0:0:
448,192,92929,1,0,0:0:0:0:
64,192,92929,1,0,0:0:0:0:
192,192,93111,1,0,0:0:0:0:
320,192,93111,1,0,0:0:0:0:
448,192,93202,1,0,0:0:0:0:
64,192,93202,1,0,0:0:0:0:
320,192,93383,1,0,0:0:0:0:
192,192,93383,1,0,0:0:0:0:
64,192,93565,1,0,0:0:0:0:
320,192,93565,1,0,0:0:0:0:
448,192,93656,1,0,0:0:0:0:
320,192,93747,1,0,0:0:0:0:
64,192,93838,1,0,0:0:0:0:
192,192,93929,1,0,0:0:0:0:
448,192,94020,128,0,94202:0:0:0:0:
320,192,94111,128,0,94202:0:0:0:0:
64,192,94202,128,0,94474:0:0:0:0:
192,192,94293,128,0,94474:0:0:0:0:
448,192,94474,128,0,94747:0:0:0:0:
320,192,94565,128,0,94747:0:0:0:0:
64,192,94747,128,0,94929:0:0:0:0:
320,192,94929,128,0,95202:0:0:0:0:
448,192,95020,128,0,95202:0:0:0:0:
192,192,95202,128,0,95474:0:0:0:0:
64,192,95293,128,0,95474:0:0:0:0:
320,192,95565,5,0,0:0:0:35:kickdrum.wav
448,192,95565,1,0,0:0:0:0:
64,192,95656,1,0,0:0:0:0:
192,192,95656,1,0,0:0:0:35:kickdrum.wav
320,192,95747,1,0,0:0:0:35:kickdrum.wav
448,192,95747,1,0,0:0:0:0:
320,192,95929,1,0,0:0:0:35:kickdrum.wav
448,192,95929,1,0,0:0:0:0:
64,192,96020,1,0,0:0:0:0:
192,192,96020,1,0,0:0:0:35:kickdrum.wav
448,192,96111,1,0,0:0:0:0:
320,192,96111,1,0,0:0:0:35:kickdrum.wav
64,192,96202,1,0,0:0:0:0:
192,192,96202,1,0,0:0:0:35:kickdrum.wav
320,192,96383,1,0,0:0:0:35:kickdrum.wav
448,192,96383,1,0,0:0:0:0:
192,192,96474,1,0,0:0:0:35:kickdrum.wav
64,192,96474,1,0,0:0:0:0:
448,192,96565,1,0,0:0:0:0:
320,192,96565,1,0,0:0:0:35:kickdrum.wav
192,192,96656,1,0,0:0:0:35:kickdrum.wav
64,192,96656,1,0,0:0:0:0:
448,192,96747,1,0,0:0:0:0:
320,192,96747,1,0,0:0:0:35:kickdrum.wav
192,192,96838,1,0,0:0:0:35:kickdrum.wav
64,192,96838,1,0,0:0:0:0:
448,192,97020,1,0,0:0:0:0:
320,192,97020,1,0,0:0:0:35:kickdrum.wav
64,192,97111,1,0,0:0:0:0:
192,192,97111,1,0,0:0:0:35:kickdrum.wav
320,192,97202,5,0,0:0:0:35:kickdrum.wav
448,192,97202,1,0,0:0:0:0:
64,192,97293,1,0,0:0:0:0:
192,192,97293,1,0,0:0:0:35:kickdrum.wav
320,192,97383,1,0,0:0:0:35:kickdrum.wav
448,192,97383,1,0,0:0:0:0:
192,192,97474,1,0,0:0:0:35:kickdrum.wav
64,192,97474,1,0,0:0:0:0:
448,192,97565,1,0,0:0:0:0:
320,192,97565,1,0,0:0:0:35:kickdrum.wav
64,192,97656,128,0,98383:0:0:0:0:
192,192,97656,1,0,0:0:0:35:kickdrum.wav
192,192,97929,128,0,98383:0:0:0:0:
320,192,97929,1,0,0:0:0:35:kickdrum.wav
320,192,98202,128,0,98383:0:0:0:0:
448,192,98202,1,0,0:0:0:35:kickdrum.wav
448,192,98383,5,0,0:0:0:0:
320,192,98429,1,0,0:0:0:0:
64,192,98474,1,0,0:0:0:0:
192,192,98520,1,0,0:0:0:0:
448,192,98565,1,0,0:0:0:0:
320,192,98611,1,0,0:0:0:0:
64,192,98656,1,0,0:0:0:0:
192,192,98702,1,0,0:0:0:0:
448,192,98747,1,0,0:0:0:0:
320,192,98793,1,0,0:0:0:0:
64,192,98838,1,0,0:0:0:0:
192,192,98883,1,0,0:0:0:0:
448,192,98929,1,0,0:0:0:0:
320,192,98974,1,0,0:0:0:0:
64,192,99020,1,0,0:0:0:0:
192,192,99065,1,0,0:0:0:0:
448,192,99111,1,0,0:0:0:0:
320,192,99156,1,0,0:0:0:0:
64,192,99202,1,0,0:0:0:0:
192,192,99247,1,0,0:0:0:0:
448,192,99293,1,0,0:0:0:0:
320,192,99338,1,0,0:0:0:0:
64,192,99383,1,0,0:0:0:0:
192,192,99429,1,0,0:0:0:0:
448,192,99474,1,0,0:0:0:0:
320,192,99520,1,0,0:0:0:0:
64,192,99565,1,0,0:0:0:0:
192,192,99611,1,0,0:0:0:0:
448,192,99656,1,0,0:0:0:0:
320,192,99702,1,0,0:0:0:0:
64,192,99747,1,0,0:0:0:0:
192,192,99793,1,0,0:0:0:0:
320,192,99838,1,0,0:0:0:35:bass.wav
448,192,99838,1,0,0:0:0:35:crash.wav
64,192,99838,128,0,99929:0:0:0:0:
192,192,99929,128,0,100020:0:0:0:0:
448,192,100020,128,0,100111:0:0:0:0:
64,192,100111,128,0,100202:0:0:0:0:
448,192,100202,1,0,0:0:0:35:drum.wav
320,192,100202,128,0,100293:0:0:0:0:
192,192,100293,128,0,100383:0:0:0:0:
448,192,100383,128,0,100474:0:0:0:0:
64,192,100474,128,0,100565:0:0:0:0:
320,192,100565,1,0,0:0:0:35:bass.wav
192,192,100565,128,0,100656:0:0:0:0:
448,192,100656,128,0,100747:0:0:0:0:
64,192,100747,128,0,100838:0:0:0:0:
192,192,100838,128,0,100929:0:0:0:0:
320,192,100929,128,0,101020:0:0:0:0:
448,192,100929,1,0,0:0:0:35:drum.wav
64,192,101020,128,0,101111:0:0:0:0:
192,192,101111,128,0,101202:0:0:0:0:
448,192,101202,128,0,101293:0:0:0:0:
64,192,101293,128,0,101383:0:0:0:0:
320,192,101293,1,0,0:0:0:35:bass.wav
192,192,101383,128,0,101474:0:0:0:0:
320,192,101474,128,0,101565:0:0:0:0:
448,192,101565,128,0,101656:0:0:0:0:
192,192,101656,128,0,101747:0:0:0:0:
64,192,101656,1,0,0:0:0:35:drum.wav
320,192,101747,128,0,101838:0:0:0:0:
448,192,101838,128,0,101929:0:0:0:0:
320,192,101929,128,0,102020:0:0:0:0:
192,192,102020,128,0,102111:0:0:0:0:
64,192,102020,1,0,0:0:0:35:bass.wav
448,192,102111,128,0,102202:0:0:0:0:
320,192,102202,128,0,102293:0:0:0:0:
64,192,102293,128,0,102383:0:0:0:0:
448,192,102383,1,0,0:0:0:35:drum.wav
192,192,102383,128,0,102474:0:0:0:0:
320,192,102474,128,0,102565:0:0:0:0:
448,192,102565,128,0,102656:0:0:0:0:
320,192,102656,128,0,102747:0:0:0:0:
448,192,102747,1,0,0:0:0:35:bass.wav
64,192,102747,128,0,102838:0:0:0:0:
192,192,102838,128,0,102929:0:0:0:0:
448,192,102929,128,0,103020:0:0:0:0:
320,192,103020,128,0,103111:0:0:0:0:
448,192,103111,1,0,0:0:0:35:drum.wav
64,192,103111,128,0,103202:0:0:0:0:
192,192,103202,128,0,103293:0:0:0:0:
448,192,103293,128,0,103383:0:0:0:0:
320,192,103383,128,0,103474:0:0:0:0:
64,192,103474,128,0,103565:0:0:0:0:
448,192,103474,1,0,0:0:0:35:bass.wav
192,192,103565,128,0,103656:0:0:0:0:
448,192,103656,128,0,103747:0:0:0:0:
320,192,103747,128,0,103838:0:0:0:0:
448,192,103838,1,0,0:0:0:35:drum.wav
64,192,103838,128,0,103929:0:0:0:0:
192,192,103929,128,0,104020:0:0:0:0:
448,192,104020,128,0,104111:0:0:0:0:
320,192,104111,128,0,104202:0:0:0:0:
448,192,104202,1,0,0:0:0:35:bass.wav
192,192,104202,128,0,104293:0:0:0:0:
64,192,104293,128,0,104383:0:0:0:0:
320,192,104383,128,0,104474:0:0:0:0:
448,192,104474,128,0,104565:0:0:0:0:
192,192,104565,128,0,104656:0:0:0:0:
320,192,104565,1,0,0:0:0:35:drum.wav
64,192,104656,128,0,104747:0:0:0:0:
320,192,104747,128,0,104838:0:0:0:0:
448,192,104838,128,0,104929:0:0:0:0:
64,192,104929,128,0,105020:0:0:0:0:
320,192,104929,1,0,0:0:0:35:bass.wav
448,192,105020,128,0,105111:0:0:0:0:
192,192,105111,128,0,105202:0:0:0:0:
320,192,105202,128,0,105293:0:0:0:0:
64,192,105293,1,0,0:0:0:35:drum.wav
448,192,105293,128,0,105383:0:0:0:0:
192,192,105383,128,0,105474:0:0:0:0:
64,192,105474,128,0,105565:0:0:0:0:
448,192,105565,128,0,105656:0:0:0:0:
320,192,105656,128,0,105747:0:0:0:0:
192,192,105656,1,0,0:0:0:35:crash.wav
64,192,105747,128,0,105838:0:0:0:0:
320,192,105838,128,0,105929:0:0:0:0:
64,192,105929,128,0,106020:0:0:0:0:
448,192,106020,128,0,106111:0:0:0:0:
320,192,106020,1,0,0:0:0:35:drum.wav
192,192,106111,128,0,106202:0:0:0:0:
448,192,106202,128,0,106293:0:0:0:0:
192,192,106293,128,0,106383:0:0:0:0:
320,192,106383,128,0,106474:0:0:0:0:
448,192,106383,1,0,0:0:0:35:bass.wav
64,192,106474,128,0,106565:0:0:0:0:
320,192,106565,128,0,106656:0:0:0:0:
64,192,106656,128,0,106747:0:0:0:0:
448,192,106747,128,0,106838:0:0:0:0:
320,192,106747,1,0,0:0:0:35:drum.wav
192,192,106838,128,0,106929:0:0:0:0:
448,192,106929,128,0,107020:0:0:0:0:
192,192,107020,128,0,107111:0:0:0:0:
320,192,107111,128,0,107202:0:0:0:0:
448,192,107111,1,0,0:0:0:35:bass.wav
64,192,107202,128,0,107293:0:0:0:0:
320,192,107293,128,0,107383:0:0:0:0:
64,192,107383,128,0,107474:0:0:0:0:
448,192,107474,128,0,107565:0:0:0:0:
320,192,107474,1,0,0:0:0:35:drum.wav
192,192,107565,128,0,107656:0:0:0:0:
320,192,107656,128,0,107747:0:0:0:0:
192,192,107747,128,0,107838:0:0:0:0:
448,192,107838,128,0,107929:0:0:0:0:
320,192,107838,1,0,0:0:0:35:bass.wav
64,192,107929,128,0,108020:0:0:0:0:
320,192,108020,128,0,108111:0:0:0:0:
64,192,108111,128,0,108202:0:0:0:0:
448,192,108202,128,0,108293:0:0:0:0:
320,192,108202,1,0,0:0:0:35:drum.wav
192,192,108293,128,0,108383:0:0:0:0:
320,192,108383,128,0,108474:0:0:0:0:
64,192,108474,128,0,108565:0:0:0:0:
192,192,108565,128,0,108656:0:0:0:0:
320,192,108565,1,0,0:0:0:35:bass.wav
448,192,108656,128,0,108747:0:0:0:0:
64,192,108747,128,0,108838:0:0:0:0:
320,192,108838,128,0,108929:0:0:0:0:
192,192,108929,128,0,109020:0:0:0:0:
64,192,108929,1,0,0:0:0:35:drum.wav
448,192,109020,128,0,109111:0:0:0:0:
64,192,109111,128,0,109202:0:0:0:0:
320,192,109202,128,0,109293:0:0:0:0:
192,192,109293,128,0,109383:0:0:0:0:
64,192,109293,1,0,0:0:0:35:bass.wav
448,192,109383,128,0,109474:0:0:0:0:
64,192,109474,128,0,109565:0:0:0:0:
320,192,109565,128,0,109656:0:0:0:0:
192,192,109656,128,0,109747:0:0:0:0:
64,192,109656,1,0,0:0:0:35:drum.wav
448,192,109747,128,0,109838:0:0:0:0:
320,192,109838,128,0,109929:0:0:0:0:
192,192,109929,128,0,110020:0:0:0:0:
64,192,110020,128,0,110111:0:0:0:0:
448,192,110020,1,0,0:0:0:35:bass.wav
192,192,110111,128,0,110202:0:0:0:0:
320,192,110202,128,0,110293:0:0:0:0:
64,192,110293,128,0,110383:0:0:0:0:
192,192,110383,128,0,110474:0:0:0:0:
320,192,110383,1,0,0:0:0:35:drum.wav
448,192,110474,128,0,110565:0:0:0:0:
64,192,110565,128,0,110656:0:0:0:0:
320,192,110656,128,0,110747:0:0:0:0:
192,192,110747,128,0,110838:0:0:0:0:
64,192,110747,1,0,0:0:0:35:bass.wav
448,192,110838,128,0,110929:0:0:0:0:
64,192,110929,128,0,111020:0:0:0:0:
192,192,111020,128,0,111111:0:0:0:0:
448,192,111111,128,0,111202:0:0:0:0:
64,192,111111,1,0,0:0:0:35:drum.wav
320,192,111202,128,0,111293:0:0:0:0:
192,192,111293,128,0,111383:0:0:0:0:
64,192,111383,128,0,111474:0:0:0:0:
448,192,111474,5,0,0:0:0:0:
192,192,111474,5,0,0:0:0:35:cymbol.wav
448,192,111565,1,0,0:0:0:0:
192,192,111565,1,0,0:0:0:35:cymbol.wav
320,192,111747,1,0,0:0:0:35:cymbol.wav
64,192,111747,1,0,0:0:0:0:
64,192,111838,1,0,0:0:0:0:
320,192,111838,1,0,0:0:0:35:cymbol.wav
448,192,112020,1,0,0:0:0:0:
192,192,112020,1,0,0:0:0:35:cymbol.wav
448,192,112111,1,0,0:0:0:0:
192,192,112111,1,0,0:0:0:35:cymbol.wav
320,192,112293,1,0,0:0:0:35:cymbol.wav
64,192,112293,1,0,0:0:0:0:
64,192,112383,1,0,0:0:0:0:
320,192,112383,1,0,0:0:0:35:cymbol.wav
192,192,112565,1,0,0:0:0:35:cymbol.wav
448,192,112565,1,0,0:0:0:0:
320,192,112747,1,0,0:0:0:35:cymbol.wav
64,192,112747,1,0,0:0:0:0:
320,192,112929,1,0,0:0:0:35:cymbol.wav
192,192,112929,1,0,0:0:0:0:
192,192,113020,1,0,0:0:0:0:
320,192,113020,1,0,0:0:0:35:cymbol.wav
64,192,113202,1,0,0:0:0:0:
448,192,113202,1,0,0:0:0:35:cymbol.wav
448,192,113293,1,0,0:0:0:35:cymbol.wav
64,192,113293,1,0,0:0:0:0:
320,192,113474,1,0,0:0:0:35:cymbol.wav
192,192,113474,1,0,0:0:0:0:
192,192,113565,1,0,0:0:0:0:
320,192,113565,1,0,0:0:0:35:cymbol.wav
64,192,113747,1,0,0:0:0:0:
448,192,113747,1,0,0:0:0:35:cymbol.wav
64,192,113838,1,0,0:0:0:0:
448,192,113838,1,0,0:0:0:35:cymbol.wav
192,192,114020,1,0,0:0:0:0:
320,192,114020,1,0,0:0:0:35:cymbol.wav
448,192,114202,1,0,0:0:0:35:cymbol.wav
64,192,114202,1,0,0:0:0:0:
64,192,114383,128,0,115838:0:0:0:35:cymbol.wav
192,192,114383,128,0,115474:0:0:0:0:
320,192,114383,128,0,115111:0:0:0:0:
448,192,114383,128,0,114747:0:0:0:0:
