osu file format v14

[General]
AudioFilename: audio.mp3
AudioLeadIn: 0
PreviewTime: 155294
Countdown: 0
SampleSet: Normal
StackLeniency: 0.7
Mode: 3
LetterboxInBreaks: 0
SpecialStyle: 0
WidescreenStoryboard: 1

[Editor]
DistanceSpacing: 1.4
BeatDivisor: 4
GridSize: 8
TimelineZoom: 2.5

[Metadata]
Title:Daybreak Frontline
TitleUnicode:Daybreak Frontline
Artist:Viichan
ArtistUnicode:Viichan
Creator:G0NG
Version:SHD
Source:
Tags:이세계아이돌 비챤 cover
BeatmapID:4544827
BeatmapSetID:2155986

[Difficulty]
HPDrainRate:8
CircleSize:6
OverallDifficulty:8
ApproachRate:5
SliderMultiplier:1.4
SliderTickRate:1

[Events]
//Background and Video events
0,0,"bg.jpg",0,0
//Break Periods
//Storyboard Layer 0 (Background)
//Storyboard Layer 1 (Fail)
//Storyboard Layer 2 (Pass)
//Storyboard Layer 3 (Foreground)
//Storyboard Layer 4 (Overlay)
//Storyboard Sound Samples

[TimingPoints]
0,441.176470588235,4,1,0,100,1,0
70588,-100,4,1,0,100,0,1
77536,-100,4,1,0,100,0,0
77647,-100,4,1,0,100,0,1
84705,-100,4,1,0,100,0,0
127058,-100,4,1,0,100,0,1
134007,-100,4,1,0,100,0,0
134117,-100,4,1,0,100,0,1
141176,-100,4,1,0,100,0,0
155294,-100,4,1,0,100,0,1
162242,-100,4,1,0,100,0,0
162352,-100,4,1,0,100,0,1
169301,-100,4,1,0,100,0,0
169411,-100,4,1,0,100,0,1
176360,-100,4,1,0,100,0,0
176470,-100,4,1,0,100,0,1
183419,-100,4,1,0,100,0,0
183529,-100,4,1,0,100,0,1
190477,-100,4,1,0,100,0,0
190588,-100,4,1,0,100,0,1
197647,-100,4,1,0,100,0,0

[Colours]
Combo1 : 40,56,149
Combo2 : 28,255,28
Combo3 : 233,154,250
Combo4 : 82,40,151

[HitObjects]
42,192,0,5,0,0:0:0:100:pf-01.wav
213,192,0,1,0,0:0:0:100:pfb-01.wav
384,192,220,1,0,0:0:0:100:pfb-02.wav
42,192,441,1,0,0:0:0:100:pf-01.wav
213,192,441,1,0,0:0:0:100:pfb-01.wav
384,192,661,1,0,0:0:0:100:pfb-02.wav
42,192,772,1,0,0:0:0:100:pf-01.wav
213,192,772,1,0,0:0:0:100:pfb-01.wav
213,192,992,1,0,0:0:0:100:pfb-01.wav
42,192,992,1,0,0:0:0:100:pf-01.wav
384,192,1102,1,0,0:0:0:100:pfb-02.wav
42,192,1323,1,0,0:0:0:100:pf-01.wav
213,192,1323,1,0,0:0:0:100:pfb-01.wav
42,192,1544,1,0,0:0:0:100:pf-01.wav
213,192,1544,1,0,0:0:0:100:pfb-02.wav
298,192,1764,1,0,0:0:0:100:pf-01.wav
469,192,1764,1,0,0:0:0:100:pfb-03.wav
128,192,1985,1,0,0:0:0:100:pfb-04.wav
298,192,2205,1,0,0:0:0:100:pf-01.wav
469,192,2205,1,0,0:0:0:100:pfb-03.wav
128,192,2426,1,0,0:0:0:100:pfb-04.wav
469,192,2536,1,0,0:0:0:100:pf-01.wav
298,192,2536,1,0,0:0:0:100:pfb-03.wav
213,192,2757,1,0,0:0:0:100:pf-02.wav
384,192,2757,1,0,0:0:0:100:pfb-05.wav
128,192,2867,1,0,0:0:0:100:pfb-06.wav
298,192,3088,1,0,0:0:0:100:pf-02.wav
469,192,3088,1,0,0:0:0:100:pfb-05.wav
298,192,3308,1,0,0:0:0:100:pf-02.wav
469,192,3308,1,0,0:0:0:100:pfb-06.wav
42,192,3529,1,0,0:0:0:100:pf-01.wav
213,192,3529,1,0,0:0:0:100:pfb-01.wav
469,192,3749,1,0,0:0:0:100:pfb-02.wav
42,192,3970,1,0,0:0:0:100:pf-01.wav
213,192,3970,1,0,0:0:0:100:pfb-01.wav
469,192,4191,1,0,0:0:0:100:pfb-02.wav
42,192,4301,1,0,0:0:0:100:pf-01.wav
213,192,4301,1,0,0:0:0:100:pfb-01.wav
42,192,4522,1,0,0:0:0:100:pf-01.wav
213,192,4522,1,0,0:0:0:100:pfb-07.wav
384,192,4632,1,0,0:0:0:100:pfb-08.wav
42,192,4852,1,0,0:0:0:100:pf-01.wav
213,192,4852,1,0,0:0:0:100:pfb-07.wav
42,192,5073,1,0,0:0:0:100:pf-01.wav
213,192,5073,1,0,0:0:0:100:pfb-08.wav
469,192,5294,1,0,0:0:0:100:pf-01.wav
298,192,5294,1,0,0:0:0:100:pfb-03.wav
128,192,5514,1,0,0:0:0:100:pfb-04.wav
469,192,5735,1,0,0:0:0:100:pf-01.wav
298,192,5735,1,0,0:0:0:100:pfb-03.wav
128,192,5955,1,0,0:0:0:100:pfb-04.wav
298,192,6066,1,0,0:0:0:100:pf-01.wav
469,192,6066,1,0,0:0:0:100:pfb-03.wav
213,192,6286,1,0,0:0:0:100:pf-02.wav
384,192,6286,1,0,0:0:0:100:pfb-05.wav
128,192,6397,1,0,0:0:0:100:pfb-06.wav
298,192,6617,1,0,0:0:0:100:pf-02.wav
469,192,6617,1,0,0:0:0:100:pfb-05.wav
298,192,6838,1,0,0:0:0:100:pf-02.wav
469,192,6838,1,0,0:0:0:100:pfb-06.wav
128,192,7058,5,0,0:0:0:100:pf-01.wav
384,192,7058,1,0,0:0:0:100:pfb-01.wav
213,192,7279,1,0,0:0:0:100:pfb-02.wav
128,192,7499,1,0,0:0:0:100:pf-01.wav
384,192,7499,1,0,0:0:0:100:pfb-01.wav
298,192,7720,1,0,0:0:0:100:pfb-02.wav
128,192,7830,1,0,0:0:0:100:pf-01.wav
384,192,7830,1,0,0:0:0:100:pfb-01.wav
384,192,8051,1,0,0:0:0:100:pfb-01.wav
128,192,8051,1,0,0:0:0:100:pf-01.wav
213,192,8161,1,0,0:0:0:100:pfb-02.wav
128,192,8382,1,0,0:0:0:100:pf-01.wav
384,192,8382,1,0,0:0:0:100:pfb-01.wav
128,192,8602,1,0,0:0:0:100:pf-01.wav
384,192,8602,1,0,0:0:0:100:pfb-02.wav
42,192,8823,1,0,0:0:0:100:pf-01.wav
469,192,8823,1,0,0:0:0:100:pfb-03.wav
298,192,9044,1,0,0:0:0:100:pfb-04.wav
42,192,9264,1,0,0:0:0:100:pf-01.wav
469,192,9264,1,0,0:0:0:100:pfb-03.wav
213,192,9485,1,0,0:0:0:100:pfb-04.wav
42,192,9595,1,0,0:0:0:100:pf-01.wav
469,192,9595,1,0,0:0:0:100:pfb-03.wav
128,192,9816,1,0,0:0:0:100:pf-02.wav
384,192,9816,1,0,0:0:0:100:pfb-05.wav
298,192,9926,1,0,0:0:0:100:pfb-06.wav
42,192,10147,1,0,0:0:0:100:pf-02.wav
469,192,10147,1,0,0:0:0:100:pfb-05.wav
42,192,10367,1,0,0:0:0:100:pf-02.wav
469,192,10367,1,0,0:0:0:100:pfb-06.wav
384,192,10588,1,0,0:0:0:100:pf-01.wav
298,192,10588,1,0,0:0:0:100:pfb-01.wav
128,192,10808,1,0,0:0:0:100:pfb-02.wav
384,192,11029,1,0,0:0:0:100:pf-01.wav
298,192,11029,1,0,0:0:0:100:pfb-01.wav
128,192,11249,1,0,0:0:0:100:pfb-02.wav
384,192,11360,1,0,0:0:0:100:pf-01.wav
298,192,11360,1,0,0:0:0:100:pfb-01.wav
384,192,11580,1,0,0:0:0:100:pf-01.wav
298,192,11580,1,0,0:0:0:100:pfb-07.wav
128,192,11691,1,0,0:0:0:100:pfb-08.wav
298,192,11911,1,0,0:0:0:100:pf-01.wav
384,192,11911,1,0,0:0:0:100:pfb-07.wav
298,192,12132,1,0,0:0:0:100:pf-01.wav
384,192,12132,1,0,0:0:0:100:pfb-08.wav
128,192,12352,1,0,0:0:0:100:pf-01.wav
213,192,12352,1,0,0:0:0:100:pfb-03.wav
384,192,12573,1,0,0:0:0:100:pfb-04.wav
128,192,12794,1,0,0:0:0:100:pf-01.wav
213,192,12794,1,0,0:0:0:100:pfb-03.wav
384,192,13014,1,0,0:0:0:100:pfb-04.wav
128,192,13124,1,0,0:0:0:100:pf-01.wav
213,192,13124,1,0,0:0:0:100:pfb-03.wav
128,192,13345,1,0,0:0:0:100:pf-02.wav
213,192,13345,1,0,0:0:0:100:pfb-05.wav
384,192,13455,1,0,0:0:0:100:pfb-06.wav
128,192,13676,1,0,0:0:0:100:pf-02.wav
213,192,13676,1,0,0:0:0:100:pfb-05.wav
128,192,13897,1,0,0:0:0:100:pf-02.wav
213,192,13897,1,0,0:0:0:100:pfb-06.wav
42,192,14117,1,0,0:0:0:100:Kick01.wav
469,192,14117,1,0,0:0:0:100:p2-001.wav
298,192,14338,1,0,0:0:0:100:pb-001.wav
42,192,14558,1,0,0:0:0:100:Kick01.wav
469,192,14558,1,0,0:0:0:100:p2-001.wav
298,192,14779,1,0,0:0:0:100:pb-001.wav
469,192,14889,1,0,0:0:0:100:p2-002.wav
42,192,14999,1,0,0:0:0:100:Kick01.wav
469,192,15110,1,0,0:0:0:100:p2-002.wav
298,192,15220,1,0,0:0:0:100:pb-002.wav
42,192,15441,1,0,0:0:0:100:Kick01.wav
469,192,15441,1,0,0:0:0:100:p2-002.wav
469,192,15661,1,0,0:0:0:100:p2-002.wav
298,192,15661,1,0,0:0:0:100:pb-002.wav
469,192,15882,1,0,0:0:0:100:Kick01.wav
42,192,15882,1,0,0:0:0:100:p2-003.wav
213,192,16102,1,0,0:0:0:100:pb-004.wav
469,192,16323,1,0,0:0:0:100:Kick01.wav
42,192,16323,1,0,0:0:0:100:p2-003.wav
213,192,16544,1,0,0:0:0:100:pb-004.wav
42,192,16654,1,0,0:0:0:100:p2-003.wav
469,192,16764,1,0,0:0:0:100:Kick01.wav
42,192,16874,1,0,0:0:0:100:p2-004.wav
213,192,16985,1,0,0:0:0:100:pb-003.wav
469,192,17205,1,0,0:0:0:100:Kick01.wav
42,192,17205,1,0,0:0:0:100:p2-004.wav
42,192,17426,1,0,0:0:0:100:p2-004.wav
213,192,17426,1,0,0:0:0:100:pb-003.wav
42,192,17647,1,0,0:0:0:100:Kick01.wav
469,192,17647,1,0,0:0:0:100:p2-001.wav
298,192,17867,1,0,0:0:0:100:pb-001.wav
42,192,18088,1,0,0:0:0:100:Kick01.wav
469,192,18088,1,0,0:0:0:100:p2-001.wav
298,192,18308,1,0,0:0:0:100:pb-001.wav
469,192,18419,1,0,0:0:0:100:p2-002.wav
42,192,18529,1,0,0:0:0:100:Kick01.wav
469,192,18639,1,0,0:0:0:100:p2-002.wav
298,192,18749,1,0,0:0:0:100:pb-002.wav
42,192,18970,1,0,0:0:0:100:Kick01.wav
469,192,18970,1,0,0:0:0:100:p2-002.wav
469,192,19191,1,0,0:0:0:100:p2-002.wav
298,192,19191,1,0,0:0:0:100:pb-002.wav
469,192,19411,1,0,0:0:0:100:Kick01.wav
42,192,19411,1,0,0:0:0:100:p2-003.wav
213,192,19632,1,0,0:0:0:100:pb-004.wav
469,192,19852,1,0,0:0:0:100:Kick01.wav
42,192,19852,1,0,0:0:0:100:p2-003.wav
213,192,20073,1,0,0:0:0:100:pb-004.wav
42,192,20183,1,0,0:0:0:100:p2-003.wav
469,192,20294,1,0,0:0:0:100:Kick01.wav
42,192,20404,1,0,0:0:0:100:p2-004.wav
213,192,20514,1,0,0:0:0:100:pb-003.wav
469,192,20735,1,0,0:0:0:100:Kick01.wav
42,192,20735,1,0,0:0:0:100:p2-004.wav
42,192,20955,1,0,0:0:0:100:p2-004.wav
213,192,20955,1,0,0:0:0:100:pb-003.wav
42,192,21176,1,0,0:0:0:100:Kick01.wav
469,192,21176,1,0,0:0:0:100:p2-001.wav
298,192,21397,1,0,0:0:0:100:pb-001.wav
213,192,21617,1,0,0:0:0:100:Kick01.wav
128,192,21617,1,0,0:0:0:100:crap01.wav
384,192,21617,1,0,0:0:0:100:p2-001.wav
298,192,21838,1,0,0:0:0:100:pb-001.wav
469,192,21948,1,0,0:0:0:100:p2-002.wav
42,192,22058,1,0,0:0:0:100:Kick01.wav
469,192,22169,1,0,0:0:0:100:p2-002.wav
298,192,22279,1,0,0:0:0:100:pb-002.wav
128,192,22499,1,0,0:0:0:100:Kick01.wav
213,192,22499,1,0,0:0:0:100:crap01.wav
384,192,22499,1,0,0:0:0:100:p2-002.wav
213,192,22720,1,0,0:0:0:100:pb-002.wav
384,192,22720,1,0,0:0:0:100:p2-002.wav
469,192,22941,1,0,0:0:0:100:Kick01.wav
42,192,22941,1,0,0:0:0:100:p2-003.wav
213,192,23161,1,0,0:0:0:100:pb-004.wav
384,192,23382,1,0,0:0:0:100:Kick01.wav
298,192,23382,1,0,0:0:0:100:crap01.wav
128,192,23382,1,0,0:0:0:100:p2-003.wav
213,192,23602,1,0,0:0:0:100:pb-004.wav
42,192,23713,1,0,0:0:0:100:p2-003.wav
469,192,23823,1,0,0:0:0:100:Kick01.wav
42,192,23933,1,0,0:0:0:100:p2-004.wav
213,192,24044,1,0,0:0:0:100:pb-003.wav
384,192,24264,1,0,0:0:0:100:Kick01.wav
298,192,24264,1,0,0:0:0:100:crap01.wav
128,192,24264,1,0,0:0:0:100:p2-004.wav
298,192,24485,1,0,0:0:0:100:pb-003.wav
128,192,24485,1,0,0:0:0:100:p2-004.wav
42,192,24705,1,0,0:0:0:100:Kick01.wav
469,192,24705,1,0,0:0:0:100:p2-001.wav
298,192,24926,1,0,0:0:0:100:pb-001.wav
213,192,25147,1,0,0:0:0:100:Kick01.wav
128,192,25147,1,0,0:0:0:100:crap01.wav
384,192,25147,1,0,0:0:0:100:p2-001.wav
298,192,25367,1,0,0:0:0:100:pb-001.wav
469,192,25477,1,0,0:0:0:100:p2-002.wav
42,192,25588,1,0,0:0:0:100:Kick01.wav
469,192,25698,1,0,0:0:0:100:p2-002.wav
298,192,25808,1,0,0:0:0:100:pb-002.wav
213,192,26029,1,0,0:0:0:100:Kick01.wav
128,192,26029,1,0,0:0:0:100:crap01.wav
384,192,26029,1,0,0:0:0:100:p2-002.wav
128,192,26249,1,0,0:0:0:100:crap01.wav
384,192,26249,1,0,0:0:0:100:p2-002.wav
298,192,26249,1,0,0:0:0:100:pb-002.wav
469,192,26470,1,0,0:0:0:100:Kick01.wav
213,192,26470,1,0,0:0:0:100:crap01.wav
42,192,26470,1,0,0:0:0:100:p2-003.wav
298,192,26691,1,0,0:0:0:100:crap01.wav
128,192,26691,1,0,0:0:0:100:pb-004.wav
384,192,26911,1,0,0:0:0:100:Kick01.wav
213,192,26911,1,0,0:0:0:100:crap01.wav
469,192,26911,1,0,0:0:0:100:p2-003.wav
298,192,27132,1,0,0:0:0:100:crap01.wav
128,192,27132,1,0,0:0:0:100:pb-004.wav
213,192,27242,1,0,0:0:0:100:p2-003.wav
469,192,27352,1,0,0:0:0:100:Kick01.wav
298,192,27352,1,0,0:0:0:100:crap01.wav
213,192,27463,1,0,0:0:0:85:crap02.wav
42,192,27463,1,0,0:0:0:100:p2-004.wav
469,192,27573,1,0,0:0:0:85:crap02.wav
298,192,27573,1,0,0:0:0:100:pb-003.wav
213,192,27683,1,0,0:0:0:85:crap02.wav
469,192,27794,1,0,0:0:0:100:Kick01.wav
298,192,27794,1,0,0:0:0:100:crap01.wav
42,192,27794,1,0,0:0:0:100:p2-004.wav
213,192,27904,1,0,0:0:0:85:crap02.wav
384,192,28014,1,0,0:0:0:85:crap02.wav
298,192,28014,1,0,0:0:0:100:p2-004.wav
128,192,28014,1,0,0:0:0:100:pb-003.wav
213,192,28124,1,0,0:0:0:85:crap01.wav
469,192,28235,1,0,0:0:0:100:Kick01.wav
42,192,28235,1,0,0:0:0:100:p3-001.wav
384,192,28455,1,0,0:0:0:100:pb-004.wav
213,192,28676,1,0,0:0:0:100:Kick01.wav
128,192,28676,1,0,0:0:0:100:crap01.wav
298,192,28676,1,0,0:0:0:100:p3-001.wav
42,192,28897,1,0,0:0:0:100:pb-004.wav
469,192,29007,1,0,0:0:0:100:p3-002.wav
298,192,29117,1,0,0:0:0:100:Kick01.wav
469,192,29227,1,0,0:0:0:100:p3-002.wav
42,192,29338,1,0,0:0:0:100:pb-003.wav
213,192,29558,1,0,0:0:0:100:Kick01.wav
128,192,29558,1,0,0:0:0:100:crap01.wav
298,192,29558,1,0,0:0:0:100:p3-002.wav
384,192,29779,1,0,0:0:0:100:p3-002.wav
213,192,29779,1,0,0:0:0:100:pb-003.wav
128,192,29999,1,0,0:0:0:100:Kick01.wav
298,192,29999,1,0,0:0:0:100:p3-003.wav
42,192,30220,1,0,0:0:0:100:pb-003.wav
213,192,30441,1,0,0:0:0:100:Kick01.wav
298,192,30441,1,0,0:0:0:100:crap01.wav
384,192,30441,1,0,0:0:0:100:p3-003.wav
469,192,30661,1,0,0:0:0:100:pb-003.wav
42,192,30772,1,0,0:0:0:100:p3-004.wav
213,192,30882,1,0,0:0:0:100:Kick01.wav
42,192,30992,1,0,0:0:0:100:p3-004.wav
469,192,31102,1,0,0:0:0:100:pb-001.wav
213,192,31323,1,0,0:0:0:100:Kick01.wav
298,192,31323,1,0,0:0:0:100:crap01.wav
384,192,31323,1,0,0:0:0:100:p3-004.wav
298,192,31544,1,0,0:0:0:100:p3-004.wav
128,192,31544,1,0,0:0:0:100:pb-001.wav
469,192,31764,1,0,0:0:0:100:Kick01.wav
42,192,31764,1,0,0:0:0:100:p3-001.wav
384,192,31985,1,0,0:0:0:100:pb-004.wav
213,192,32205,1,0,0:0:0:100:Kick01.wav
128,192,32205,1,0,0:0:0:100:crap01.wav
298,192,32205,1,0,0:0:0:100:p3-001.wav
42,192,32426,1,0,0:0:0:100:pb-004.wav
469,192,32536,1,0,0:0:0:100:p3-002.wav
298,192,32647,1,0,0:0:0:100:Kick01.wav
469,192,32757,1,0,0:0:0:100:p3-002.wav
42,192,32867,1,0,0:0:0:100:pb-003.wav
213,192,33088,1,0,0:0:0:100:Kick01.wav
128,192,33088,1,0,0:0:0:100:crap01.wav
298,192,33088,1,0,0:0:0:100:p3-002.wav
384,192,33308,1,0,0:0:0:100:p3-002.wav
213,192,33308,1,0,0:0:0:100:pb-003.wav
128,192,33529,1,0,0:0:0:100:Kick01.wav
298,192,33529,1,0,0:0:0:100:p3-003.wav
42,192,33749,1,0,0:0:0:100:pb-003.wav
213,192,33970,1,0,0:0:0:100:Kick01.wav
298,192,33970,1,0,0:0:0:100:crap01.wav
384,192,33970,1,0,0:0:0:100:p3-003.wav
469,192,34191,1,0,0:0:0:100:pb-003.wav
42,192,34301,1,0,0:0:0:100:p3-004.wav
213,192,34411,1,0,0:0:0:100:Kick01.wav
42,192,34522,1,0,0:0:0:100:p3-004.wav
469,192,34632,1,0,0:0:0:100:pb-001.wav
213,192,34852,1,0,0:0:0:100:Kick01.wav
298,192,34852,1,0,0:0:0:100:crap01.wav
384,192,34852,1,0,0:0:0:100:p3-004.wav
298,192,35073,1,0,0:0:0:100:p3-004.wav
128,192,35073,1,0,0:0:0:100:pb-001.wav
42,192,35294,1,0,0:0:0:100:Kick01.wav
469,192,35294,1,0,0:0:0:100:p3-001.wav
298,192,35514,1,0,0:0:0:100:pb-004.wav
42,192,35735,1,0,0:0:0:100:Kick01.wav
213,192,35735,1,0,0:0:0:100:crap01.wav
469,192,35735,1,0,0:0:0:100:p3-001.wav
298,192,35955,1,0,0:0:0:100:pb-004.wav
384,192,36066,1,0,0:0:0:100:p3-002.wav
128,192,36176,1,0,0:0:0:100:Kick01.wav
384,192,36286,1,0,0:0:0:100:p3-002.wav
298,192,36397,1,0,0:0:0:100:pb-003.wav
42,192,36617,1,0,0:0:0:100:Kick01.wav
213,192,36617,1,0,0:0:0:100:crap01.wav
469,192,36617,1,0,0:0:0:100:p3-002.wav
128,192,36838,1,0,0:0:0:100:pb-003.wav
384,192,36838,1,0,0:0:0:100:p3-002.wav
42,192,37058,1,0,0:0:0:100:Kick01.wav
469,192,37058,1,0,0:0:0:100:p3-003.wav
213,192,37279,1,0,0:0:0:100:pb-003.wav
42,192,37499,1,0,0:0:0:100:Kick01.wav
298,192,37499,1,0,0:0:0:100:crap01.wav
469,192,37499,1,0,0:0:0:100:p3-003.wav
213,192,37720,1,0,0:0:0:100:pb-003.wav
128,192,37830,1,0,0:0:0:100:p3-004.wav
384,192,37941,1,0,0:0:0:100:Kick01.wav
128,192,38051,1,0,0:0:0:100:p3-004.wav
213,192,38161,1,0,0:0:0:100:pb-001.wav
42,192,38382,1,0,0:0:0:100:Kick01.wav
298,192,38382,1,0,0:0:0:100:crap01.wav
469,192,38382,1,0,0:0:0:100:p3-004.wav
128,192,38602,1,0,0:0:0:100:pb-001.wav
384,192,38602,1,0,0:0:0:100:p3-004.wav
42,192,38823,1,0,0:0:0:100:Kick01.wav
469,192,38823,1,0,0:0:0:100:p3-001.wav
298,192,39044,1,0,0:0:0:100:pb-004.wav
42,192,39264,1,0,0:0:0:100:Kick01.wav
213,192,39264,1,0,0:0:0:100:crap01.wav
469,192,39264,1,0,0:0:0:100:p3-001.wav
298,192,39485,1,0,0:0:0:100:pb-004.wav
384,192,39595,1,0,0:0:0:100:p3-002.wav
128,192,39705,1,0,0:0:0:100:Kick01.wav
384,192,39816,1,0,0:0:0:100:p3-002.wav
298,192,39926,1,0,0:0:0:100:pb-003.wav
42,192,40147,1,0,0:0:0:100:Kick01.wav
213,192,40147,1,0,0:0:0:100:crap01.wav
469,192,40147,1,0,0:0:0:100:p3-002.wav
128,192,40367,1,0,0:0:0:100:pb-003.wav
384,192,40367,1,0,0:0:0:100:p3-002.wav
42,192,40588,1,0,0:0:0:100:Kick01.wav
469,192,40588,1,0,0:0:0:100:p3-003.wav
213,192,40808,1,0,0:0:0:100:pb-003.wav
42,192,41029,1,0,0:0:0:100:Kick01.wav
298,192,41029,1,0,0:0:0:100:crap01.wav
469,192,41029,1,0,0:0:0:100:p3-003.wav
213,192,41249,1,0,0:0:0:100:pb-003.wav
128,192,41360,1,0,0:0:0:100:p3-004.wav
384,192,41470,1,0,0:0:0:100:Kick01.wav
128,192,41580,1,0,0:0:0:100:p3-004.wav
213,192,41691,1,0,0:0:0:100:pb-001.wav
42,192,41911,1,0,0:0:0:100:Kick01.wav
298,192,41911,1,0,0:0:0:100:crap01.wav
469,192,41911,1,0,0:0:0:100:p3-004.wav
128,192,42132,1,0,0:0:0:100:pb-001.wav
384,192,42132,1,0,0:0:0:100:p3-004.wav
298,192,42352,1,0,0:0:0:100:Kick01.wav
213,192,42352,1,0,0:0:0:100:p4-001.wav
469,192,42573,128,0,42794:0:0:0:0:
213,192,42794,1,0,0:0:0:100:Kick01.wav
42,192,42794,128,0,43014:0:0:0:44:
298,192,42794,1,0,0:0:0:100:p4-002.wav
384,192,43014,1,0,0:0:0:100:
213,192,43124,1,0,0:0:0:100:p4-003.wav
128,192,43124,1,0,0:0:0:66:
298,192,43235,1,0,0:0:0:100:Kick01.wav
384,192,43235,1,0,0:0:0:66:
213,192,43345,1,0,0:0:0:100:p4-003.wav
42,192,43345,128,0,43566:0:0:0:66:
128,192,43566,1,0,0:0:0:100:
384,192,43676,1,0,0:0:0:100:Kick01.wav
213,192,43676,1,0,0:0:0:100:p4-004.wav
469,192,43676,128,0,43897:0:0:0:44:
42,192,43897,1,0,0:0:0:100:p4-004.wav
128,192,43897,128,0,44117:0:0:0:66:
298,192,44117,1,0,0:0:0:100:Kick01.wav
213,192,44117,1,0,0:0:0:100:p4-005.wav
384,192,44117,128,0,44448:0:0:0:44:
298,192,44448,1,0,0:0:0:100:
42,192,44558,1,0,0:0:0:100:Kick01.wav
469,192,44558,1,0,0:0:0:44:
213,192,44558,1,0,0:0:0:100:p4-006.wav
384,192,44779,1,0,0:0:0:100:
298,192,44889,1,0,0:0:0:100:p4-007.wav
128,192,44889,128,0,45110:0:0:0:66:
213,192,44999,1,0,0:0:0:100:Kick01.wav
384,192,45110,1,0,0:0:0:100:p4-007.wav
469,192,45110,1,0,0:0:0:66:
213,192,45220,128,0,45441:0:0:0:100:
128,192,45441,1,0,0:0:0:100:p4-008.wav
42,192,45441,1,0,0:0:0:100:Kick01.wav
469,192,45441,1,0,0:0:0:44:
384,192,45551,1,0,0:0:0:100:
213,192,45661,1,0,0:0:0:100:p4-008.wav
298,192,45661,128,0,45882:0:0:0:66:
42,192,45882,1,0,0:0:0:100:Kick01.wav
469,192,45882,1,0,0:0:0:100:p4-001.wav
298,192,46102,1,0,0:0:0:100:
213,192,46323,1,0,0:0:0:100:Kick01.wav
384,192,46323,128,0,46544:0:0:0:44:
128,192,46323,1,0,0:0:0:100:p4-002.wav
469,192,46544,1,0,0:0:0:100:
298,192,46654,1,0,0:0:0:66:
128,192,46654,1,0,0:0:0:100:p4-003.wav
213,192,46764,1,0,0:0:0:100:Kick01.wav
384,192,46764,1,0,0:0:0:66:
42,192,46874,128,0,47095:0:0:0:66:
128,192,46874,1,0,0:0:0:100:p4-003.wav
384,192,47095,1,0,0:0:0:0:
128,192,47205,1,0,0:0:0:100:Kick01.wav
213,192,47205,128,0,47426:0:0:0:44:
298,192,47205,1,0,0:0:0:100:p4-004.wav
384,192,47426,128,0,47647:0:0:0:66:
298,192,47426,1,0,0:0:0:100:p4-004.wav
213,192,47647,1,0,0:0:0:100:Kick01.wav
42,192,47647,128,0,48088:0:0:0:44:
469,192,47647,1,0,0:0:0:100:p4-005.wav
128,192,48088,1,0,0:0:0:100:Kick01.wav
469,192,48088,128,0,48308:0:0:0:44:
213,192,48088,1,0,0:0:0:100:p4-006.wav
298,192,48308,1,0,0:0:0:100:
384,192,48419,1,0,0:0:0:66:
128,192,48419,1,0,0:0:0:100:p4-007.wav
469,192,48529,1,0,0:0:0:100:Kick01.wav
42,192,48529,1,0,0:0:0:66:
128,192,48639,128,0,48970:0:0:0:66:
213,192,48639,1,0,0:0:0:100:p4-007.wav
298,192,48970,1,0,0:0:0:100:Kick01.wav
384,192,48970,128,0,49191:0:0:0:44:
213,192,48970,1,0,0:0:0:100:p4-008.wav
128,192,49191,128,0,49411:0:0:0:66:
213,192,49191,1,0,0:0:0:100:p4-008.wav
384,192,49411,1,0,0:0:0:100:Kick01.wav
298,192,49411,1,0,0:0:0:100:p4-001.wav
213,192,49632,1,0,0:0:0:100:
42,192,49852,1,0,0:0:0:100:Kick01.wav
213,192,49852,128,0,50073:0:0:0:44:
469,192,49852,1,0,0:0:0:100:p4-002.wav
298,192,50073,1,0,0:0:0:100:
213,192,50183,128,0,50404:0:0:0:66:
42,192,50183,1,0,0:0:0:100:p4-003.wav
128,192,50294,1,0,0:0:0:100:Kick01.wav
298,192,50404,128,0,50624:0:0:0:66:
469,192,50404,1,0,0:0:0:100:p4-003.wav
128,192,50624,1,0,0:0:0:100:
213,192,50735,1,0,0:0:0:100:Kick01.wav
298,192,50735,128,0,50955:0:0:0:44:
469,192,50735,1,0,0:0:0:100:p4-004.wav
213,192,50955,1,0,0:0:0:66:
128,192,50955,1,0,0:0:0:100:p4-004.wav
384,192,51066,1,0,0:0:0:100:
128,192,51176,1,0,0:0:0:100:Kick01.wav
42,192,51176,128,0,51397:0:0:0:44:
213,192,51176,1,0,0:0:0:100:p4-005.wav
469,192,51397,128,0,51617:0:0:0:100:
384,192,51617,1,0,0:0:0:100:Kick01.wav
298,192,51617,1,0,0:0:0:44:
213,192,51617,1,0,0:0:0:100:p4-006.wav
128,192,51727,1,0,0:0:0:100:
42,192,51838,1,0,0:0:0:100:
298,192,51948,1,0,0:0:0:66:
469,192,51948,1,0,0:0:0:100:p4-007.wav
384,192,52058,1,0,0:0:0:100:Kick01.wav
213,192,52058,1,0,0:0:0:66:
298,192,52169,1,0,0:0:0:66:
128,192,52169,1,0,0:0:0:100:p4-007.wav
42,192,52279,128,0,52499:0:0:0:100:
298,192,52499,1,0,0:0:0:100:Kick01.wav
384,192,52499,1,0,0:0:0:44:
128,192,52499,1,0,0:0:0:100:p4-008.wav
213,192,52610,1,0,0:0:0:100:
469,192,52720,128,0,52941:0:0:0:66:
298,192,52720,1,0,0:0:0:100:p4-008.wav
42,192,52941,1,0,0:0:0:100:Kick01.wav
213,192,52941,1,0,0:0:0:100:p4-001.wav
298,192,53161,1,0,0:0:0:100:
384,192,53382,1,0,0:0:0:100:Kick01.wav
298,192,53382,128,0,53713:0:0:0:44:
128,192,53382,1,0,0:0:0:100:p4-002.wav
469,192,53713,128,0,53933:0:0:0:66:
213,192,53713,1,0,0:0:0:100:p4-003.wav
128,192,53823,1,0,0:0:0:100:Kick01.wav
42,192,53933,128,0,54154:0:0:0:66:
298,192,53933,1,0,0:0:0:100:p4-003.wav
384,192,54154,1,0,0:0:0:100:
298,192,54264,1,0,0:0:0:100:Kick01.wav
128,192,54264,128,0,54485:0:0:0:44:
213,192,54264,1,0,0:0:0:100:p4-004.wav
384,192,54485,128,0,54705:0:0:0:66:
42,192,54485,1,0,0:0:0:100:p4-004.wav
298,192,54705,1,0,0:0:0:100:Kick01.wav
213,192,54705,128,0,55147:0:0:0:44:
469,192,54705,1,0,0:0:0:100:p4-005.wav
298,192,55147,1,0,0:0:0:100:Kick01.wav
42,192,55147,128,0,55367:0:0:0:44:
384,192,55147,1,0,0:0:0:100:p4-006.wav
213,192,55367,1,0,0:0:0:100:
469,192,55477,128,0,55698:0:0:0:66:
42,192,55477,1,0,0:0:0:100:p4-007.wav
298,192,55588,1,0,0:0:0:100:Kick01.wav
42,192,55698,1,0,0:0:0:66:
213,192,55698,1,0,0:0:0:100:p4-007.wav
128,192,56029,1,0,0:0:0:100:Kick01.wav
298,192,56029,1,0,0:0:0:44:
384,192,56029,1,0,0:0:0:100:p4-008.wav
213,192,56249,1,0,0:0:0:66:
384,192,56249,1,0,0:0:0:100:p4-008.wav
128,192,56470,1,0,0:0:0:100:Kick01.wav
298,192,56470,1,0,0:0:0:66:
128,192,56911,1,0,0:0:0:100:crap01.wav
213,192,56911,1,0,0:0:0:66:
384,192,57022,1,0,0:0:0:100:
298,192,57132,1,0,0:0:0:100:
128,192,57242,1,0,0:0:0:100:Kick01.wav
213,192,57242,1,0,0:0:0:66:
298,192,57352,1,0,0:0:0:100:
384,192,57463,128,0,57683:0:0:0:100:
213,192,57573,1,0,0:0:0:100:Kick01.wav
298,192,57683,1,0,0:0:0:100:
213,192,57794,1,0,0:0:0:100:crap01.wav
128,192,57794,128,0,58014:0:0:0:66:
384,192,58014,1,0,0:0:0:100:Kick01.wav
298,192,58014,1,0,0:0:0:66:
42,192,58235,1,0,0:0:0:100:Kick01.wav
469,192,58235,128,0,58566:0:0:0:66:
298,192,58566,1,0,0:0:0:100:
128,192,58676,1,0,0:0:0:100:crap01.wav
42,192,58676,128,0,58897:0:0:0:66:
213,192,58897,1,0,0:0:0:100:
384,192,59007,1,0,0:0:0:100:Kick01.wav
469,192,59007,128,0,59227:0:0:0:66:
42,192,59227,1,0,0:0:0:100:crap02.wav
213,192,59227,1,0,0:0:0:66:
384,192,59338,1,0,0:0:0:100:Kick01.wav
298,192,59558,1,0,0:0:0:100:crap01.wav
469,192,59558,1,0,0:0:0:66:
128,192,59669,1,0,0:0:0:100:Kick01.wav
384,192,59779,1,0,0:0:0:100:
128,192,59999,1,0,0:0:0:100:Kick01.wav
298,192,59999,128,0,60441:0:0:0:66:
128,192,60441,1,0,0:0:0:100:crap01.wav
213,192,60441,1,0,0:0:0:66:
384,192,60551,1,0,0:0:0:100:
298,192,60661,1,0,0:0:0:100:
128,192,60772,1,0,0:0:0:100:Kick01.wav
384,192,60772,1,0,0:0:0:66:
213,192,60882,1,0,0:0:0:100:
298,192,60992,128,0,61323:0:0:0:100:
128,192,61102,1,0,0:0:0:100:Kick01.wav
213,192,61323,1,0,0:0:0:100:crap01.wav
384,192,61323,1,0,0:0:0:66:
128,192,61544,1,0,0:0:0:100:Kick01.wav
298,192,61544,1,0,0:0:0:66:
213,192,61764,1,0,0:0:0:100:Kick01.wav
384,192,61764,1,0,0:0:0:66:
42,192,62205,1,0,0:0:0:100:crap01.wav
469,192,62205,1,0,0:0:0:66:
384,192,62316,1,0,0:0:0:100:
298,192,62426,1,0,0:0:0:100:
42,192,62536,1,0,0:0:0:100:Kick01.wav
213,192,62536,128,0,62757:0:0:0:66:
128,192,62757,1,0,0:0:0:100:
469,192,62867,1,0,0:0:0:100:Kick01.wav
298,192,62867,128,0,63088:0:0:0:66:
128,192,63088,1,0,0:0:0:100:crap01.wav
213,192,63088,1,0,0:0:0:66:
384,192,63308,1,0,0:0:0:100:Kick01.wav
128,192,63308,128,0,63529:0:0:0:66:
384,192,63529,1,0,0:0:0:100:Kick01.wav
298,192,63749,1,0,0:0:0:100:
128,192,63970,1,0,0:0:0:100:crap01.wav
213,192,63970,128,0,64191:0:0:0:66:
384,192,64191,1,0,0:0:0:100:
128,192,64301,1,0,0:0:0:100:Kick01.wav
298,192,64301,128,0,64522:0:0:0:66:
42,192,64522,1,0,0:0:0:100:crap02.wav
213,192,64522,128,0,64742:0:0:0:66:
128,192,64632,1,0,0:0:0:100:Kick01.wav
469,192,64742,1,0,0:0:0:100:
213,192,64852,1,0,0:0:0:100:crap01.wav
384,192,64852,1,0,0:0:0:66:
128,192,64963,1,0,0:0:0:100:
469,192,65073,1,0,0:0:0:100:Kick01.wav
42,192,65073,128,0,65294:0:0:0:66:
298,192,65294,1,0,0:0:0:100:Kick01.wav
469,192,65294,128,0,65514:0:0:0:66:
298,192,65514,128,0,65735:0:0:0:100:
42,192,65735,1,0,0:0:0:100:crap01.wav
213,192,65735,128,0,65955:0:0:0:66:
384,192,65955,1,0,0:0:0:100:
213,192,66066,1,0,0:0:0:100:Kick01.wav
42,192,66066,128,0,66286:0:0:0:66:
469,192,66286,128,0,66507:0:0:0:100:
213,192,66397,1,0,0:0:0:100:Kick01.wav
298,192,66507,1,0,0:0:0:100:
128,192,66617,1,0,0:0:0:100:crap01.wav
384,192,66617,1,0,0:0:0:66:
42,192,66727,1,0,0:0:0:100:Kick01.wav
469,192,66727,1,0,0:0:0:66:
213,192,66838,1,0,0:0:0:100:
298,192,66948,1,0,0:0:0:100:
42,192,67058,1,0,0:0:0:100:Kick01.wav
469,192,67058,128,0,67279:0:0:0:66:
384,192,67279,128,0,67499:0:0:0:100:
213,192,67499,1,0,0:0:0:100:crap01.wav
42,192,67499,1,0,0:0:0:100:Kick01.wav
298,192,67499,128,0,67720:0:0:0:44:
469,192,67720,1,0,0:0:0:100:
213,192,67830,128,0,68051:0:0:0:100:
128,192,67941,1,0,0:0:0:100:Kick01.wav
384,192,68051,1,0,0:0:0:100:
128,192,68161,128,0,68382:0:0:0:100:
213,192,68382,1,0,0:0:0:100:Kick01.wav
298,192,68382,1,0,0:0:0:100:crap01.wav
384,192,68492,1,0,0:0:0:100:
128,192,68602,1,0,0:0:0:100:
213,192,68713,1,0,0:0:0:100:
469,192,68823,1,0,0:0:0:100:Kick01.wav
42,192,68823,128,0,69044:0:0:0:66:
384,192,69044,1,0,0:0:0:100:Kick01.wav
128,192,69044,128,0,69264:0:0:0:66:
469,192,69264,1,0,0:0:0:100:crap01.wav
42,192,69264,1,0,0:0:0:100:Kick01.wav
213,192,69264,128,0,69485:0:0:0:44:
128,192,69485,1,0,0:0:0:100:Kick01.wav
384,192,69485,1,0,0:0:0:66:
298,192,69595,128,0,69816:0:0:0:100:
213,192,69705,1,0,0:0:0:100:Kick01.wav
128,192,69816,1,0,0:0:0:100:Kick01.wav
384,192,69816,128,0,70036:0:0:0:66:
213,192,69926,1,0,0:0:0:100:Kick01.wav
298,192,70036,1,0,0:0:0:100:Kick01.wav
469,192,70036,128,0,70257:0:0:0:66:
42,192,70147,1,0,0:0:0:100:Kick01.wav
213,192,70147,1,0,0:0:0:100:crap01.wav
298,192,70257,1,0,0:0:0:100:Kick01.wav
384,192,70257,1,0,0:0:0:66:
128,192,70367,1,0,0:0:0:100:Kick01.wav
213,192,70367,1,0,0:0:0:66:
298,192,70477,1,0,0:0:0:100:Kick01.wav
42,192,70588,1,0,0:0:0:100:Kick01.wav
213,192,70588,1,0,0:0:0:44:
469,192,70588,1,0,0:0:0:100:p3-001.wav
213,192,70808,1,0,0:0:0:0:
42,192,70808,1,0,0:0:0:0:
384,192,71029,1,0,0:0:0:100:Kick01.wav
128,192,71029,1,0,0:0:0:100:crap01.wav
298,192,71029,1,0,0:0:0:100:p3-001.wav
128,192,71139,1,0,0:0:0:100:
213,192,71249,1,0,0:0:0:100:
384,192,71360,1,0,0:0:0:100:p3-002.wav
298,192,71360,1,0,0:0:0:66:
128,192,71470,1,0,0:0:0:100:Kick01.wav
384,192,71580,1,0,0:0:0:100:p3-002.wav
298,192,71580,1,0,0:0:0:66:
213,192,71691,1,0,0:0:0:0:
128,192,71801,1,0,0:0:0:100:
42,192,71911,1,0,0:0:0:100:Kick01.wav
469,192,71911,1,0,0:0:0:100:crap01.wav
298,192,71911,1,0,0:0:0:100:p3-002.wav
213,192,72022,1,0,0:0:0:100:
469,192,72132,1,0,0:0:0:66:
298,192,72132,1,0,0:0:0:100:p3-002.wav
213,192,72242,1,0,0:0:0:100:
128,192,72352,1,0,0:0:0:44:
298,192,72352,1,0,0:0:0:100:p3-003.wav
42,192,72352,1,0,0:0:0:100:Kick01.wav
213,192,72463,1,0,0:0:0:100:
298,192,72573,1,0,0:0:0:100:
384,192,72683,1,0,0:0:0:100:
213,192,72794,1,0,0:0:0:100:Kick01.wav
469,192,72794,1,0,0:0:0:100:crap01.wav
42,192,72794,1,0,0:0:0:100:p3-003.wav
384,192,72904,1,0,0:0:0:100:
298,192,73014,1,0,0:0:0:100:
213,192,73124,1,0,0:0:0:100:p3-004.wav
128,192,73124,1,0,0:0:0:66:
384,192,73235,1,0,0:0:0:100:Kick01.wav
128,192,73345,1,0,0:0:0:66:
213,192,73345,1,0,0:0:0:100:p3-004.wav
384,192,73455,1,0,0:0:0:100:
298,192,73566,1,0,0:0:0:100:
42,192,73676,1,0,0:0:0:100:Kick01.wav
213,192,73676,1,0,0:0:0:100:crap01.wav
469,192,73676,1,0,0:0:0:100:p3-004.wav
298,192,73786,1,0,0:0:0:100:
213,192,73897,1,0,0:0:0:66:
384,192,73897,1,0,0:0:0:100:p3-004.wav
128,192,74007,128,0,74117:0:0:0:100:
469,192,74117,1,0,0:0:0:100:Kick01.wav
42,192,74117,128,0,74558:0:0:0:44:
298,192,74117,1,0,0:0:0:100:p3-001.wav
298,192,74558,1,0,0:0:0:100:crap01.wav
128,192,74558,1,0,0:0:0:100:Kick01.wav
469,192,74558,128,0,74779:0:0:0:100:p3-001.wav
384,192,74779,128,0,74999:0:0:0:100:
42,192,74889,1,0,0:0:0:100:p3-002.wav
128,192,74999,1,0,0:0:0:100:Kick01.wav
298,192,74999,128,0,75220:0:0:0:66:
42,192,75110,1,0,0:0:0:100:p3-002.wav
213,192,75220,128,0,75441:0:0:0:100:
42,192,75441,1,0,0:0:0:100:Kick01.wav
469,192,75441,1,0,0:0:0:100:crap01.wav
298,192,75441,1,0,0:0:0:100:p3-002.wav
384,192,75661,1,0,0:0:0:66:
213,192,75661,1,0,0:0:0:100:p3-002.wav
128,192,75882,1,0,0:0:0:100:Kick01.wav
298,192,75882,1,0,0:0:0:100:p3-003.wav
42,192,75882,1,0,0:0:0:44:
213,192,76102,1,0,0:0:0:100:
42,192,76323,1,0,0:0:0:100:Kick01.wav
128,192,76323,1,0,0:0:0:100:crap01.wav
469,192,76323,1,0,0:0:0:100:p3-003.wav
384,192,76433,1,0,0:0:0:100:
298,192,76544,1,0,0:0:0:100:
469,192,76654,128,0,76874:0:0:0:66:
213,192,76654,1,0,0:0:0:100:p3-004.wav
128,192,76764,1,0,0:0:0:100:Kick01.wav
42,192,76874,1,0,0:0:0:100:p3-004.wav
298,192,76874,1,0,0:0:0:66:
213,192,77095,1,0,0:0:0:100:
42,192,77205,1,0,0:0:0:100:Kick01.wav
384,192,77205,1,0,0:0:0:100:crap01.wav
469,192,77205,1,0,0:0:0:100:p3-004.wav
298,192,77316,1,0,0:0:0:100:
42,192,77426,128,0,77647:0:0:0:66:
213,192,77426,1,0,0:0:0:100:p3-004.wav
469,192,77647,1,0,0:0:0:44:
298,192,77647,1,0,0:0:0:100:Kick01.wav
128,192,77647,1,0,0:0:0:100:p3-001.wav
298,192,77867,1,0,0:0:0:100:
469,192,77867,1,0,0:0:0:0:
384,192,78088,1,0,0:0:0:100:Kick01.wav
128,192,78088,1,0,0:0:0:100:crap01.wav
213,192,78088,1,0,0:0:0:100:p3-001.wav
384,192,78198,1,0,0:0:0:100:
213,192,78419,1,0,0:0:0:100:p3-002.wav
128,192,78419,1,0,0:0:0:66:
384,192,78529,1,0,0:0:0:100:Kick01.wav
128,192,78639,1,0,0:0:0:100:p3-002.wav
213,192,78639,1,0,0:0:0:66:
298,192,78749,1,0,0:0:0:0:
384,192,78860,1,0,0:0:0:100:
42,192,78970,1,0,0:0:0:100:Kick01.wav
213,192,78970,1,0,0:0:0:100:crap01.wav
469,192,78970,1,0,0:0:0:100:p3-002.wav
298,192,79080,1,0,0:0:0:100:
42,192,79191,1,0,0:0:0:66:
213,192,79191,1,0,0:0:0:100:p3-002.wav
298,192,79301,1,0,0:0:0:100:
384,192,79411,1,0,0:0:0:100:Kick01.wav
469,192,79411,128,0,79632:0:0:0:44:
213,192,79411,1,0,0:0:0:100:p3-003.wav
42,192,79632,128,0,79852:0:0:0:100:
128,192,79852,1,0,0:0:0:100:Kick01.wav
384,192,79852,1,0,0:0:0:100:crap01.wav
469,192,79852,128,0,80073:0:0:0:100:p3-003.wav
128,192,80073,1,0,0:0:0:100:
384,192,80183,1,0,0:0:0:100:p3-004.wav
298,192,80183,1,0,0:0:0:66:
128,192,80294,1,0,0:0:0:100:Kick01.wav
384,192,80404,1,0,0:0:0:100:p3-004.wav
298,192,80404,1,0,0:0:0:66:
298,192,80624,1,0,0:0:0:100:
42,192,80735,1,0,0:0:0:100:Kick01.wav
213,192,80735,1,0,0:0:0:100:crap01.wav
469,192,80735,1,0,0:0:0:100:p3-004.wav
384,192,80845,1,0,0:0:0:100:
213,192,80955,1,0,0:0:0:66:
128,192,80955,1,0,0:0:0:100:p3-004.wav
298,192,81066,128,0,81286:0:0:0:100:
42,192,81176,1,0,0:0:0:100:Kick01.wav
128,192,81176,1,0,0:0:0:100:p3-001.wav
469,192,81286,128,0,81617:0:0:0:100:
213,192,81617,1,0,0:0:0:100:Kick01.wav
384,192,81617,1,0,0:0:0:100:crap01.wav
42,192,81617,128,0,81838:0:0:0:100:p3-001.wav
128,192,81838,128,0,82058:0:0:0:100:
469,192,81948,1,0,0:0:0:100:p3-002.wav
384,192,82058,1,0,0:0:0:100:Kick01.wav
213,192,82058,128,0,82279:0:0:0:66:
469,192,82169,1,0,0:0:0:100:p3-002.wav
298,192,82279,128,0,82499:0:0:0:100:
42,192,82499,1,0,0:0:0:100:Kick01.wav
469,192,82499,1,0,0:0:0:100:crap01.wav
213,192,82499,1,0,0:0:0:100:p3-002.wav
298,192,82610,1,0,0:0:0:100:
384,192,82720,1,0,0:0:0:66:
128,192,82720,1,0,0:0:0:100:p3-002.wav
298,192,82830,1,0,0:0:0:100:
42,192,82941,1,0,0:0:0:100:Kick01.wav
469,192,82941,128,0,83161:0:0:0:44:
213,192,82941,1,0,0:0:0:100:p3-003.wav
298,192,83161,1,0,0:0:0:100:
213,192,83272,1,0,0:0:0:100:
42,192,83382,1,0,0:0:0:100:Kick01.wav
469,192,83382,1,0,0:0:0:100:crap01.wav
298,192,83382,1,0,0:0:0:100:p3-003.wav
128,192,83492,1,0,0:0:0:100:
213,192,83602,1,0,0:0:0:0:
384,192,83713,1,0,0:0:0:100:p3-004.wav
298,192,83713,1,0,0:0:0:66:
469,192,83823,1,0,0:0:0:100:Kick01.wav
213,192,83933,1,0,0:0:0:66:
128,192,83933,1,0,0:0:0:100:p3-004.wav
298,192,84044,1,0,0:0:0:100:
298,192,84154,1,0,0:0:0:100:
469,192,84264,1,0,0:0:0:33:
42,192,84264,1,0,0:0:0:100:Kick01.wav
128,192,84264,1,0,0:0:0:100:crap01.wav
384,192,84264,1,0,0:0:0:100:p3-004.wav
213,192,84374,1,0,0:0:0:100:
384,192,84485,1,0,0:0:0:66:
128,192,84485,1,0,0:0:0:100:p3-004.wav
298,192,84595,1,0,0:0:0:100:
42,192,84705,1,0,0:0:0:100:Kick01.wav
469,192,84705,128,0,85588:0:0:0:44:
213,192,84705,1,0,0:0:0:100:p1-001.wav
298,192,84926,1,0,0:0:0:100:pb-001.wav
42,192,85147,1,0,0:0:0:100:Kick01.wav
213,192,85147,1,0,0:0:0:100:p1-001.wav
298,192,85367,1,0,0:0:0:100:pb-001.wav
213,192,85477,1,0,0:0:0:100:p1-001.wav
42,192,85698,1,0,0:0:0:100:Kick01.wav
213,192,85698,1,0,0:0:0:100:p1-001.wav
298,192,85808,1,0,0:0:0:100:pb-001.wav
42,192,86029,1,0,0:0:0:100:Kick01.wav
298,192,86029,1,0,0:0:0:100:p1-001.wav
128,192,86029,1,0,0:0:0:100:pb-001.wav
469,192,86029,1,0,0:0:0:100:crap01.wav
469,192,86249,1,0,0:0:0:100:Kick01.wav
128,192,86249,1,0,0:0:0:100:p1-001.wav
298,192,86249,1,0,0:0:0:100:pb-001.wav
42,192,86249,1,0,0:0:0:100:crap01.wav
42,192,86470,1,0,0:0:0:100:Kick01.wav
213,192,86470,1,0,0:0:0:44:
469,192,86470,1,0,0:0:0:100:p1-002.wav
298,192,86691,1,0,0:0:0:100:pb-002.wav
469,192,86911,1,0,0:0:0:100:p1-002.wav
213,192,86911,1,0,0:0:0:65:crap01.wav
42,192,86911,1,0,0:0:0:65:crap01.wav
298,192,87132,1,0,0:0:0:100:pb-002.wav
469,192,87242,1,0,0:0:0:100:p1-002.wav
42,192,87242,1,0,0:0:0:100:Kick01.wav
469,192,87463,1,0,0:0:0:100:p1-003.wav
42,192,87573,1,0,0:0:0:100:Kick01.wav
298,192,87573,1,0,0:0:0:66:pb-003.wav
384,192,87794,1,0,0:0:0:100:p1-003.wav
128,192,87794,1,0,0:0:0:65:crap01.wav
213,192,87794,1,0,0:0:0:65:crap01.wav
384,192,88014,1,0,0:0:0:100:p1-003.wav
128,192,88014,1,0,0:0:0:100:Kick01.wav
298,192,88014,1,0,0:0:0:100:pb-003.wav
469,192,88235,1,0,0:0:0:100:p1-001.wav
42,192,88235,1,0,0:0:0:100:Kick01.wav
298,192,88455,1,0,0:0:0:100:pb-001.wav
384,192,88676,1,0,0:0:0:100:p1-001.wav
213,192,88676,1,0,0:0:0:65:crap01.wav
128,192,88676,1,0,0:0:0:65:crap01.wav
298,192,88897,1,0,0:0:0:100:pb-001.wav
469,192,89007,1,0,0:0:0:100:p1-004.wav
42,192,89007,1,0,0:0:0:100:Kick01.wav
469,192,89227,1,0,0:0:0:100:p1-004.wav
42,192,89338,1,0,0:0:0:100:Kick01.wav
298,192,89338,1,0,0:0:0:100:pb-004.wav
384,192,89558,1,0,0:0:0:100:p1-004.wav
213,192,89558,1,0,0:0:0:65:crap01.wav
128,192,89558,1,0,0:0:0:65:crap01.wav
384,192,89779,1,0,0:0:0:100:p1-004.wav
128,192,89779,1,0,0:0:0:100:Kick01.wav
298,192,89779,1,0,0:0:0:100:pb-004.wav
469,192,89999,1,0,0:0:0:100:p1-007.wav
42,192,89999,1,0,0:0:0:100:Kick01.wav
298,192,90220,1,0,0:0:0:100:pb-002.wav
469,192,90441,1,0,0:0:0:100:p1-007.wav
128,192,90441,1,0,0:0:0:65:crap01.wav
213,192,90441,1,0,0:0:0:65:crap01.wav
298,192,90661,1,0,0:0:0:100:pb-002.wav
469,192,90772,1,0,0:0:0:100:p1-007.wav
42,192,90772,1,0,0:0:0:100:Kick01.wav
384,192,90992,1,0,0:0:0:80:p1-008.wav
213,192,90992,1,0,0:0:0:100:crap02.wav
128,192,91102,1,0,0:0:0:100:Kick01.wav
298,192,91102,1,0,0:0:0:100:pb-003.wav
384,192,91323,1,0,0:0:0:80:p1-008.wav
213,192,91323,1,0,0:0:0:65:crap01.wav
128,192,91323,1,0,0:0:0:65:crap01.wav
384,192,91544,1,0,0:0:0:80:p1-008.wav
128,192,91544,1,0,0:0:0:100:Kick01.wav
298,192,91544,1,0,0:0:0:100:pb-003.wav
469,192,91764,1,0,0:0:0:100:p1-001.wav
42,192,91764,1,0,0:0:0:100:Kick01.wav
298,192,91985,1,0,0:0:0:100:pb-001.wav
469,192,92205,1,0,0:0:0:100:p1-001.wav
42,192,92205,1,0,0:0:0:65:crap01.wav
213,192,92205,1,0,0:0:0:65:crap01.wav
298,192,92426,1,0,0:0:0:100:pb-001.wav
469,192,92536,1,0,0:0:0:100:p1-001.wav
42,192,92536,1,0,0:0:0:100:Kick01.wav
469,192,92757,1,0,0:0:0:100:p1-001.wav
42,192,92867,1,0,0:0:0:100:Kick01.wav
298,192,92867,1,0,0:0:0:100:pb-001.wav
384,192,93088,1,0,0:0:0:100:p1-001.wav
213,192,93088,1,0,0:0:0:65:crap01.wav
128,192,93088,1,0,0:0:0:65:crap01.wav
384,192,93308,1,0,0:0:0:100:p1-001.wav
128,192,93308,1,0,0:0:0:100:Kick01.wav
298,192,93308,1,0,0:0:0:100:pb-001.wav
469,192,93529,1,0,0:0:0:100:p1-002.wav
42,192,93529,1,0,0:0:0:100:Kick01.wav
298,192,93749,1,0,0:0:0:100:pb-002.wav
469,192,93970,1,0,0:0:0:100:p1-002.wav
42,192,93970,1,0,0:0:0:65:crap01.wav
213,192,93970,1,0,0:0:0:65:crap01.wav
298,192,94191,1,0,0:0:0:100:pb-002.wav
469,192,94301,1,0,0:0:0:100:p1-002.wav
42,192,94301,1,0,0:0:0:100:Kick01.wav
384,192,94522,1,0,0:0:0:100:p1-003.wav
213,192,94522,1,0,0:0:0:100:crap02.wav
128,192,94632,1,0,0:0:0:100:Kick01.wav
298,192,94632,1,0,0:0:0:100:pb-003.wav
384,192,94852,1,0,0:0:0:100:p1-003.wav
213,192,94852,1,0,0:0:0:65:crap01.wav
128,192,94852,1,0,0:0:0:65:crap01.wav
298,192,94963,1,0,0:0:0:100:Kick01.wav
384,192,95073,1,0,0:0:0:100:p1-003.wav
128,192,95073,1,0,0:0:0:100:pb-003.wav
469,192,95294,1,0,0:0:0:100:p1-001.wav
42,192,95294,1,0,0:0:0:100:Kick01.wav
298,192,95514,1,0,0:0:0:100:pb-001.wav
469,192,95735,1,0,0:0:0:100:p1-001.wav
42,192,95735,1,0,0:0:0:65:crap01.wav
213,192,95735,1,0,0:0:0:65:crap01.wav
298,192,95955,1,0,0:0:0:100:pb-001.wav
469,192,96066,1,0,0:0:0:100:p1-004.wav
42,192,96066,1,0,0:0:0:100:Kick01.wav
469,192,96286,1,0,0:0:0:100:p1-004.wav
42,192,96397,1,0,0:0:0:100:Kick01.wav
298,192,96397,1,0,0:0:0:100:pb-004.wav
384,192,96617,1,0,0:0:0:100:p1-004.wav
213,192,96617,1,0,0:0:0:65:crap01.wav
128,192,96617,1,0,0:0:0:65:crap01.wav
384,192,96838,1,0,0:0:0:100:p1-004.wav
128,192,96838,1,0,0:0:0:100:Kick01.wav
298,192,96838,1,0,0:0:0:100:pb-004.wav
469,192,97058,1,0,0:0:0:100:p1-007.wav
42,192,97058,1,0,0:0:0:100:Kick01.wav
298,192,97279,1,0,0:0:0:100:pb-002.wav
469,192,97499,1,0,0:0:0:100:p1-007.wav
42,192,97499,1,0,0:0:0:65:crap01.wav
213,192,97499,1,0,0:0:0:65:crap01.wav
298,192,97720,1,0,0:0:0:100:pb-002.wav
469,192,97830,1,0,0:0:0:100:p1-007.wav
42,192,97830,1,0,0:0:0:100:Kick01.wav
469,192,98051,1,0,0:0:0:80:p1-008.wav
42,192,98161,1,0,0:0:0:100:Kick01.wav
298,192,98161,1,0,0:0:0:100:pb-003.wav
384,192,98382,1,0,0:0:0:80:p1-008.wav
213,192,98382,1,0,0:0:0:65:crap01.wav
128,192,98382,1,0,0:0:0:65:crap01.wav
384,192,98602,1,0,0:0:0:80:p1-008.wav
128,192,98602,1,0,0:0:0:100:Kick01.wav
298,192,98602,1,0,0:0:0:100:pb-003.wav
469,192,98823,1,0,0:0:0:44:
42,192,98823,1,0,0:0:0:100:Kick01.wav
213,192,98823,1,0,0:0:0:100:p2-001.wav
298,192,99044,1,0,0:0:0:100:
213,192,99154,1,0,0:0:0:100:
469,192,99264,1,0,0:0:0:100:p2-001.wav
42,192,99264,1,0,0:0:0:100:Kick01.wav
298,192,99264,1,0,0:0:0:100:crap01.wav
213,192,99374,1,0,0:0:0:100:
128,192,99485,1,0,0:0:0:100:
384,192,99595,1,0,0:0:0:66:
298,192,99595,1,0,0:0:0:100:p2-002.wav
128,192,99705,1,0,0:0:0:100:Kick01.wav
298,192,99816,1,0,0:0:0:100:p2-002.wav
384,192,99816,1,0,0:0:0:66:
42,192,100036,1,0,0:0:0:100:
298,192,100147,1,0,0:0:0:100:p2-002.wav
469,192,100147,1,0,0:0:0:100:Kick01.wav
213,192,100147,1,0,0:0:0:100:crap01.wav
384,192,100367,1,0,0:0:0:100:p2-002.wav
298,192,100367,1,0,0:0:0:66:
213,192,100477,1,0,0:0:0:100:
384,192,100588,1,0,0:0:0:100:p2-003.wav
298,192,100588,1,0,0:0:0:100:Kick01.wav
128,192,100588,128,0,101029:0:0:0:44:
469,192,101029,1,0,0:0:0:100:p2-003.wav
42,192,101029,1,0,0:0:0:100:Kick01.wav
298,192,101029,1,0,0:0:0:100:crap01.wav
384,192,101249,1,0,0:0:0:100:
213,192,101360,1,0,0:0:0:100:p2-003.wav
128,192,101360,1,0,0:0:0:66:
384,192,101470,1,0,0:0:0:100:Kick01.wav
213,192,101580,1,0,0:0:0:100:p2-004.wav
128,192,101580,1,0,0:0:0:66:
469,192,101911,1,0,0:0:0:100:p2-004.wav
42,192,101911,1,0,0:0:0:100:Kick01.wav
298,192,101911,1,0,0:0:0:100:crap01.wav
384,192,102132,1,0,0:0:0:100:p2-004.wav
213,192,102132,1,0,0:0:0:66:
128,192,102352,1,0,0:0:0:100:Kick01.wav
298,192,102352,1,0,0:0:0:100:p2-001.wav
213,192,102573,128,0,102794:0:0:0:100:
298,192,102794,1,0,0:0:0:100:Kick01.wav
469,192,102794,1,0,0:0:0:100:crap01.wav
42,192,102794,1,0,0:0:0:100:p2-001.wav
42,192,103014,1,0,0:0:0:100:
384,192,103124,1,0,0:0:0:66:
213,192,103124,1,0,0:0:0:100:p2-002.wav
128,192,103235,1,0,0:0:0:100:Kick01.wav
298,192,103235,1,0,0:0:0:66:
384,192,103345,1,0,0:0:0:100:p2-002.wav
469,192,103455,1,0,0:0:0:0:
213,192,103676,1,0,0:0:0:100:Kick01.wav
298,192,103676,1,0,0:0:0:100:crap01.wav
128,192,103676,128,0,103897:0:0:0:100:p2-002.wav
384,192,103897,128,0,104117:0:0:0:66:
298,192,103897,1,0,0:0:0:100:p2-002.wav
298,192,104117,1,0,0:0:0:100:p2-003.wav
213,192,104117,1,0,0:0:0:100:Kick01.wav
128,192,104117,128,0,104338:0:0:0:44:
469,192,104558,1,0,0:0:0:100:Kick01.wav
298,192,104558,1,0,0:0:0:100:crap01.wav
42,192,104558,1,0,0:0:0:100:p2-003.wav
128,192,104779,1,0,0:0:0:100:
384,192,104889,1,0,0:0:0:100:p2-003.wav
298,192,104889,1,0,0:0:0:66:
128,192,104999,1,0,0:0:0:100:Kick01.wav
298,192,105110,1,0,0:0:0:100:p2-004.wav
384,192,105110,1,0,0:0:0:0:
42,192,105441,1,0,0:0:0:100:Kick01.wav
213,192,105441,1,0,0:0:0:100:crap01.wav
469,192,105441,1,0,0:0:0:100:p2-004.wav
384,192,105661,1,0,0:0:0:100:p2-004.wav
298,192,105661,1,0,0:0:0:66:
128,192,105882,1,0,0:0:0:100:Kick01.wav
213,192,105882,1,0,0:0:0:100:p2-001.wav
298,192,106102,1,0,0:0:0:100:
42,192,106323,1,0,0:0:0:100:Kick01.wav
213,192,106323,1,0,0:0:0:100:crap01.wav
469,192,106323,1,0,0:0:0:100:p2-001.wav
128,192,106544,1,0,0:0:0:100:
384,192,106654,1,0,0:0:0:100:p2-002.wav
298,192,106654,1,0,0:0:0:66:
128,192,106764,1,0,0:0:0:100:Kick01.wav
384,192,106874,1,0,0:0:0:100:p2-002.wav
298,192,106874,1,0,0:0:0:66:
213,192,107095,1,0,0:0:0:100:
298,192,107205,1,0,0:0:0:100:Kick01.wav
469,192,107205,1,0,0:0:0:100:crap01.wav
42,192,107205,1,0,0:0:0:100:p2-002.wav
128,192,107426,128,0,107647:0:0:0:66:
213,192,107426,1,0,0:0:0:100:p2-002.wav
213,192,107647,1,0,0:0:0:100:Kick01.wav
384,192,107647,128,0,108088:0:0:0:44:
298,192,107647,1,0,0:0:0:100:p2-003.wav
42,192,108088,1,0,0:0:0:100:Kick01.wav
128,192,108088,1,0,0:0:0:100:crap01.wav
469,192,108088,1,0,0:0:0:100:p2-003.wav
384,192,108308,1,0,0:0:0:100:
213,192,108419,1,0,0:0:0:100:p2-003.wav
128,192,108419,1,0,0:0:0:66:
384,192,108529,1,0,0:0:0:100:Kick01.wav
128,192,108639,128,0,108970:0:0:0:66:
213,192,108639,1,0,0:0:0:100:p2-004.wav
384,192,108970,1,0,0:0:0:100:Kick01.wav
213,192,108970,1,0,0:0:0:100:crap01.wav
298,192,108970,1,0,0:0:0:100:p2-004.wav
384,192,109191,128,0,109411:0:0:0:66:
298,192,109191,1,0,0:0:0:100:p2-004.wav
128,192,109411,1,0,0:0:0:100:Kick01.wav
213,192,109411,1,0,0:0:0:100:p2-001.wav
298,192,109632,1,0,0:0:0:100:
213,192,109852,1,0,0:0:0:100:Kick01.wav
42,192,109852,1,0,0:0:0:100:crap01.wav
469,192,109852,1,0,0:0:0:100:p2-001.wav
128,192,110073,1,0,0:0:0:100:
298,192,110183,1,0,0:0:0:100:p2-002.wav
384,192,110183,1,0,0:0:0:66:
128,192,110294,1,0,0:0:0:100:Kick01.wav
298,192,110404,1,0,0:0:0:100:p2-002.wav
384,192,110404,1,0,0:0:0:66:
42,192,110624,1,0,0:0:0:100:
469,192,110735,1,0,0:0:0:100:Kick01.wav
384,192,110735,1,0,0:0:0:100:crap01.wav
213,192,110735,1,0,0:0:0:100:p2-002.wav
128,192,110955,128,0,111176:0:0:0:66:
298,192,110955,1,0,0:0:0:100:p2-002.wav
42,192,111176,1,0,0:0:0:100:Kick01.wav
213,192,111176,128,0,111507:0:0:0:44:
384,192,111176,1,0,0:0:0:100:p2-003.wav
298,192,111507,128,0,111838:0:0:0:100:
128,192,111617,1,0,0:0:0:100:Kick01.wav
42,192,111617,1,0,0:0:0:100:crap01.wav
469,192,111617,1,0,0:0:0:100:p2-003.wav
384,192,111838,1,0,0:0:0:100:
298,192,111948,1,0,0:0:0:100:p2-003.wav
128,192,111948,1,0,0:0:0:66:
213,192,112058,1,0,0:0:0:100:Kick01.wav
298,192,112169,1,0,0:0:0:100:p2-004.wav
384,192,112169,1,0,0:0:0:66:
469,192,112389,1,0,0:0:0:100:
128,192,112499,1,0,0:0:0:100:Kick01.wav
213,192,112499,1,0,0:0:0:100:crap01.wav
384,192,112499,1,0,0:0:0:100:p2-004.wav
298,192,112610,1,0,0:0:0:100:
213,192,112720,1,0,0:0:0:100:p2-004.wav
128,192,112830,1,0,0:0:0:66:
469,192,112941,1,0,0:0:0:100:Kick01.wav
42,192,112941,1,0,0:0:0:0:
298,192,112941,1,0,0:0:0:66:
128,192,113161,1,0,0:0:0:100:
213,192,113272,1,0,0:0:0:100:
298,192,113382,1,0,0:0:0:100:crap01.wav
384,192,113382,1,0,0:0:0:66:
298,192,113602,1,0,0:0:0:100:
128,192,113713,1,0,0:0:0:100:Kick01.wav
213,192,113713,1,0,0:0:0:66:
384,192,113933,1,0,0:0:0:100:
128,192,114044,1,0,0:0:0:100:Kick01.wav
213,192,114154,1,0,0:0:0:100:
298,192,114264,1,0,0:0:0:100:crap01.wav
384,192,114264,1,0,0:0:0:66:
213,192,114374,1,0,0:0:0:100:
128,192,114485,1,0,0:0:0:100:Kick01.wav
384,192,114485,1,0,0:0:0:66:
298,192,114595,1,0,0:0:0:100:
42,192,114705,1,0,0:0:0:100:Kick01.wav
469,192,114705,1,0,0:0:0:66:
384,192,114816,1,0,0:0:0:100:
298,192,114926,1,0,0:0:0:100:
42,192,115036,1,0,0:0:0:100:Kick01.wav
213,192,115036,1,0,0:0:0:66:
298,192,115147,1,0,0:0:0:100:crap01.wav
469,192,115147,1,0,0:0:0:66:
42,192,115367,1,0,0:0:0:100:Kick01.wav
213,192,115367,1,0,0:0:0:66:
298,192,115477,128,0,115698:0:0:0:100:
469,192,115698,1,0,0:0:0:100:crap01.wav
42,192,115698,128,0,115919:0:0:0:66:
213,192,115808,1,0,0:0:0:100:Kick01.wav
298,192,115919,128,0,116139:0:0:0:100:
128,192,116029,1,0,0:0:0:100:crap01.wav
213,192,116139,1,0,0:0:0:100:Kick01.wav
384,192,116139,1,0,0:0:0:66:
128,192,116249,1,0,0:0:0:100:
384,192,116360,1,0,0:0:0:100:
213,192,116470,1,0,0:0:0:100:Kick01.wav
128,192,116470,128,0,116691:0:0:0:66:
213,192,116911,1,0,0:0:0:100:crap01.wav
128,192,116911,128,0,117242:0:0:0:66:
298,192,117242,1,0,0:0:0:100:Kick01.wav
384,192,117242,1,0,0:0:0:66:
128,192,117352,128,0,117573:0:0:0:100:
213,192,117573,1,0,0:0:0:100:Kick01.wav
298,192,117794,1,0,0:0:0:100:crap01.wav
384,192,117794,128,0,118124:0:0:0:66:
213,192,118014,1,0,0:0:0:100:Kick01.wav
128,192,118124,1,0,0:0:0:100:
298,192,118235,1,0,0:0:0:100:Kick01.wav
384,192,118235,128,0,118455:0:0:0:66:
128,192,118676,1,0,0:0:0:100:crap01.wav
384,192,118676,128,0,118897:0:0:0:66:
298,192,118897,1,0,0:0:0:100:
213,192,119007,1,0,0:0:0:100:Kick01.wav
128,192,119007,128,0,119227:0:0:0:66:
298,192,119227,1,0,0:0:0:100:crap01.wav
384,192,119227,128,0,119448:0:0:0:66:
128,192,119338,1,0,0:0:0:100:Kick01.wav
213,192,119448,128,0,119669:0:0:0:100:
384,192,119558,1,0,0:0:0:100:crap01.wav
298,192,119669,128,0,119889:0:0:0:100:
42,192,119779,1,0,0:0:0:100:Kick01.wav
469,192,119889,1,0,0:0:0:100:
42,192,119999,1,0,0:0:0:100:Kick01.wav
384,192,120220,128,0,120441:0:0:0:100:
213,192,120441,1,0,0:0:0:100:crap01.wav
128,192,120441,128,0,120661:0:0:0:66:
384,192,120661,1,0,0:0:0:100:
128,192,120772,1,0,0:0:0:100:Kick01.wav
213,192,120772,1,0,0:0:0:66:
298,192,120937,1,0,0:0:0:100:
384,192,120992,1,0,0:0:0:100:
128,192,121102,1,0,0:0:0:100:Kick01.wav
213,192,121102,1,0,0:0:0:66:
384,192,121213,128,0,121433:0:0:0:100:
128,192,121323,1,0,0:0:0:100:crap01.wav
298,192,121433,1,0,0:0:0:100:
128,192,121544,1,0,0:0:0:100:Kick01.wav
384,192,121544,1,0,0:0:0:66:
298,192,121654,1,0,0:0:0:100:
42,192,121764,1,0,0:0:0:100:Kick01.wav
469,192,121764,128,0,121985:0:0:0:66:
298,192,121985,1,0,0:0:0:100:
213,192,122095,1,0,0:0:0:100:Kick01.wav
384,192,122095,1,0,0:0:0:66:
128,192,122205,1,0,0:0:0:100:crap01.wav
469,192,122205,1,0,0:0:0:66:
42,192,122316,128,0,122536:0:0:0:100:
298,192,122426,1,0,0:0:0:100:Kick01.wav
469,192,122536,128,0,122757:0:0:0:100:
128,192,122757,1,0,0:0:0:100:crap01.wav
384,192,122757,1,0,0:0:0:66:
42,192,122867,1,0,0:0:0:100:Kick01.wav
298,192,122867,1,0,0:0:0:66:
213,192,122977,128,0,123198:0:0:0:100:
128,192,123088,1,0,0:0:0:100:crap01.wav
42,192,123198,1,0,0:0:0:100:Kick01.wav
469,192,123198,1,0,0:0:0:66:
298,192,123308,1,0,0:0:0:100:
213,192,123419,1,0,0:0:0:100:
469,192,123529,1,0,0:0:0:100:Kick01.wav
42,192,123529,128,0,123749:0:0:0:66:
128,192,123749,128,0,123970:0:0:0:100:
298,192,123970,1,0,0:0:0:100:crap01.wav
469,192,123970,1,0,0:0:0:100:Kick01.wav
213,192,123970,128,0,124191:0:0:0:44:
42,192,124191,1,0,0:0:0:100:
298,192,124301,128,0,124522:0:0:0:100:
384,192,124411,1,0,0:0:0:100:Kick01.wav
128,192,124522,1,0,0:0:0:100:
384,192,124632,128,0,124852:0:0:0:100:
213,192,124852,1,0,0:0:0:100:Kick01.wav
298,192,124852,1,0,0:0:0:100:crap01.wav
128,192,124963,1,0,0:0:0:100:
384,192,125073,1,0,0:0:0:100:
298,192,125183,1,0,0:0:0:100:
42,192,125294,1,0,0:0:0:100:Kick01.wav
213,192,125294,1,0,0:0:0:66:
128,192,125404,1,0,0:0:0:100:
298,192,125514,1,0,0:0:0:100:Kick01.wav
469,192,125514,1,0,0:0:0:66:
384,192,125624,1,0,0:0:0:100:
213,192,125735,1,0,0:0:0:100:crap01.wav
42,192,125735,1,0,0:0:0:100:Kick01.wav
469,192,125735,1,0,0:0:0:44:
298,192,125845,1,0,0:0:0:100:
128,192,125955,1,0,0:0:0:100:Kick01.wav
384,192,125955,1,0,0:0:0:66:
213,192,126066,128,0,126286:0:0:0:100:
298,192,126176,1,0,0:0:0:100:Kick01.wav
384,192,126286,1,0,0:0:0:100:Kick01.wav
128,192,126286,128,0,126507:0:0:0:66:
298,192,126397,1,0,0:0:0:100:Kick01.wav
213,192,126507,1,0,0:0:0:100:Kick01.wav
42,192,126507,128,0,126727:0:0:0:66:
469,192,126617,1,0,0:0:0:100:Kick01.wav
298,192,126617,1,0,0:0:0:100:crap01.wav
128,192,126727,1,0,0:0:0:100:Kick01.wav
213,192,126727,1,0,0:0:0:66:
384,192,126838,1,0,0:0:0:100:Kick01.wav
298,192,126838,1,0,0:0:0:66:
128,192,126948,1,0,0:0:0:100:Kick01.wav
213,192,126948,1,0,0:0:0:66:
42,192,127058,1,0,0:0:0:100:Kick01.wav
469,192,127058,1,0,0:0:0:100:crap01.wav
298,192,127058,128,0,127279:0:0:0:44:
384,192,127279,128,0,127499:0:0:0:100:
128,192,127499,1,0,0:0:0:66:
469,192,127499,1,0,0:0:0:65:crap01.wav
42,192,127499,1,0,0:0:0:65:crap01.wav
213,192,127610,1,0,0:0:0:100:
298,192,127720,1,0,0:0:0:100:
128,192,127830,128,0,128051:0:0:0:100:
469,192,127941,1,0,0:0:0:65:crap01.wav
42,192,127941,1,0,0:0:0:65:crap01.wav
213,192,128051,128,0,128272:0:0:0:100:
298,192,128272,128,0,128602:0:0:0:100:
469,192,128382,1,0,0:0:0:65:crap01.wav
42,192,128382,1,0,0:0:0:65:crap01.wav
384,192,128602,128,0,129705:0:0:0:100:
469,192,128823,1,0,0:0:0:65:crap01.wav
42,192,128823,1,0,0:0:0:65:crap01.wav
469,192,129264,1,0,0:0:0:65:crap01.wav
42,192,129264,1,0,0:0:0:65:crap01.wav
469,192,129705,1,0,0:0:0:65:crap01.wav
42,192,129705,1,0,0:0:0:65:crap01.wav
213,192,129926,128,0,130036:0:0:0:100:
128,192,130036,128,0,130367:0:0:0:100:
469,192,130147,1,0,0:0:0:65:crap01.wav
42,192,130147,1,0,0:0:0:65:crap01.wav
384,192,130367,128,0,130588:0:0:0:100:
469,192,130588,1,0,0:0:0:65:crap01.wav
42,192,130588,1,0,0:0:0:65:crap01.wav
298,192,130588,128,0,131911:0:0:0:100:
213,192,130588,128,0,131911:0:0:0:0:
469,192,131029,1,0,0:0:0:65:crap01.wav
42,192,131029,1,0,0:0:0:65:crap01.wav
469,192,131470,1,0,0:0:0:65:crap01.wav
42,192,131470,1,0,0:0:0:65:crap01.wav
469,192,131911,1,0,0:0:0:65:crap01.wav
42,192,131911,1,0,0:0:0:65:crap01.wav
469,192,132352,1,0,0:0:0:65:crap01.wav
42,192,132352,1,0,0:0:0:65:crap01.wav
469,192,132794,1,0,0:0:0:65:crap01.wav
42,192,132794,1,0,0:0:0:65:crap01.wav
469,192,133235,1,0,0:0:0:65:crap01.wav
42,192,133235,1,0,0:0:0:65:crap01.wav
469,192,133676,1,0,0:0:0:65:crap01.wav
42,192,133676,1,0,0:0:0:65:crap01.wav
128,192,133897,128,0,134117:0:0:0:100:
384,192,134117,128,0,134338:0:0:0:66:
469,192,134117,1,0,0:0:0:65:crap01.wav
42,192,134117,1,0,0:0:0:65:crap01.wav
298,192,134338,128,0,134558:0:0:0:100:
128,192,134558,1,0,0:0:0:66:
469,192,134558,1,0,0:0:0:65:crap01.wav
42,192,134558,1,0,0:0:0:65:crap01.wav
213,192,134669,1,0,0:0:0:100:
298,192,134779,1,0,0:0:0:100:
384,192,134889,128,0,135110:0:0:0:100:
469,192,134999,1,0,0:0:0:65:crap01.wav
42,192,134999,1,0,0:0:0:65:crap01.wav
298,192,135110,128,0,135330:0:0:0:100:
128,192,135330,128,0,135441:0:0:0:100:
213,192,135441,128,0,135661:0:0:0:66:
469,192,135441,1,0,0:0:0:65:crap01.wav
42,192,135441,1,0,0:0:0:65:crap01.wav
298,192,135661,128,0,136985:0:0:0:100:
469,192,135882,1,0,0:0:0:65:crap01.wav
42,192,135882,1,0,0:0:0:65:crap01.wav
469,192,136323,1,0,0:0:0:65:crap01.wav
42,192,136323,1,0,0:0:0:65:crap01.wav
469,192,136764,1,0,0:0:0:65:crap01.wav
42,192,136764,1,0,0:0:0:65:crap01.wav
384,192,136985,128,0,137205:0:0:0:100:
298,192,137205,128,0,137426:0:0:0:66:
469,192,137205,1,0,0:0:0:65:crap01.wav
42,192,137205,1,0,0:0:0:65:crap01.wav
213,192,137426,128,0,137867:0:0:0:100:
469,192,137647,1,0,0:0:0:65:crap01.wav
42,192,137647,1,0,0:0:0:65:crap01.wav
128,192,137867,128,0,139411:0:0:0:100:
384,192,137867,128,0,139411:0:0:0:0:
469,192,138088,1,0,0:0:0:65:crap01.wav
42,192,138088,1,0,0:0:0:65:crap01.wav
469,192,138529,1,0,0:0:0:65:crap01.wav
42,192,138529,1,0,0:0:0:65:crap01.wav
469,192,138970,1,0,0:0:0:65:crap01.wav
42,192,138970,1,0,0:0:0:65:crap01.wav
469,192,139411,1,0,0:0:0:65:crap01.wav
42,192,139411,1,0,0:0:0:65:crap01.wav
469,192,139852,1,0,0:0:0:65:crap01.wav
42,192,139852,1,0,0:0:0:65:crap01.wav
469,192,140294,1,0,0:0:0:65:crap01.wav
42,192,140294,1,0,0:0:0:65:crap01.wav
469,192,140735,1,0,0:0:0:65:crap01.wav
42,192,140735,1,0,0:0:0:65:crap01.wav
469,192,141176,1,0,0:0:0:100:p3-001.wav
42,192,141176,1,0,0:0:0:65:crap01.wav
42,192,141617,1,0,0:0:0:100:crap01.wav
469,192,141617,1,0,0:0:0:100:p3-001.wav
384,192,141948,1,0,0:0:0:100:p3-002.wav
128,192,142058,1,0,0:0:0:100:crap01.wav
384,192,142169,1,0,0:0:0:100:p3-002.wav
128,192,142499,1,0,0:0:0:100:crap01.wav
213,192,142499,1,0,0:0:0:100:p3-002.wav
298,192,142720,1,0,0:0:0:100:p3-002.wav
128,192,142941,1,0,0:0:0:100:crap01.wav
384,192,142941,1,0,0:0:0:100:p3-003.wav
298,192,143382,1,0,0:0:0:100:crap01.wav
384,192,143382,1,0,0:0:0:100:p3-003.wav
128,192,143713,1,0,0:0:0:100:p3-004.wav
384,192,143823,1,0,0:0:0:100:crap01.wav
128,192,143933,1,0,0:0:0:100:p3-004.wav
128,192,144264,1,0,0:0:0:100:crap01.wav
384,192,144264,1,0,0:0:0:100:p3-004.wav
298,192,144485,1,0,0:0:0:100:p3-004.wav
128,192,144705,1,0,0:0:0:100:crap01.wav
213,192,144705,1,0,0:0:0:100:p3-001.wav
298,192,145147,1,0,0:0:0:100:crap01.wav
384,192,145147,1,0,0:0:0:100:p3-001.wav
469,192,145477,1,0,0:0:0:100:p3-002.wav
42,192,145588,1,0,0:0:0:100:crap01.wav
469,192,145698,1,0,0:0:0:100:p3-002.wav
128,192,146029,1,0,0:0:0:100:crap01.wav
213,192,146029,1,0,0:0:0:100:p3-002.wav
298,192,146249,1,0,0:0:0:100:p3-002.wav
128,192,146470,1,0,0:0:0:100:crap01.wav
384,192,146470,1,0,0:0:0:100:p3-003.wav
298,192,146911,1,0,0:0:0:100:crap01.wav
384,192,146911,1,0,0:0:0:100:p3-003.wav
42,192,147242,1,0,0:0:0:100:p3-004.wav
469,192,147352,1,0,0:0:0:100:crap01.wav
42,192,147463,1,0,0:0:0:100:p3-004.wav
128,192,147794,1,0,0:0:0:100:crap01.wav
384,192,147794,1,0,0:0:0:100:p3-004.wav
384,192,148014,1,0,0:0:0:100:p3-004.wav
128,192,148235,1,0,0:0:0:100:crap01.wav
213,192,148235,1,0,0:0:0:100:Kick01.wav
384,192,148235,1,0,0:0:0:100:p3-001.wav
42,192,148676,1,0,0:0:0:100:crap01.wav
298,192,148676,1,0,0:0:0:100:Kick01.wav
469,192,148676,1,0,0:0:0:100:p3-001.wav
384,192,149007,1,0,0:0:0:100:p3-002.wav
213,192,149117,1,0,0:0:0:100:crap01.wav
128,192,149117,1,0,0:0:0:100:Kick01.wav
384,192,149227,1,0,0:0:0:100:p3-002.wav
213,192,149558,1,0,0:0:0:100:crap01.wav
42,192,149558,1,0,0:0:0:100:Kick01.wav
469,192,149558,1,0,0:0:0:100:p3-002.wav
42,192,149779,1,0,0:0:0:100:p3-002.wav
213,192,149999,1,0,0:0:0:100:crap01.wav
42,192,149999,1,0,0:0:0:100:Kick01.wav
469,192,149999,1,0,0:0:0:100:p3-003.wav
298,192,150441,1,0,0:0:0:100:crap01.wav
128,192,150441,1,0,0:0:0:100:Kick01.wav
384,192,150441,1,0,0:0:0:100:p3-003.wav
469,192,150772,1,0,0:0:0:100:p3-004.wav
213,192,150882,1,0,0:0:0:100:crap01.wav
42,192,150882,1,0,0:0:0:100:Kick01.wav
469,192,150992,1,0,0:0:0:100:p3-004.wav
128,192,151323,1,0,0:0:0:100:crap01.wav
298,192,151323,1,0,0:0:0:100:Kick01.wav
384,192,151323,1,0,0:0:0:100:p3-004.wav
384,192,151544,1,0,0:0:0:100:p3-004.wav
128,192,151764,1,0,0:0:0:100:crap01.wav
213,192,151764,1,0,0:0:0:100:Kick01.wav
384,192,151764,1,0,0:0:0:100:p3-001.wav
128,192,151985,1,0,0:0:0:100:Kick01.wav
128,192,152205,1,0,0:0:0:100:crap01.wav
298,192,152205,1,0,0:0:0:100:Kick01.wav
469,192,152205,1,0,0:0:0:100:p3-001.wav
469,192,152426,1,0,0:0:0:100:Kick01.wav
42,192,152536,1,0,0:0:0:100:p3-002.wav
213,192,152647,1,0,0:0:0:100:crap01.wav
384,192,152647,1,0,0:0:0:100:Kick01.wav
42,192,152757,1,0,0:0:0:100:p3-002.wav
384,192,152867,1,0,0:0:0:100:Kick01.wav
42,192,153088,1,0,0:0:0:100:crap01.wav
298,192,153088,1,0,0:0:0:100:Kick01.wav
469,192,153088,1,0,0:0:0:100:p3-002.wav
128,192,153308,1,0,0:0:0:100:Kick01.wav
384,192,153308,1,0,0:0:0:100:p3-002.wav
42,192,153529,1,0,0:0:0:100:crap01.wav
213,192,153529,1,0,0:0:0:100:Kick01.wav
469,192,153529,1,0,0:0:0:100:p3-003.wav
384,192,153639,1,0,0:0:0:100:Kick01.wav
298,192,153749,1,0,0:0:0:100:Kick01.wav
128,192,153860,1,0,0:0:0:100:Kick01.wav
42,192,153970,1,0,0:0:0:100:crap01.wav
213,192,153970,1,0,0:0:0:100:Kick01.wav
469,192,153970,1,0,0:0:0:100:p3-003.wav
384,192,154080,1,0,0:0:0:100:Kick01.wav
298,192,154191,1,0,0:0:0:100:Kick01.wav
128,192,154301,1,0,0:0:0:100:Kick01.wav
384,192,154301,1,0,0:0:0:100:p3-004.wav
213,192,154411,1,0,0:0:0:100:crap01.wav
42,192,154411,1,0,0:0:0:100:Kick01.wav
298,192,154522,1,0,0:0:0:100:Kick01.wav
469,192,154522,1,0,0:0:0:100:p3-004.wav
213,192,154632,1,0,0:0:0:100:Kick01.wav
128,192,154742,1,0,0:0:0:100:Kick01.wav
298,192,154852,1,0,0:0:0:100:crap01.wav
42,192,154852,1,0,0:0:0:100:Kick01.wav
469,192,154852,1,0,0:0:0:100:p3-004.wav
128,192,154963,1,0,0:0:0:100:Kick01.wav
298,192,155073,1,0,0:0:0:100:Kick01.wav
469,192,155073,1,0,0:0:0:100:p3-004.wav
213,192,155073,1,0,0:0:0:0:
384,192,155183,1,0,0:0:0:100:Kick01.wav
128,192,155183,1,0,0:0:0:66:
42,192,155294,1,0,0:0:0:100:Kick01.wav
469,192,155294,1,0,0:0:0:44:
213,192,155294,1,0,0:0:0:100:p3-001.wav
213,192,155514,1,0,0:0:0:0:
42,192,155514,1,0,0:0:0:0:
384,192,155735,1,0,0:0:0:100:Kick01.wav
128,192,155735,1,0,0:0:0:100:crap01.wav
298,192,155735,1,0,0:0:0:100:p3-001.wav
128,192,155845,1,0,0:0:0:100:
213,192,155955,1,0,0:0:0:100:
298,192,156066,1,0,0:0:0:100:p3-002.wav
384,192,156066,1,0,0:0:0:66:
128,192,156176,1,0,0:0:0:100:Kick01.wav
298,192,156286,1,0,0:0:0:100:p3-002.wav
384,192,156286,1,0,0:0:0:66:
213,192,156397,1,0,0:0:0:0:
128,192,156507,1,0,0:0:0:100:
469,192,156617,1,0,0:0:0:100:Kick01.wav
42,192,156617,1,0,0:0:0:100:crap01.wav
298,192,156617,1,0,0:0:0:100:p3-002.wav
213,192,156727,1,0,0:0:0:100:
384,192,156838,1,0,0:0:0:66:
128,192,156838,1,0,0:0:0:100:p3-002.wav
298,192,156948,1,0,0:0:0:100:
128,192,157058,1,0,0:0:0:44:
469,192,157058,1,0,0:0:0:100:Kick01.wav
42,192,157058,1,0,0:0:0:100:p3-003.wav
213,192,157169,1,0,0:0:0:0:
298,192,157279,1,0,0:0:0:100:
384,192,157389,1,0,0:0:0:100:
469,192,157499,1,0,0:0:0:100:Kick01.wav
42,192,157499,1,0,0:0:0:100:crap01.wav
213,192,157499,1,0,0:0:0:100:p3-003.wav
384,192,157610,1,0,0:0:0:100:
298,192,157720,1,0,0:0:0:100:
128,192,157830,1,0,0:0:0:66:
213,192,157830,1,0,0:0:0:100:p3-004.wav
298,192,157941,1,0,0:0:0:100:Kick01.wav
384,192,157941,1,0,0:0:0:66:
128,192,158051,1,0,0:0:0:66:
213,192,158051,1,0,0:0:0:100:p3-004.wav
384,192,158161,1,0,0:0:0:100:
128,192,158272,1,0,0:0:0:100:
42,192,158382,1,0,0:0:0:100:Kick01.wav
298,192,158382,1,0,0:0:0:100:crap01.wav
469,192,158382,1,0,0:0:0:100:p3-004.wav
213,192,158492,128,0,158713:0:0:0:100:
384,192,158602,1,0,0:0:0:100:p3-004.wav
128,192,158713,128,0,158933:0:0:0:100:
298,192,158823,1,0,0:0:0:100:Kick01.wav
469,192,158823,1,0,0:0:0:100:p3-001.wav
42,192,158933,128,0,159264:0:0:0:100:
298,192,159264,1,0,0:0:0:100:Kick01.wav
128,192,159264,1,0,0:0:0:100:crap01.wav
469,192,159264,128,0,159485:0:0:0:100:p3-001.wav
384,192,159485,128,0,159705:0:0:0:100:
42,192,159595,1,0,0:0:0:100:p3-002.wav
128,192,159705,1,0,0:0:0:100:Kick01.wav
298,192,159705,128,0,159926:0:0:0:66:
42,192,159816,1,0,0:0:0:100:p3-002.wav
213,192,159926,128,0,160147:0:0:0:100:
42,192,160147,1,0,0:0:0:100:Kick01.wav
469,192,160147,1,0,0:0:0:100:crap01.wav
298,192,160147,1,0,0:0:0:100:p3-002.wav
128,192,160257,1,0,0:0:0:100:
384,192,160367,1,0,0:0:0:66:
213,192,160367,1,0,0:0:0:100:p3-002.wav
298,192,160477,1,0,0:0:0:100:
42,192,160588,1,0,0:0:0:100:Kick01.wav
213,192,160588,1,0,0:0:0:100:p3-003.wav
469,192,160588,1,0,0:0:0:44:
298,192,160808,1,0,0:0:0:100:
42,192,161029,1,0,0:0:0:100:Kick01.wav
128,192,161029,1,0,0:0:0:100:crap01.wav
469,192,161029,1,0,0:0:0:100:p3-003.wav
384,192,161139,1,0,0:0:0:100:
298,192,161249,1,0,0:0:0:100:
469,192,161360,128,0,161580:0:0:0:66:
213,192,161360,1,0,0:0:0:100:p3-004.wav
128,192,161470,1,0,0:0:0:100:Kick01.wav
42,192,161580,1,0,0:0:0:100:p3-004.wav
298,192,161580,1,0,0:0:0:66:
213,192,161801,1,0,0:0:0:100:
42,192,161911,1,0,0:0:0:100:Kick01.wav
298,192,161911,1,0,0:0:0:100:crap01.wav
469,192,161911,1,0,0:0:0:100:p3-004.wav
128,192,162022,1,0,0:0:0:100:
384,192,162132,1,0,0:0:0:66:
213,192,162132,1,0,0:0:0:100:p3-004.wav
128,192,162242,1,0,0:0:0:100:
469,192,162352,1,0,0:0:0:44:
42,192,162352,1,0,0:0:0:100:Kick01.wav
298,192,162352,1,0,0:0:0:100:p3-001.wav
213,192,162573,1,0,0:0:0:100:
298,192,162683,1,0,0:0:0:100:
213,192,162794,1,0,0:0:0:100:Kick01.wav
128,192,162794,1,0,0:0:0:100:crap01.wav
384,192,162794,1,0,0:0:0:100:p3-001.wav
384,192,162904,1,0,0:0:0:100:
298,192,163014,1,0,0:0:0:100:
213,192,163124,1,0,0:0:0:100:p3-002.wav
128,192,163124,1,0,0:0:0:66:
384,192,163235,1,0,0:0:0:100:Kick01.wav
213,192,163345,1,0,0:0:0:100:p3-002.wav
128,192,163345,1,0,0:0:0:66:
384,192,163455,1,0,0:0:0:0:
298,192,163566,1,0,0:0:0:100:
42,192,163676,1,0,0:0:0:100:Kick01.wav
213,192,163676,1,0,0:0:0:100:crap01.wav
469,192,163676,1,0,0:0:0:100:p3-002.wav
128,192,163786,1,0,0:0:0:100:
213,192,163897,1,0,0:0:0:100:p3-002.wav
298,192,164007,1,0,0:0:0:100:
384,192,164117,1,0,0:0:0:100:Kick01.wav
469,192,164117,1,0,0:0:0:44:
213,192,164117,1,0,0:0:0:100:p3-003.wav
128,192,164227,1,0,0:0:0:100:
42,192,164338,128,0,164558:0:0:0:100:
213,192,164558,1,0,0:0:0:100:Kick01.wav
128,192,164558,1,0,0:0:0:100:crap01.wav
469,192,164558,1,0,0:0:0:100:p3-003.wav
298,192,164669,1,0,0:0:0:100:
384,192,164779,1,0,0:0:0:100:
469,192,164889,128,0,165110:0:0:0:66:
128,192,164889,1,0,0:0:0:100:p3-004.wav
213,192,164999,1,0,0:0:0:100:Kick01.wav
42,192,165110,128,0,165330:0:0:0:66:
298,192,165110,1,0,0:0:0:100:p3-004.wav
469,192,165330,128,0,165551:0:0:0:100:
42,192,165441,1,0,0:0:0:100:Kick01.wav
213,192,165441,1,0,0:0:0:100:crap01.wav
298,192,165441,1,0,0:0:0:100:p3-004.wav
128,192,165551,1,0,0:0:0:100:
384,192,165661,1,0,0:0:0:66:
213,192,165661,1,0,0:0:0:100:p3-004.wav
298,192,165772,128,0,165992:0:0:0:100:
42,192,165882,1,0,0:0:0:100:Kick01.wav
213,192,165882,1,0,0:0:0:100:p3-001.wav
469,192,165992,128,0,166323:0:0:0:100:
384,192,166323,1,0,0:0:0:100:Kick01.wav
213,192,166323,1,0,0:0:0:100:crap01.wav
42,192,166323,128,0,166544:0:0:0:100:p3-001.wav
128,192,166544,128,0,166764:0:0:0:100:
469,192,166654,1,0,0:0:0:100:p3-002.wav
384,192,166764,1,0,0:0:0:100:Kick01.wav
213,192,166764,128,0,166985:0:0:0:66:
469,192,166874,1,0,0:0:0:100:p3-002.wav
298,192,166985,128,0,167205:0:0:0:100:
42,192,167205,1,0,0:0:0:100:Kick01.wav
469,192,167205,1,0,0:0:0:100:crap01.wav
213,192,167205,1,0,0:0:0:100:p3-002.wav
384,192,167426,1,0,0:0:0:66:
128,192,167426,1,0,0:0:0:100:p3-002.wav
298,192,167536,1,0,0:0:0:100:
42,192,167647,1,0,0:0:0:100:Kick01.wav
469,192,167647,128,0,167867:0:0:0:44:
213,192,167647,1,0,0:0:0:100:p3-003.wav
128,192,167867,1,0,0:0:0:100:
384,192,167977,1,0,0:0:0:100:
42,192,168088,1,0,0:0:0:100:Kick01.wav
213,192,168088,1,0,0:0:0:100:crap01.wav
469,192,168088,1,0,0:0:0:100:p3-003.wav
298,192,168198,1,0,0:0:0:100:
128,192,168308,1,0,0:0:0:100:
384,192,168419,128,0,168749:0:0:0:66:
213,192,168419,1,0,0:0:0:100:p3-004.wav
42,192,168529,1,0,0:0:0:100:Kick01.wav
213,192,168639,1,0,0:0:0:100:p3-004.wav
298,192,168749,1,0,0:0:0:100:
469,192,168860,1,0,0:0:0:100:
42,192,168970,1,0,0:0:0:100:Kick01.wav
213,192,168970,1,0,0:0:0:100:crap01.wav
384,192,168970,1,0,0:0:0:100:p3-004.wav
128,192,169080,1,0,0:0:0:100:
469,192,169191,1,0,0:0:0:66:
298,192,169191,1,0,0:0:0:100:p3-004.wav
213,192,169301,1,0,0:0:0:100:
42,192,169411,1,0,0:0:0:100:Kick01.wav
469,192,169411,1,0,0:0:0:44:
298,192,169411,1,0,0:0:0:100:p3-001.wav
42,192,169632,1,0,0:0:0:0:
213,192,169632,1,0,0:0:0:0:
298,192,169852,1,0,0:0:0:100:Kick01.wav
128,192,169852,1,0,0:0:0:100:crap01.wav
384,192,169852,1,0,0:0:0:100:p3-001.wav
128,192,169963,1,0,0:0:0:100:
213,192,170073,1,0,0:0:0:100:
298,192,170183,1,0,0:0:0:100:p3-002.wav
384,192,170183,1,0,0:0:0:66:
128,192,170294,1,0,0:0:0:100:Kick01.wav
298,192,170404,1,0,0:0:0:100:p3-002.wav
384,192,170404,1,0,0:0:0:66:
213,192,170514,1,0,0:0:0:0:
128,192,170624,1,0,0:0:0:100:
42,192,170735,1,0,0:0:0:100:Kick01.wav
298,192,170735,1,0,0:0:0:100:crap01.wav
469,192,170735,1,0,0:0:0:100:p3-002.wav
213,192,170845,1,0,0:0:0:100:
469,192,170955,1,0,0:0:0:66:
298,192,170955,1,0,0:0:0:100:p3-002.wav
213,192,171066,1,0,0:0:0:100:
298,192,171176,1,0,0:0:0:44:
42,192,171176,1,0,0:0:0:100:Kick01.wav
128,192,171176,1,0,0:0:0:100:p3-003.wav
213,192,171286,1,0,0:0:0:0:
298,192,171397,128,0,171617:0:0:0:100:
42,192,171617,1,0,0:0:0:100:Kick01.wav
213,192,171617,1,0,0:0:0:100:crap01.wav
469,192,171617,1,0,0:0:0:100:p3-003.wav
384,192,171727,1,0,0:0:0:100:
298,192,171838,1,0,0:0:0:100:
128,192,171948,1,0,0:0:0:66:
213,192,171948,1,0,0:0:0:100:p3-004.wav
469,192,172058,1,0,0:0:0:100:Kick01.wav
298,192,172058,1,0,0:0:0:66:
42,192,172169,1,0,0:0:0:66:
213,192,172169,1,0,0:0:0:100:p3-004.wav
298,192,172279,1,0,0:0:0:100:
298,192,172389,1,0,0:0:0:100:
42,192,172499,1,0,0:0:0:100:Kick01.wav
213,192,172499,1,0,0:0:0:100:crap01.wav
469,192,172499,1,0,0:0:0:100:p3-004.wav
298,192,172610,1,0,0:0:0:100:
213,192,172720,1,0,0:0:0:100:p3-004.wav
42,192,172830,128,0,173051:0:0:0:100:
298,192,172941,1,0,0:0:0:100:Kick01.wav
469,192,172941,1,0,0:0:0:100:p3-001.wav
213,192,173051,128,0,173382:0:0:0:100:
42,192,173382,1,0,0:0:0:100:Kick01.wav
128,192,173382,1,0,0:0:0:100:crap01.wav
469,192,173382,128,0,173602:0:0:0:100:p3-001.wav
384,192,173602,128,0,173823:0:0:0:100:
42,192,173713,1,0,0:0:0:100:p3-002.wav
128,192,173823,1,0,0:0:0:100:Kick01.wav
298,192,173823,128,0,174044:0:0:0:66:
42,192,173933,1,0,0:0:0:100:p3-002.wav
213,192,174044,128,0,174264:0:0:0:100:
42,192,174264,1,0,0:0:0:100:Kick01.wav
298,192,174264,1,0,0:0:0:100:crap01.wav
469,192,174264,1,0,0:0:0:100:p3-002.wav
128,192,174485,1,0,0:0:0:66:
213,192,174485,1,0,0:0:0:100:p3-002.wav
298,192,174595,1,0,0:0:0:100:
128,192,174705,1,0,0:0:0:100:Kick01.wav
213,192,174705,1,0,0:0:0:100:p3-003.wav
298,192,174926,128,0,175147:0:0:0:100:
42,192,175147,1,0,0:0:0:100:Kick01.wav
213,192,175147,1,0,0:0:0:100:crap01.wav
469,192,175147,128,0,175367:0:0:0:100:p3-003.wav
298,192,175367,1,0,0:0:0:100:
42,192,175477,128,0,175698:0:0:0:66:
213,192,175477,1,0,0:0:0:100:p3-004.wav
298,192,175588,1,0,0:0:0:100:Kick01.wav
469,192,175698,128,0,175919:0:0:0:66:
213,192,175698,1,0,0:0:0:100:p3-004.wav
298,192,175919,1,0,0:0:0:100:
128,192,176029,1,0,0:0:0:100:Kick01.wav
213,192,176029,1,0,0:0:0:100:crap01.wav
384,192,176029,1,0,0:0:0:100:p3-004.wav
298,192,176139,1,0,0:0:0:100:
384,192,176249,1,0,0:0:0:66:
128,192,176249,1,0,0:0:0:100:p3-004.wav
213,192,176360,1,0,0:0:0:100:
469,192,176470,1,0,0:0:0:44:
42,192,176470,1,0,0:0:0:100:Kick01.wav
298,192,176470,1,0,0:0:0:100:p3-001.wav
469,192,176691,1,0,0:0:0:100:
298,192,176691,1,0,0:0:0:0:
128,192,176911,1,0,0:0:0:100:Kick01.wav
213,192,176911,1,0,0:0:0:100:crap01.wav
384,192,176911,1,0,0:0:0:100:p3-001.wav
384,192,177022,1,0,0:0:0:100:
213,192,177242,1,0,0:0:0:100:p3-002.wav
128,192,177242,1,0,0:0:0:66:
384,192,177352,1,0,0:0:0:100:Kick01.wav
213,192,177463,1,0,0:0:0:100:p3-002.wav
128,192,177463,1,0,0:0:0:66:
298,192,177683,1,0,0:0:0:100:
42,192,177794,1,0,0:0:0:100:Kick01.wav
213,192,177794,1,0,0:0:0:100:crap01.wav
469,192,177794,1,0,0:0:0:100:p3-002.wav
298,192,177904,1,0,0:0:0:100:
128,192,178014,1,0,0:0:0:66:
213,192,178014,1,0,0:0:0:100:p3-002.wav
298,192,178124,1,0,0:0:0:100:
42,192,178235,1,0,0:0:0:100:Kick01.wav
469,192,178235,1,0,0:0:0:44:
384,192,178235,1,0,0:0:0:100:p3-003.wav
128,192,178345,1,0,0:0:0:100:
213,192,178455,128,0,178676:0:0:0:100:
42,192,178676,1,0,0:0:0:100:Kick01.wav
298,192,178676,1,0,0:0:0:100:crap01.wav
469,192,178676,1,0,0:0:0:100:p3-003.wav
128,192,178897,1,0,0:0:0:100:
298,192,179007,1,0,0:0:0:100:p3-004.wav
384,192,179007,1,0,0:0:0:66:
128,192,179117,1,0,0:0:0:100:Kick01.wav
298,192,179227,1,0,0:0:0:100:p3-004.wav
384,192,179227,1,0,0:0:0:66:
298,192,179448,1,0,0:0:0:100:
213,192,179558,1,0,0:0:0:100:Kick01.wav
128,192,179558,1,0,0:0:0:100:crap01.wav
384,192,179558,1,0,0:0:0:100:p3-004.wav
298,192,179669,1,0,0:0:0:100:
213,192,179779,1,0,0:0:0:66:
128,192,179779,1,0,0:0:0:100:p3-004.wav
298,192,179889,128,0,180110:0:0:0:100:
42,192,179999,1,0,0:0:0:100:Kick01.wav
128,192,179999,1,0,0:0:0:100:p3-001.wav
469,192,180110,128,0,180441:0:0:0:100:
213,192,180441,1,0,0:0:0:100:Kick01.wav
384,192,180441,1,0,0:0:0:100:crap01.wav
42,192,180441,128,0,180661:0:0:0:100:p3-001.wav
128,192,180661,128,0,180882:0:0:0:100:
469,192,180772,1,0,0:0:0:100:p3-002.wav
384,192,180882,1,0,0:0:0:100:Kick01.wav
213,192,180882,128,0,181102:0:0:0:66:
469,192,180992,1,0,0:0:0:100:p3-002.wav
298,192,181102,128,0,181323:0:0:0:100:
42,192,181323,1,0,0:0:0:100:Kick01.wav
213,192,181323,1,0,0:0:0:100:crap01.wav
469,192,181323,1,0,0:0:0:100:p3-002.wav
298,192,181544,128,0,181764:0:0:0:66:
384,192,181544,1,0,0:0:0:100:p3-002.wav
128,192,181764,1,0,0:0:0:100:Kick01.wav
213,192,181764,1,0,0:0:0:100:p3-003.wav
298,192,181985,1,0,0:0:0:100:
384,192,182095,1,0,0:0:0:100:
42,192,182205,1,0,0:0:0:100:Kick01.wav
213,192,182205,1,0,0:0:0:100:crap01.wav
298,192,182205,1,0,0:0:0:100:p3-003.wav
469,192,182316,1,0,0:0:0:100:
298,192,182426,1,0,0:0:0:100:
213,192,182536,1,0,0:0:0:100:p3-004.wav
128,192,182536,1,0,0:0:0:66:
298,192,182647,1,0,0:0:0:100:Kick01.wav
213,192,182757,1,0,0:0:0:100:p3-004.wav
128,192,182757,1,0,0:0:0:66:
298,192,182977,1,0,0:0:0:100:
42,192,183088,1,0,0:0:0:100:Kick01.wav
213,192,183088,1,0,0:0:0:100:crap01.wav
469,192,183088,1,0,0:0:0:100:p3-004.wav
384,192,183198,1,0,0:0:0:100:
469,192,183308,1,0,0:0:0:66:
128,192,183308,1,0,0:0:0:100:p3-004.wav
298,192,183419,128,0,183529:0:0:0:100:
469,192,183529,128,0,184191:0:0:0:44:
42,192,183529,1,0,0:0:0:100:Kick01.wav
213,192,183529,1,0,0:0:0:100:p3-001.wav
128,192,183970,1,0,0:0:0:100:Kick01.wav
213,192,183970,1,0,0:0:0:100:crap01.wav
384,192,183970,1,0,0:0:0:100:p3-001.wav
42,192,184191,128,0,185514:0:0:0:100:
298,192,184301,1,0,0:0:0:100:p3-002.wav
213,192,184411,1,0,0:0:0:100:Kick01.wav
298,192,184522,1,0,0:0:0:100:p3-002.wav
384,192,184852,1,0,0:0:0:100:Kick01.wav
128,192,184852,1,0,0:0:0:100:crap01.wav
298,192,184852,1,0,0:0:0:100:p3-002.wav
213,192,185073,1,0,0:0:0:100:p3-002.wav
469,192,185294,1,0,0:0:0:100:Kick01.wav
298,192,185294,1,0,0:0:0:100:p3-003.wav
213,192,185735,1,0,0:0:0:100:Kick01.wav
128,192,185735,1,0,0:0:0:100:crap01.wav
384,192,185735,1,0,0:0:0:100:p3-003.wav
298,192,185955,128,0,186617:0:0:0:100:
42,192,186066,1,0,0:0:0:100:p3-004.wav
213,192,186176,1,0,0:0:0:100:Kick01.wav
42,192,186286,1,0,0:0:0:100:p3-004.wav
469,192,186617,128,0,186838:0:0:0:33:
42,192,186617,1,0,0:0:0:100:Kick01.wav
213,192,186617,1,0,0:0:0:100:crap01.wav
384,192,186617,1,0,0:0:0:100:p3-004.wav
128,192,186838,128,0,187720:0:0:0:66:
298,192,186838,1,0,0:0:0:100:p3-004.wav
384,192,187058,1,0,0:0:0:100:Kick01.wav
213,192,187058,1,0,0:0:0:100:p3-001.wav
298,192,187499,1,0,0:0:0:100:Kick01.wav
469,192,187499,1,0,0:0:0:100:crap01.wav
213,192,187499,1,0,0:0:0:100:p3-001.wav
384,192,187720,128,0,188823:0:0:0:100:
213,192,187830,1,0,0:0:0:100:p3-002.wav
42,192,187941,1,0,0:0:0:100:Kick01.wav
213,192,188051,1,0,0:0:0:100:p3-002.wav
42,192,188382,1,0,0:0:0:100:Kick01.wav
128,192,188382,1,0,0:0:0:100:crap01.wav
298,192,188382,1,0,0:0:0:100:p3-002.wav
213,192,188602,1,0,0:0:0:100:p3-002.wav
42,192,188823,1,0,0:0:0:100:Kick01.wav
128,192,188823,1,0,0:0:0:100:p3-003.wav
384,192,189264,1,0,0:0:0:100:Kick01.wav
128,192,189264,1,0,0:0:0:100:crap01.wav
213,192,189264,1,0,0:0:0:100:p3-003.wav
42,192,189485,128,0,190147:0:0:0:100:
298,192,189595,1,0,0:0:0:100:p3-004.wav
469,192,189705,1,0,0:0:0:100:Kick01.wav
298,192,189816,1,0,0:0:0:100:p3-004.wav
298,192,190147,128,0,190588:0:0:0:33:
213,192,190147,1,0,0:0:0:100:Kick01.wav
128,192,190147,1,0,0:0:0:100:crap01.wav
469,192,190147,1,0,0:0:0:100:p3-004.wav
213,192,190367,1,0,0:0:0:100:p3-004.wav
469,192,190588,128,0,191249:0:0:0:44:
42,192,190588,1,0,0:0:0:100:Kick01.wav
213,192,190588,1,0,0:0:0:100:p3-001.wav
384,192,191029,1,0,0:0:0:100:Kick01.wav
128,192,191029,1,0,0:0:0:100:crap01.wav
213,192,191029,1,0,0:0:0:100:p3-001.wav
42,192,191249,128,0,192573:0:0:0:100:
298,192,191360,1,0,0:0:0:100:p3-002.wav
469,192,191470,1,0,0:0:0:100:Kick01.wav
298,192,191580,1,0,0:0:0:100:p3-002.wav
384,192,191911,1,0,0:0:0:100:Kick01.wav
128,192,191911,1,0,0:0:0:100:crap01.wav
213,192,191911,1,0,0:0:0:100:p3-002.wav
298,192,192132,1,0,0:0:0:100:p3-002.wav
128,192,192352,1,0,0:0:0:100:Kick01.wav
213,192,192352,1,0,0:0:0:100:p3-003.wav
42,192,192794,1,0,0:0:0:100:Kick01.wav
213,192,192794,1,0,0:0:0:100:crap01.wav
469,192,192794,1,0,0:0:0:100:p3-003.wav
469,192,193014,128,0,193897:0:0:0:100:
128,192,193124,1,0,0:0:0:100:p3-004.wav
298,192,193235,1,0,0:0:0:100:Kick01.wav
128,192,193345,1,0,0:0:0:100:p3-004.wav
213,192,193676,1,0,0:0:0:100:Kick01.wav
384,192,193676,1,0,0:0:0:100:crap01.wav
42,192,193676,1,0,0:0:0:100:p3-004.wav
298,192,193897,128,0,194007:0:0:0:66:
128,192,193897,1,0,0:0:0:100:p3-004.wav
469,192,194007,128,0,194889:0:0:0:100:
213,192,194117,1,0,0:0:0:100:Kick01.wav
42,192,194117,1,0,0:0:0:100:p3-001.wav
213,192,194558,1,0,0:0:0:100:Kick01.wav
128,192,194558,1,0,0:0:0:100:crap01.wav
298,192,194558,1,0,0:0:0:100:p3-001.wav
384,192,194889,128,0,195661:0:0:0:66:
42,192,194889,1,0,0:0:0:100:p3-002.wav
213,192,194999,1,0,0:0:0:100:Kick01.wav
42,192,195110,1,0,0:0:0:100:p3-002.wav
469,192,195441,1,0,0:0:0:100:Kick01.wav
42,192,195441,1,0,0:0:0:100:crap01.wav
213,192,195441,1,0,0:0:0:100:p3-002.wav
298,192,195661,1,0,0:0:0:100:p3-002.wav
128,192,195882,1,0,0:0:0:100:Kick01.wav
384,192,195882,1,0,0:0:0:100:p3-003.wav
42,192,196323,1,0,0:0:0:100:Kick01.wav
298,192,196323,1,0,0:0:0:100:crap01.wav
469,192,196323,1,0,0:0:0:100:p3-003.wav
128,192,196654,1,0,0:0:0:100:p3-004.wav
384,192,196764,1,0,0:0:0:100:Kick01.wav
128,192,196874,1,0,0:0:0:100:p3-004.wav
42,192,197205,1,0,0:0:0:100:Kick01.wav
469,192,197205,1,0,0:0:0:100:crap01.wav
213,192,197205,1,0,0:0:0:100:p3-004.wav
213,192,197426,1,0,0:0:0:100:p3-004.wav
469,192,197647,1,0,0:0:0:100:Kick01.wav
42,192,197647,1,0,0:0:0:100:p3-001.wav
384,192,197867,1,0,0:0:0:100:pb-004.wav
213,192,198088,1,0,0:0:0:100:Kick01.wav
128,192,198088,1,0,0:0:0:100:crap01.wav
298,192,198088,1,0,0:0:0:100:p3-001.wav
42,192,198308,1,0,0:0:0:100:pb-004.wav
469,192,198419,1,0,0:0:0:100:p3-002.wav
298,192,198529,1,0,0:0:0:100:Kick01.wav
469,192,198639,1,0,0:0:0:100:p3-002.wav
42,192,198749,1,0,0:0:0:100:pb-003.wav
213,192,198970,1,0,0:0:0:100:Kick01.wav
128,192,198970,1,0,0:0:0:100:crap01.wav
298,192,198970,1,0,0:0:0:100:p3-002.wav
384,192,199191,1,0,0:0:0:100:p3-002.wav
213,192,199191,1,0,0:0:0:100:pb-003.wav
128,192,199411,1,0,0:0:0:100:Kick01.wav
298,192,199411,1,0,0:0:0:100:p3-003.wav
42,192,199632,1,0,0:0:0:100:pb-003.wav
213,192,199852,1,0,0:0:0:100:Kick01.wav
298,192,199852,1,0,0:0:0:100:crap01.wav
384,192,199852,1,0,0:0:0:100:p3-003.wav
469,192,200073,1,0,0:0:0:100:pb-003.wav
42,192,200183,1,0,0:0:0:100:p3-004.wav
213,192,200294,1,0,0:0:0:100:Kick01.wav
42,192,200404,1,0,0:0:0:100:p3-004.wav
469,192,200514,1,0,0:0:0:100:pb-001.wav
213,192,200735,1,0,0:0:0:100:Kick01.wav
298,192,200735,1,0,0:0:0:100:crap01.wav
384,192,200735,1,0,0:0:0:100:p3-004.wav
298,192,200955,1,0,0:0:0:100:p3-004.wav
128,192,200955,1,0,0:0:0:100:pb-001.wav
469,192,201176,1,0,0:0:0:100:Kick01.wav
42,192,201176,1,0,0:0:0:100:p3-001.wav
384,192,201397,1,0,0:0:0:100:pb-004.wav
213,192,201617,1,0,0:0:0:100:Kick01.wav
128,192,201617,1,0,0:0:0:100:crap01.wav
298,192,201617,1,0,0:0:0:100:p3-001.wav
42,192,201838,1,0,0:0:0:100:pb-004.wav
469,192,201948,1,0,0:0:0:100:p3-002.wav
298,192,202058,1,0,0:0:0:100:Kick01.wav
469,192,202169,1,0,0:0:0:100:p3-002.wav
42,192,202279,1,0,0:0:0:100:pb-003.wav
213,192,202499,1,0,0:0:0:100:Kick01.wav
128,192,202499,1,0,0:0:0:100:crap01.wav
298,192,202499,1,0,0:0:0:100:p3-002.wav
384,192,202720,1,0,0:0:0:100:p3-002.wav
213,192,202720,1,0,0:0:0:100:pb-003.wav
128,192,202941,1,0,0:0:0:100:Kick01.wav
298,192,202941,1,0,0:0:0:100:p3-003.wav
42,192,203161,1,0,0:0:0:100:pb-003.wav
213,192,203382,1,0,0:0:0:100:Kick01.wav
298,192,203382,1,0,0:0:0:100:crap01.wav
384,192,203382,1,0,0:0:0:100:p3-003.wav
469,192,203602,1,0,0:0:0:100:pb-003.wav
42,192,203713,1,0,0:0:0:100:p3-004.wav
213,192,203823,1,0,0:0:0:100:Kick01.wav
42,192,203933,1,0,0:0:0:100:p3-004.wav
469,192,204044,1,0,0:0:0:100:pb-001.wav
213,192,204264,1,0,0:0:0:100:Kick01.wav
298,192,204264,1,0,0:0:0:100:crap01.wav
384,192,204264,1,0,0:0:0:100:p3-004.wav
298,192,204485,1,0,0:0:0:100:p3-004.wav
128,192,204485,1,0,0:0:0:100:pb-001.wav
42,192,204705,1,0,0:0:0:100:Kick01.wav
469,192,204705,1,0,0:0:0:100:p3-001.wav
298,192,204926,1,0,0:0:0:100:pb-004.wav
42,192,205147,1,0,0:0:0:100:Kick01.wav
213,192,205147,1,0,0:0:0:100:crap01.wav
469,192,205147,1,0,0:0:0:100:p3-001.wav
298,192,205367,1,0,0:0:0:100:pb-004.wav
384,192,205477,1,0,0:0:0:100:p3-002.wav
128,192,205588,1,0,0:0:0:100:Kick01.wav
384,192,205698,1,0,0:0:0:100:p3-002.wav
298,192,205808,1,0,0:0:0:100:pb-003.wav
42,192,206029,1,0,0:0:0:100:Kick01.wav
213,192,206029,1,0,0:0:0:100:crap01.wav
469,192,206029,1,0,0:0:0:100:p3-002.wav
128,192,206249,1,0,0:0:0:100:pb-003.wav
384,192,206249,1,0,0:0:0:100:p3-002.wav
42,192,206470,1,0,0:0:0:100:Kick01.wav
469,192,206470,1,0,0:0:0:100:p3-003.wav
213,192,206691,1,0,0:0:0:100:pb-003.wav
42,192,206911,1,0,0:0:0:100:Kick01.wav
298,192,206911,1,0,0:0:0:100:crap01.wav
469,192,206911,1,0,0:0:0:100:p3-003.wav
213,192,207132,1,0,0:0:0:100:pb-003.wav
128,192,207242,1,0,0:0:0:100:p3-004.wav
384,192,207352,1,0,0:0:0:100:Kick01.wav
128,192,207463,1,0,0:0:0:100:p3-004.wav
213,192,207573,1,0,0:0:0:100:pb-001.wav
42,192,207794,1,0,0:0:0:100:Kick01.wav
298,192,207794,1,0,0:0:0:100:crap01.wav
469,192,207794,1,0,0:0:0:100:p3-004.wav
128,192,208014,1,0,0:0:0:100:pb-001.wav
384,192,208014,1,0,0:0:0:100:p3-004.wav
42,192,208235,1,0,0:0:0:100:Kick01.wav
469,192,208235,1,0,0:0:0:100:p3-001.wav
298,192,208455,1,0,0:0:0:100:pb-004.wav
42,192,208676,1,0,0:0:0:100:Kick01.wav
213,192,208676,1,0,0:0:0:100:crap01.wav
469,192,208676,1,0,0:0:0:100:p3-001.wav
298,192,208897,1,0,0:0:0:100:pb-004.wav
384,192,209007,1,0,0:0:0:100:p3-002.wav
128,192,209117,1,0,0:0:0:100:Kick01.wav
384,192,209227,1,0,0:0:0:100:p3-002.wav
298,192,209338,1,0,0:0:0:100:pb-003.wav
42,192,209558,1,0,0:0:0:100:Kick01.wav
213,192,209558,1,0,0:0:0:100:crap01.wav
469,192,209558,1,0,0:0:0:100:p3-002.wav
128,192,209779,1,0,0:0:0:100:pb-003.wav
384,192,209779,1,0,0:0:0:100:p3-002.wav
42,192,209999,1,0,0:0:0:100:Kick01.wav
469,192,209999,1,0,0:0:0:100:p3-003.wav
213,192,210220,1,0,0:0:0:100:pb-003.wav
42,192,210441,1,0,0:0:0:100:Kick01.wav
298,192,210441,1,0,0:0:0:100:crap01.wav
469,192,210441,1,0,0:0:0:100:p3-003.wav
213,192,210661,1,0,0:0:0:100:pb-003.wav
128,192,210772,1,0,0:0:0:100:p3-004.wav
384,192,210882,1,0,0:0:0:100:Kick01.wav
128,192,210992,1,0,0:0:0:100:p3-004.wav
213,192,211102,1,0,0:0:0:100:pb-001.wav
42,192,211323,1,0,0:0:0:100:Kick01.wav
298,192,211323,1,0,0:0:0:100:crap01.wav
469,192,211323,1,0,0:0:0:100:p3-004.wav
128,192,211544,1,0,0:0:0:100:pb-001.wav
384,192,211544,1,0,0:0:0:100:p3-004.wav
