osu file format v14

[General]
AudioFilename: audio.mp3
AudioLeadIn: 0
PreviewTime: 76954
Countdown: 1
SampleSet: Soft
StackLeniency: 0.4
Mode: 0
LetterboxInBreaks: 1
WidescreenStoryboard: 1

[Editor]
Bookmarks: 40252,122911,160903,195917
DistanceSpacing: 1
BeatDivisor: 4
GridSize: 4
TimelineZoom: 4.679197

[Metadata]
Title:Seandainya
TitleUnicode:Seandainya
Artist:Vierra
ArtistUnicode:Vierra
Creator:-AvicennaNM
Version:Farewell
Source:
Tags:vierra my first love indonesia
BeatmapID:1846902
BeatmapSetID:617479

[Difficulty]
HPDrainRate:4.5
CircleSize:4
OverallDifficulty:9.6
ApproachRate:9.7
SliderMultiplier:2
SliderTickRate:1

[Events]
//Background and Video events
0,0,"555562.jpg",0,0
//Break Periods
//Storyboard Layer 0 (Background)
//Storyboard Layer 1 (Fail)
//Storyboard Layer 2 (Pass)
//Storyboard Layer 3 (Foreground)
//Storyboard Sound Samples

[TimingPoints]
302,319.148936170213,3,1,0,100,1,0
302,-111.111111111111,4,2,1,50,0,0
15621,-100,4,2,1,60,0,0
30940,-200,4,2,1,40,0,0
31011,319.148936170213,3,1,0,100,1,0
31011,-200,4,2,1,40,0,0
46316,-166.666666666667,4,2,1,45,0,0
53975,-142.857142857143,4,2,1,50,0,0
61635,-125,4,2,1,55,0,0
76954,-90.9090909090909,4,2,1,65,0,1
107592,-100,4,2,1,60,0,0
109507,-100,4,2,1,5,0,0
109587,-100,4,2,1,60,0,0
153550,-90.9090909090909,4,2,1,65,0,0
153576,319.148936170213,3,1,0,100,1,0
153576,-90.9090909090909,4,2,1,65,0,1
184201,-100,4,2,1,60,0,0
199520,-100,4,2,1,5,0,0
199600,-100,4,2,1,60,0,0
200490,319.148936170213,3,1,0,100,1,0
200490,-83.3333333333333,4,2,1,65,0,1
231128,-100,4,2,1,60,0,0

[Colours]
Combo1 : 200,236,240
Combo2 : 102,102,247
Combo3 : 121,203,247
Combo4 : 142,253,253

[HitObjects]
318,177,302,6,0,P|336:225|321:277,1,89.9999972534181,4|0,0:0|0:0,0:0:0:0:
135,162,621,1,0,0:0:0:0:
261,227,780,1,8,0:0:0:0:
72,206,940,1,8,0:0:0:0:
57,167,1020,1,8,0:0:0:0:
62,126,1099,1,8,0:0:0:0:
92,97,1179,1,8,0:0:0:0:
132,84,1259,6,0,L|221:94,1,89.9999972534181,8|0,0:0|0:0,0:0:0:0:
407,187,1578,2,0,L|318:177,1,89.9999972534181,8|0,0:0|0:0,0:0:0:0:
476,86,1897,1,8,0:0:0:0:
480,128,1977,1,8,0:0:0:0:
484,170,2057,1,8,0:0:0:0:
488,212,2137,1,8,0:0:0:0:
492,254,2216,5,2,0:0:0:0:
273,258,2376,1,0,0:0:0:0:
407,187,2536,1,0,0:0:0:0:
297,355,2695,1,8,0:0:0:0:
127,248,2855,2,0,P|132:273|136:298,1,44.999998626709,8|8,0:0|0:0,0:0:0:0:
221,353,3014,2,0,P|216:328|212:303,1,44.999998626709,8|8,0:0|0:0,0:0:0:0:
190,198,3174,6,0,P|182:151|177:108,1,89.9999972534181,8|0,0:0|0:0,0:0:0:0:
82,33,3493,2,0,P|89:77|94:122,1,89.9999972534181,8|0,0:0|0:0,0:0:0:0:
241,43,3812,1,8,0:0:0:0:
283,34,3892,1,8,0:0:0:0:
325,43,3972,1,8,0:0:0:0:
350,77,4052,1,8,0:0:0:0:
358,118,4131,5,2,0:0:0:0:
202,214,4291,1,0,0:0:0:0:
281,110,4450,1,0,0:0:0:0:
362,257,4610,1,8,0:0:0:0:
472,127,4770,2,0,P|475:153|474:187,1,44.999998626709,8|8,0:0|0:0,0:0:0:0:
454,245,4929,2,0,P|451:271|452:305,1,44.999998626709,8|8,0:0|0:0,0:0:0:0:
436,363,5089,5,8,0:0:0:0:
290,195,5248,1,0,0:0:0:0:
479,253,5408,1,8,0:0:0:0:
297,380,5567,1,0,0:0:0:0:
244,300,5727,1,8,0:0:0:0:
212,273,5807,1,8,0:0:0:0:
171,262,5887,1,8,0:0:0:0:
129,263,5966,1,8,0:0:0:0:
90,278,6046,5,10,0:0:0:0:
157,350,6206,1,0,0:0:0:0:
185,177,6365,1,8,0:0:0:0:
22,240,6525,1,8,0:0:0:0:
212,273,6684,1,0,0:0:0:0:
57,91,6844,1,8,0:0:0:0:
247,124,7004,6,0,L|343:142,1,89.9999972534181,8|0,0:0|0:0,0:0:0:0:
445,11,7323,2,0,L|381:85,1,89.9999972534181,8|0,0:0|0:0,0:0:0:0:
443,238,7642,1,8,0:0:0:0:
413,153,7802,1,8,0:0:0:0:
384,306,7961,5,4,0:0:0:0:
502,168,8121,1,0,0:0:0:0:
413,153,8280,1,0,0:0:0:0:
325,139,8440,2,0,B|231:118|254:198|134:166,1,179.999994506836,8|0,0:0|0:0,0:0:0:0:
180,2,8919,6,0,L|190:97,1,89.9999972534181,8|0,0:0|0:0,0:0:0:0:
297,215,9238,2,0,L|306:304,1,89.9999972534181,8|0,0:0|0:0,0:0:0:0:
67,172,9557,2,0,P|112:160|160:174,1,89.9999972534181
411,137,9876,6,0,P|366:149|318:135,2,89.9999972534181,8|0|0,0:0|0:0|0:0,0:0:0:0:
318,49,10355,2,0,L|325:144,1,89.9999972534181,8|0,0:0|0:0,0:0:0:0:
409,44,10674,1,0,0:0:0:0:
428,218,10833,6,0,P|466:194|488:156,1,89.9999972534181,8|0,0:0|0:0,0:0:0:0:
384,287,11153,2,0,P|427:297|470:285,1,89.9999972534181,8|0,0:0|0:0,0:0:0:0:
305,306,11472,2,0,P|328:343|367:365,1,89.9999972534181,8|0,0:0|0:0,0:0:0:0:
273,217,11791,5,8,0:0:0:0:
212,289,11950,1,0,0:0:0:0:
305,306,12110,1,0,0:0:0:0:
180,200,12270,1,8,0:0:0:0:
151,362,12429,1,0,0:0:0:0:
212,289,12589,1,0,0:0:0:0:
119,273,12748,6,0,P|75:303|54:340,1,89.9999972534181,8|0,0:0|0:0,0:0:0:0:
96,176,13067,2,0,P|143:199|186:198,1,89.9999972534181,8|0,0:0|0:0,0:0:0:0:
24,245,13387,2,0,P|20:191|-1:155,1,89.9999972534181,8|0,0:0|0:0,0:0:0:0:
157,112,13706,5,8,0:0:0:0:
286,146,13865,1,0,0:0:0:0:
417,180,14025,1,0,0:0:0:0:
193,242,14184,5,8,0:0:0:0:
286,146,14344,1,0,0:0:0:0:
382,51,14504,1,0,0:0:0:0:
321,276,14663,5,8,0:0:0:0:
251,17,14823,1,0,0:0:0:0:
417,180,14982,5,8,0:0:0:0:
157,111,15142,1,2,0:0:0:0:
382,51,15302,5,8,0:0:0:0:
193,242,15461,1,2,0:0:0:0:
452,310,15621,6,0,P|495:259|474:123,1,200,6|0,0:0|0:0,0:0:0:0:
321,276,16099,1,2,0:0:0:0:
473,313,16259,1,0,0:0:0:0:
417,180,16419,1,2,0:0:0:0:
336,352,16578,2,0,P|282:345|247:296,1,100,8|0,0:0|0:0,0:0:0:0:
336,177,16897,6,0,P|325:231|320:280,1,100,2|0,0:0|0:0,0:0:0:0:
177,143,17216,2,0,P|188:197|193:246,1,100,2|0,0:0|0:0,0:0:0:0:
116,87,17536,6,0,B|163:50|218:71|218:71|253:121|324:105,1,200,2|0,0:0|0:0,0:0:0:0:
449,58,18014,1,2,0:0:0:0:
289,28,18174,1,0,0:0:0:0:
177,143,18333,1,2,0:0:0:0:
337,173,18493,2,0,P|405:188|449:207,1,100,8|0,0:0|0:0,0:0:0:0:
172,297,18812,5,2,0:0:0:0:
116,87,18972,1,0,0:0:0:0:
317,255,19131,5,2,0:0:0:0:
289,28,19291,1,0,0:0:0:0:
103,166,19450,6,0,L|88:271,1,100,2|0,0:0|0:0,0:0:0:0:
71,359,19770,1,0,0:0:0:0:
218,71,19929,6,0,L|233:176,1,100,2|0,0:0|0:0,0:0:0:0:
260,330,20248,1,2,0:0:0:0:
402,277,20408,6,0,B|290:305|332:213|191:260,1,200,8|2,0:0|0:0,0:0:0:0:
369,198,20887,1,0,0:0:0:0:
429,359,21046,1,2,0:0:0:0:
260,330,21206,1,0,0:0:0:0:
298,130,21365,5,2,0:0:0:0:
467,159,21525,1,0,0:0:0:0:
358,291,21684,1,0,0:0:0:0:
391,95,21844,5,2,0:0:0:0:
450,256,22004,1,0,0:0:0:0:
281,228,22163,1,2,0:0:0:0:
282,117,22323,5,8,0:0:0:0:
465,269,22482,1,0,0:0:0:0:
394,76,22642,5,8,0:0:0:0:
354,310,22802,1,2,0:0:0:0:
485,152,22961,5,12,0:0:0:0:
263,234,23121,1,0,0:0:0:0:
41,317,23280,6,0,B|163:293|122:377|252:342,1,200,6|0,0:0|0:0,0:0:0:0:
73,224,23759,1,2,0:0:0:0:
79,141,23919,1,0,0:0:0:0:
266,193,24078,1,2,0:0:0:0:
260,276,24238,2,0,L|254:378,1,100,8|0,0:0|0:0,0:0:0:0:
52,232,24557,5,2,0:0:0:0:
299,186,24716,1,0,0:0:0:0:
79,141,24876,5,2,0:0:0:0:
261,110,25036,1,0,0:0:0:0:
26,75,25195,6,0,P|130:77|157:161,1,200,2|0,0:0|0:0,0:0:0:0:
135,259,25674,1,2,0:0:0:0:
293,282,25833,2,0,L|413:296,1,100,0|2,0:0|0:0,0:0:0:0:
192,312,26153,6,0,P|210:266|199:219,1,100,8|0,0:0|0:0,0:0:0:0:
52,232,26472,1,2,0:0:0:0:
63,374,26631,1,0,0:0:0:0:
288,248,26791,1,2,0:0:0:0:
277,106,26950,1,0,0:0:0:0:
41,90,27110,6,0,P|128:93|225:37,1,200,2|0,0:0|0:0,0:0:0:0:
459,157,27589,2,0,P|372:160|275:104,1,200,2|2,0:0|0:0,0:0:0:0:
444,61,28067,2,0,P|463:115|450:177,1,100,8|0,0:0|0:0,0:0:0:0:
352,299,28387,5,2,0:0:0:0:
288,248,28546,1,0,0:0:0:0:
429,270,28706,1,2,0:0:0:0:
339,381,28865,1,0,0:0:0:0:
364,218,29025,5,2,0:0:0:0:
415,351,29184,1,0,0:0:0:0:
275,329,29344,1,0,0:0:0:0:
441,187,29504,5,2,0:0:0:0:
300,165,29663,1,0,0:0:0:0:
352,299,29823,1,2,0:0:0:0:
376,137,29982,5,8,0:0:0:0:
147,227,30142,1,0,0:0:0:0:
339,381,30302,1,2,0:0:0:0:
236,116,30461,5,0,0:0:0:0:
199,359,30621,1,2,0:0:0:0:
429,270,30780,1,8,0:0:0:0:
130,214,30940,6,0,B|86:197|57:266|82:293|141:306|176:283|196:251|196:251|222:212|271:211|293:245|294:283|253:294,1,368.75,6|0,0:0|0:0,0:0:0:0:
114,360,32287,2,0,P|81:353|63:345,1,50
13,287,32606,2,0,P|8:253|9:233,1,50
127,136,32925,6,0,B|148:165|130:214|130:214|73:216|12:162|32:83|96:27|163:68,1,350
207,113,34202,2,0,P|231:115|256:117,1,50
291,19,34521,2,0,P|315:20|340:23,1,50
426,127,34840,6,0,B|415:71|527:-6|624:103|562:260|432:204|412:328|412:328|359:213|239:309|138:154|260:37|334:86|353:142,1,850
246,197,37713,2,0,P|213:193|134:186,2,100
93,239,38670,6,0,P|75:205|92:135,1,100
137,93,39149,2,0,P|155:127|138:197,1,100
34,140,39628,2,0,P|67:142|95:149,1,50
186,98,39947,2,0,P|161:97|136:92,1,50
243,47,40266,2,0,P|259:72|264:100,1,50
248,172,40585,6,0,P|237:216|248:289,1,100
320,319,41064,1,0,0:0:0:0:
320,319,41223,2,0,L|438:313,2,100
441,244,42181,2,0,P|474:262|492:291,1,50
442,168,42500,6,0,B|389:166|403:196|340:194,1,100
339,26,42979,2,0,P|363:67|353:117,1,100
297,248,43457,2,0,P|273:207|283:157,2,100
296,247,44415,6,0,P|301:272|306:297,1,50
218,362,44734,1,0,0:0:0:0:
149,333,44893,2,0,P|170:303|240:291,1,100
86,380,45372,2,0,P|72:347|74:318,1,50
152,283,45691,2,0,P|149:318|147:352,1,50
29,252,46011,2,0,P|64:255|98:257,1,50
223,254,46330,6,0,P|196:220|162:206,1,59.9999981689454,6|0,0:0|0:0,0:0:0:0:
152,283,46649,1,0,0:0:0:0:
251,324,46808,1,8,0:0:0:0:
345,269,46968,1,8,0:0:0:0:
345,269,47048,1,8,0:0:0:0:
345,269,47128,1,8,0:0:0:0:
345,269,47207,1,8,0:0:0:0:
345,269,47287,6,0,P|389:275|418:280,1,59.9999981689454,8|0,0:0|0:0,0:0:0:0:
464,193,47606,2,0,P|420:187|391:182,1,59.9999981689454,8|0,0:0|0:0,0:0:0:0:
280,141,47925,1,8,0:0:0:0:
273,120,48005,1,8,0:0:0:0:
272,98,48085,1,8,0:0:0:0:
277,76,48165,1,8,0:0:0:0:
290,58,48245,6,0,L|370:67,1,59.9999981689454,2|0,0:0|0:0,0:0:0:0:
182,44,48564,1,0,0:0:0:0:
172,135,48723,1,8,0:0:0:0:
212,234,48883,2,0,L|208:273,1,29.9999990844727,8|8,0:0|0:0,0:0:0:0:
199,339,49042,2,0,L|194:375,1,29.9999990844727,8|8,0:0|0:0,0:0:0:0:
127,274,49202,6,0,P|134:231|138:195,1,59.9999981689454,8|0,0:0|0:0,0:0:0:0:
282,320,49521,2,0,P|275:363|271:399,1,59.9999981689454,8|0,0:0|0:0,0:0:0:0:
109,349,49840,1,8,0:0:0:0:
88,342,49920,1,8,0:0:0:0:
70,328,50000,1,8,0:0:0:0:
57,310,50080,1,8,0:0:0:0:
52,288,50159,6,0,P|59:228|66:165,1,119.999996337891,2|0,0:0|0:0,0:0:0:0:
79,51,50638,1,8,0:0:0:0:
184,105,50798,1,8,0:0:0:0:
206,120,50878,1,8,0:0:0:0:
231,129,50957,1,8,0:0:0:0:
258,132,51037,1,8,0:0:0:0:
285,131,51117,6,0,P|319:127|346:113,1,59.9999981689454,8|0,0:0|0:0,0:0:0:0:
312,0,51436,2,0,P|298:31|297:61,1,59.9999981689454,8|0,0:0|0:0,0:0:0:0:
411,88,51755,5,8,0:0:0:0:
403,75,51835,1,8,0:0:0:0:
393,63,51915,1,8,0:0:0:0:
382,53,51995,1,8,0:0:0:0:
369,46,52074,5,2,0:0:0:0:
285,131,52234,1,0,0:0:0:0:
401,162,52393,1,0,0:0:0:0:
317,247,52553,1,8,0:0:0:0:
433,278,52713,2,0,L|484:291,1,29.9999990844727,8|8,0:0|0:0,0:0:0:0:
317,247,52872,2,0,L|279:235,1,29.9999990844727,8|8,0:0|0:0,0:0:0:0:
302,324,53032,6,0,P|340:322|370:302,1,59.9999981689454,8|0,0:0|0:0,0:0:0:0:
217,294,53351,2,0,P|221:328|223:363,1,59.9999981689454,8|0,0:0|0:0,0:0:0:0:
123,223,53670,1,8,0:0:0:0:
132,360,53830,1,8,0:0:0:0:
55,265,53989,6,0,P|42:224|56:178,1,69.9999978637696,6|0,0:0|0:0,0:0:0:0:
132,108,54308,1,0,0:0:0:0:
192,216,54468,6,0,P|154:218|108:225,1,69.9999978637696,8|0,0:0|0:0,0:0:0:0:
23,115,54787,1,0,0:0:0:0:
122,38,54947,6,0,P|128:72|132:114,1,69.9999978637696,8|0,0:0|0:0,0:0:0:0:
256,2,55266,2,0,L|256:83,1,69.9999978637696,8|0,0:0|0:0,0:0:0:0:
390,38,55585,2,0,P|384:72|380:114,1,69.9999978637696,8|0,0:0|0:0,0:0:0:0:
486,172,55904,6,0,B|407:152|429:203|346:182,1,139.999995727539,8|0,0:0|0:0,0:0:0:0:
463,317,56383,2,0,L|456:235,1,69.9999978637696,8|0,0:0|0:0,0:0:0:0:
370,359,56702,1,0,0:0:0:0:
276,255,56862,2,0,L|270:324,1,69.9999978637696,8|0,0:0|0:0,0:0:0:0:
196,198,57181,2,0,L|259:168,1,69.9999978637696,8|0,0:0|0:0,0:0:0:0:
187,296,57500,2,0,L|129:255,1,69.9999978637696,8|0,0:0|0:0,0:0:0:0:
72,199,57819,6,0,P|51:242|83:323,1,139.999995727539,8|0,0:0|0:0,0:0:0:0:
33,124,58298,2,0,B|111:97|97:149|177:119,1,139.999995727539,8|0,0:0|0:0,0:0:0:0:
191,5,58776,2,0,P|155:25|137:55,1,69.9999978637696,8|0,0:0|0:0,0:0:0:0:
318,69,59096,2,0,P|279:54|244:59,1,69.9999978637696,8|0,0:0|0:0,0:0:0:0:
350,207,59415,2,0,P|336:168|310:145,1,69.9999978637696,8|0,0:0|0:0,0:0:0:0:
195,291,59734,5,8,0:0:0:0:
273,213,59893,1,0,0:0:0:0:
189,202,60053,1,0,0:0:0:0:
279,302,60213,2,0,B|334:317|334:317|386:308|386:308|437:328,1,139.999995727539,8|0,0:0|0:0,0:0:0:0:
181,309,60691,5,8,0:0:0:0:
316,148,60851,1,2,0:0:0:0:
346,354,61011,5,0,0:0:0:0:
190,155,61170,1,2,0:0:0:0:
181,359,61330,5,8,0:0:0:0:
344,148,61489,1,10,0:0:0:0:
119,32,61649,6,0,B|156:109|76:110|115:201,1,160,6|0,0:0|0:0,0:0:0:0:
190,155,62128,1,2,0:0:0:0:
52,71,62287,2,0,P|31:119|24:160,1,80,0|2,0:0|0:0,0:0:0:0:
135,260,62606,2,0,P|114:212|107:171,1,80,8|0,0:0|0:0,0:0:0:0:
268,126,62925,5,2,0:0:0:0:
186,326,63085,1,0,0:0:0:0:
121,113,63245,5,2,0:0:0:0:
255,282,63404,1,0,0:0:0:0:
326,75,63564,6,0,P|274:50|194:99,1,160,2|0,0:0|0:0,0:0:0:0:
380,131,64042,2,0,P|401:94|397:42,1,80,2|0,0:0|0:0,0:0:0:0:
268,126,64362,1,2,0:0:0:0:
379,215,64521,2,0,P|420:203|453:164,1,80,8|0,0:0|0:0,0:0:0:0:
318,273,64840,2,0,P|355:294|407:289,1,80,2|0,0:0|0:0,0:0:0:0:
233,270,65159,2,0,P|244:311|283:344,1,80,2|0,0:0|0:0,0:0:0:0:
146,246,65479,5,2,0:0:0:0:
53,268,65638,1,0,0:0:0:0:
81,177,65798,1,0,0:0:0:0:
173,154,65957,1,2,0:0:0:0:
238,224,66117,1,0,0:0:0:0:
211,315,66276,1,2,0:0:0:0:
119,338,66436,5,8,0:0:0:0:
81,177,66596,1,0,0:0:0:0:
238,224,66755,1,2,0:0:0:0:
54,268,66915,1,0,0:0:0:0:
173,154,67074,1,2,0:0:0:0:
211,315,67234,1,0,0:0:0:0:
81,177,67393,5,2,0:0:0:0:
259,130,67553,1,0,0:0:0:0:
146,246,67713,1,0,0:0:0:0:
194,61,67872,1,2,0:0:0:0:
238,224,68032,1,0,0:0:0:0:
81,177,68191,1,2,0:0:0:0:
259,130,68351,5,8,0:0:0:0:
119,338,68511,1,0,0:0:0:0:
102,83,68670,5,8,0:0:0:0:
211,315,68830,1,0,0:0:0:0:
286,38,68989,5,8,0:0:0:0:
146,246,69149,1,0,0:0:0:0:
35,20,69308,6,0,P|118:-4|183:44,1,160,6|0,0:0|0:0,0:0:0:0:
259,130,69787,1,2,0:0:0:0:
365,33,69947,2,0,P|315:37|282:38,1,80,0|2,0:0|0:0,0:0:0:0:
455,169,70266,2,0,P|451:129|450:89,1,80,8|0,0:0|0:0,0:0:0:0:
304,237,70585,5,2,0:0:0:0:
485,306,70745,1,0,0:0:0:0:
297,344,70904,5,2,0:0:0:0:
442,193,71064,1,0,0:0:0:0:
269,166,71223,6,0,P|233:196|222:234,2,80,2|0|0,0:0|0:0|0:0,0:0:0:0:
304,237,71702,1,2,0:0:0:0:
142,219,71862,2,0,P|189:222|234:227,1,80,0|2,0:0|0:0,0:0:0:0:
249,381,72181,2,0,P|252:334|257:289,1,80,8|0,0:0|0:0,0:0:0:0:
405,363,72500,5,2,0:0:0:0:
160,336,72659,1,0,0:0:0:0:
406,350,72819,1,2,0:0:0:0:
158,350,72979,1,0,0:0:0:0:
292,157,73138,5,2,0:0:0:0:
304,237,73298,1,0,0:0:0:0:
216,127,73457,1,0,0:0:0:0:
355,106,73617,1,2,0:0:0:0:
228,207,73776,1,0,0:0:0:0:
279,76,73936,1,2,0:0:0:0:
367,186,74096,5,8,0:0:0:0:
216,127,74255,1,0,0:0:0:0:
342,25,74415,1,2,0:0:0:0:
228,207,74574,1,0,0:0:0:0:
126,17,74734,1,2,0:0:0:0:
292,157,74893,1,0,0:0:0:0:
88,231,75053,5,2,0:0:0:0:
279,76,75213,1,0,0:0:0:0:
317,318,75372,1,0,0:0:0:0:
152,178,75532,1,2,0:0:0:0:
342,25,75691,1,0,0:0:0:0:
380,267,75851,1,2,0:0:0:0:
380,267,75931,1,2,0:0:0:0:
380,267,76011,5,10,0:0:0:0:
75,150,76170,1,2,0:0:0:0:
354,105,76330,5,8,0:0:0:0:
101,312,76489,1,2,0:0:0:0:
126,17,76649,5,2,0:0:0:0:
368,186,76808,1,2,0:0:0:0:
46,145,76968,6,0,B|170:115|138:205|261:174,1,220.000006713867,6|0,0:0|0:0,0:0:0:0:
315,127,77447,1,2,0:0:0:0:
126,17,77606,5,0,0:0:0:0:
97,224,77766,1,2,0:0:0:0:
286,334,77925,2,0,L|406:331,1,110.000003356934,8|0,0:0|0:0,0:0:0:0:
40,285,78245,6,0,P|18:214|38:171,1,110.000003356934,2|0,0:0|0:0,0:0:0:0:
154,169,78564,2,0,P|176:240|156:283,1,110.000003356934,2|0,0:0|0:0,0:0:0:0:
133,92,78883,6,0,P|205:108|232:147,1,110.000003356934,2|0,0:0|0:0,0:0:0:0:
97,224,79202,1,0,0:0:0:0:
103,14,79362,1,2,0:0:0:0:
154,169,79521,1,0,0:0:0:0:
26,3,79681,1,2,0:0:0:0:
40,285,79840,6,0,B|44:311|34:341|34:341|48:313|85:294,1,110.000003356934,8|0,0:0|0:0,0:0:0:0:
309,356,80159,2,0,B|263:383|218:351|218:351|194:376|194:376|149:349|95:376,1,220.000006713867,2|2,0:0|0:0,0:0:0:0:
271,291,80638,1,0,0:0:0:0:
394,380,80798,6,0,B|406:322|363:287|363:287|315:252|338:202|402:203|379:264,1,220.000006713867,6|0,0:0|0:0,0:0:0:0:
218,351,81276,1,2,0:0:0:0:
455,278,81436,1,0,0:0:0:0:
208,214,81596,1,2,0:0:0:0:
365,135,81755,2,0,P|390:187|376:251,1,110.000003356934,8|0,0:0|0:0,0:0:0:0:
92,142,82074,6,0,L|99:22,1,110.000003356934,2|0,0:0|0:0,0:0:0:0:
311,196,82393,2,0,P|259:221|195:207,1,110.000003356934,2|0,0:0|0:0,0:0:0:0:
301,77,82713,6,0,P|349:52|403:58,1,110.000003356934,2|0,0:0|0:0,0:0:0:0:
292,311,83032,1,0,0:0:0:0:
252,142,83191,1,2,0:0:0:0:
418,191,83351,1,0,0:0:0:0:
292,311,83511,1,2,0:0:0:0:
365,135,83670,5,8,0:0:0:0:
345,367,83830,1,0,0:0:0:0:
154,233,83989,1,2,0:0:0:0:
301,77,84149,1,0,0:0:0:0:
292,311,84308,1,2,0:0:0:0:
102,173,84468,1,2,0:0:0:0:
235,24,84628,6,0,P|318:-2|375:116,1,220.000006713867,6|0,0:0|0:0,0:0:0:0:
368,174,85106,1,2,0:0:0:0:
178,153,85266,2,0,L|292:166,1,110.000003356934,0|2,0:0|0:0,0:0:0:0:
94,303,85585,5,8,0:0:0:0:
148,47,85745,1,0,0:0:0:0:
342,221,85904,1,2,0:0:0:0:
46,159,86064,5,0,0:0:0:0:
295,78,86223,1,2,0:0:0:0:
241,333,86383,1,0,0:0:0:0:
148,47,86542,5,2,0:0:0:0:
295,78,86702,1,0,0:0:0:0:
46,159,86862,1,0,0:0:0:0:
193,190,87021,1,2,0:0:0:0:
94,303,87181,1,0,0:0:0:0:
148,47,87340,1,2,0:0:0:0:
342,221,87500,6,0,P|359:278|345:337,1,110.000003356934,8|0,0:0|0:0,0:0:0:0:
295,78,87819,2,0,P|335:34|393:17,1,110.000003356934,2|0,0:0|0:0,0:0:0:0:
193,190,88138,2,0,P|135:176|91:134,1,110.000003356934,2|0,0:0|0:0,0:0:0:0:
156,16,88457,5,6,0:0:0:0:
385,110,88617,1,0,0:0:0:0:
200,272,88776,1,2,0:0:0:0:
305,55,88936,1,2,0:0:0:0:
268,334,89096,1,0,0:0:0:0:
179,97,89255,1,2,0:0:0:0:
460,167,89415,5,8,0:0:0:0:
200,272,89574,1,0,0:0:0:0:
305,55,89734,1,2,0:0:0:0:
268,334,89893,1,0,0:0:0:0:
44,162,90053,1,2,0:0:0:0:
290,235,90213,1,0,0:0:0:0:
22,261,90372,5,2,0:0:0:0:
301,147,90532,1,0,0:0:0:0:
183,367,90691,1,0,0:0:0:0:
66,70,90851,2,0,B|120:48|160:69|160:69|197:89|240:58|240:58|212:49|196:61,1,220.000006713867,2|0,0:0|0:0,0:0:0:0:
119,138,91330,5,8,0:0:0:0:
268,334,91489,1,2,0:0:0:0:
92,107,91649,5,8,0:0:0:0:
183,367,91808,1,8,0:0:0:0:
240,58,91968,5,6,0:0:0:0:
94,379,92128,1,2,0:0:0:0:
66,70,92287,6,0,B|137:55|175:114|175:114|212:150|268:138,1,220.000006713867,6|0,0:0|0:0,0:0:0:0:
433,70,92766,1,2,0:0:0:0:
349,49,92925,2,0,P|290:51|236:58,1,110.000003356934,0|2,0:0|0:0,0:0:0:0:
381,238,93245,2,0,P|379:179|372:125,1,110.000003356934,8|0,0:0|0:0,0:0:0:0:
97,153,93564,6,0,P|90:207|88:262,1,110.000003356934,2|0,0:0|0:0,0:0:0:0:
468,355,93883,2,0,P|466:296|459:242,1,110.000003356934,2|0,0:0|0:0,0:0:0:0:
106,344,94202,6,0,P|179:345|317:283,1,220.000006713867,2|0,0:0|0:0,0:0:0:0:
261,139,94681,1,2,0:0:0:0:
239,57,94840,2,0,P|183:63|125:68,1,110.000003356934,0|2,0:0|0:0,0:0:0:0:
323,73,95159,2,0,B|450:93|374:159|510:180,2,220.000006713867,8|2|2,0:0|0:0|0:0,0:0:0:0:
494,86,95957,1,0,0:0:0:0:
414,127,96117,6,0,P|370:187|395:354,1,220.000006713867,6|0,0:0|0:0,0:0:0:0:
448,365,96596,1,2,0:0:0:0:
328,205,96755,1,0,0:0:0:0:
232,380,96915,1,2,0:0:0:0:
376,326,97074,1,8,0:0:0:0:
186,255,97234,1,0,0:0:0:0:
316,117,97393,5,2,0:0:0:0:
252,303,97553,1,0,0:0:0:0:
168,61,97713,1,2,0:0:0:0:
414,127,97872,1,0,0:0:0:0:
189,142,98032,6,0,P|122:130|111:0,2,220.000006713867,2|0|0,0:0|0:0|0:0,0:0:0:0:
316,117,98830,1,2,0:0:0:0:
168,61,98989,1,8,0:0:0:0:
186,255,99149,1,0,0:0:0:0:
374,35,99308,5,2,0:0:0:0:
373,314,99468,1,2,0:0:0:0:
177,44,99628,5,8,0:0:0:0:
217,337,99787,1,8,0:0:0:0:
442,268,99947,6,0,P|390:236|327:247,2,110.000003356934,6|0|0,0:0|0:0|0:0,0:0:0:0:
294,324,100425,1,2,0:0:0:0:
168,146,100585,2,0,P|180:207|186:263,1,110.000003356934,0|2,0:0|0:0,0:0:0:0:
272,63,100904,5,8,0:0:0:0:
53,133,101064,1,0,0:0:0:0:
305,150,101223,1,2,0:0:0:0:
63,274,101383,1,0,0:0:0:0:
255,82,101542,1,2,0:0:0:0:
325,344,101702,1,0,0:0:0:0:
63,274,101862,6,0,B|184:226|153:331|289:276,1,220.000006713867,2|0,0:0|0:0,0:0:0:0:
406,177,102340,2,0,P|338:142|215:243,1,220.000006713867,2|0,0:0|0:0,0:0:0:0:
451,245,102819,2,0,P|485:189|478:142,1,110.000003356934,8|0,0:0|0:0,0:0:0:0:
296,172,103138,2,0,P|357:175|413:177,1,110.000003356934,2|0,0:0|0:0,0:0:0:0:
273,281,103457,2,0,P|212:278|156:276,1,110.000003356934,2|0,0:0|0:0,0:0:0:0:
88,21,103776,5,6,0:0:0:0:
297,184,103936,1,0,0:0:0:0:
32,176,104096,1,2,0:0:0:0:
253,26,104255,1,2,0:0:0:0:
163,276,104415,1,0,0:0:0:0:
88,21,104574,1,2,0:0:0:0:
297,184,104734,6,0,P|372:205|420:205,1,110.000003356934,8|0,0:0|0:0,0:0:0:0:
97,325,105053,2,0,P|83:263|105:220,1,110.000003356934,2|0,0:0|0:0,0:0:0:0:
277,352,105372,2,0,L|164:360,1,110.000003356934,2|0,0:0|0:0,0:0:0:0:
367,111,105691,5,6,0:0:0:0:
408,371,105851,1,0,0:0:0:0:
163,276,106011,1,0,0:0:0:0:
423,189,106170,2,0,B|299:230|335:141|191:187,1,220.000006713867,10|2,0:0|0:0,0:0:0:0:
419,42,106649,5,8,0:0:0:0:
361,293,106808,1,2,0:0:0:0:
361,293,106888,1,2,0:0:0:0:
361,293,106968,1,8,0:0:0:0:
255,23,107128,5,2,0:0:0:0:
266,262,107287,1,10,0:0:0:0:
93,42,107447,5,2,0:0:0:0:
163,276,107606,1,6,0:0:0:0:
256,192,107766,12,0,109521,0:0:0:0:
180,108,109840,6,0,L|65:120,1,100,2|0,0:0|0:0,0:0:0:0:
213,203,110159,2,0,L|98:215,1,100,2|0,0:0|0:0,0:0:0:0:
326,193,110479,1,8,0:0:0:0:
438,182,110638,1,0,0:0:0:0:
260,101,110798,1,2,0:0:0:0:
391,284,110957,1,0,0:0:0:0:
213,203,111117,1,2,0:0:0:0:
438,182,111276,1,0,0:0:0:0:
279,294,111436,6,0,P|225:297|172:305,2,100,2|0|0,0:0|0:0|0:0,0:0:0:0:
326,193,111915,1,2,0:0:0:0:
391,284,112074,2,0,P|419:325|415:383,1,100,0|2,0:0|0:0,0:0:0:0:
241,378,112393,5,8,0:0:0:0:
84,255,112553,1,0,0:0:0:0:
213,203,112713,1,2,0:0:0:0:
93,344,112872,1,0,0:0:0:0:
19,173,113032,1,2,0:0:0:0:
179,303,113191,1,0,0:0:0:0:
223,99,113351,5,2,0:0:0:0:
108,100,113511,1,0,0:0:0:0:
19,173,113670,1,0,0:0:0:0:
213,203,113830,5,2,0:0:0:0:
328,202,113989,1,0,0:0:0:0:
417,129,114149,1,2,0:0:0:0:
223,99,114308,5,8,0:0:0:0:
179,303,114468,1,2,0:0:0:0:
305,91,114628,5,12,0:0:0:0:
348,312,114787,1,2,0:0:0:0:
368,44,114947,5,8,0:0:0:0:
487,246,115106,1,2,0:0:0:0:
226,204,115266,6,0,P|148:198|10:193,1,200,6|0,0:0|0:0,0:0:0:0:
100,3,115745,2,0,P|178:9|316:14,1,200,2|0,0:0|0:0,0:0:0:0:
447,156,116223,2,0,P|478:205|486:261,1,100,8|0,0:0|0:0,0:0:0:0:
401,232,116542,2,0,P|388:288|354:333,1,100,2|0,0:0|0:3,0:3:0:0:
314,253,116862,2,0,P|265:284|208:291,1,100,2|0,0:0|0:0,0:0:0:0:
30,198,117181,6,0,B|122:191|122:191|153:208|153:208|237:203,1,200,2|0,0:0|0:0,0:0:0:0:
177,126,117659,1,2,0:0:0:0:
102,273,117819,1,0,0:0:0:0:
187,104,117979,1,2,0:0:0:0:
92,293,118138,5,8,0:0:0:0:
30,198,118298,1,0,0:0:0:0:
81,97,118457,1,2,0:0:0:0:
194,89,118617,1,0,0:0:0:0:
256,184,118776,1,2,0:0:0:0:
205,285,118936,1,0,0:0:0:0:
92,293,119096,6,0,P|35:303|3:341,2,100,2|0|0,0:0|0:0|0:0,0:0:0:0:
77,373,119574,1,2,0:0:0:0:
166,363,119734,1,0,0:0:0:0:
255,353,119893,1,2,0:0:0:0:
397,294,120053,5,8,0:0:0:0:
463,155,120213,1,0,0:0:0:0:
375,28,120372,1,2,0:0:0:0:
221,41,120532,5,0,0:0:0:0:
243,307,120691,1,2,0:0:0:0:
463,155,120851,1,0,0:0:0:0:
310,168,121011,6,0,P|257:173|202:181,1,100,2|0,0:0|0:0,0:0:0:0:
106,197,121330,1,0,0:0:0:0:
111,34,121489,6,0,P|138:79|124:137,1,100,2|0,0:0|0:0,0:0:0:0:
59,92,121808,1,2,0:0:0:0:
111,34,121968,6,0,L|219:40,1,100,8|0,0:0|0:0,0:0:0:0:
419,48,122287,1,2,0:0:0:0:
335,8,122447,1,2,0:0:0:0:
332,100,122606,2,0,L|328:210,1,100,2|0,0:0|0:0,0:0:0:0:
319,347,122925,6,0,P|393:337|459:226,2,200,6|0|0,0:0|0:0|0:0,0:0:0:0:
234,302,123723,1,2,0:0:0:0:
151,352,123883,2,0,P|147:292|140:250,1,100,8|0,0:0|0:0,0:0:0:0:
315,243,124202,2,0,P|265:276|232:303,1,100,2|0,0:0|0:0,0:0:0:0:
139,157,124521,2,0,P|192:183|232:198,1,100,2|0,0:0|0:3,0:3:0:0:
59,186,124840,5,2,0:0:0:0:
153,73,125000,1,0,0:0:0:0:
139,157,125159,1,0,0:0:0:0:
73,102,125319,1,2,0:0:0:0:
219,128,125479,1,0,0:0:0:0:
123,241,125638,1,2,0:0:0:0:
73,102,125798,5,8,0:0:0:0:
205,212,125957,1,0,0:0:0:0:
43,271,126117,1,2,0:0:0:0:
153,73,126276,1,0,0:0:0:0:
269,267,126436,1,2,0:0:0:0:
59,186,126596,1,0,0:0:0:0:
234,44,126755,6,0,P|292:49|347:51,1,100,2|0,0:0|0:0,0:0:0:0:
457,28,127074,1,0,0:0:0:0:
475,121,127234,1,2,0:0:0:0:
437,202,127393,1,0,0:0:0:0:
455,295,127553,1,2,0:0:0:0:
365,264,127713,6,0,P|314:253|265:270,1,100,8|0,0:0|0:0,0:0:0:0:
154,130,128032,2,0,P|169:179|209:213,1,100,2|0,0:0|0:0,0:0:0:0:
144,380,128351,2,0,P|179:341|188:290,1,100,2|0,0:0|0:0,0:0:0:0:
29,186,128670,5,2,0:0:0:0:
110,298,128830,1,0,0:0:0:0:
4,196,128989,1,0,0:0:0:0:
139,124,129149,1,2,0:0:0:0:
32,23,129308,1,0,0:0:0:0:
106,220,129468,1,2,0:0:0:0:
239,58,129628,5,8,0:0:0:0:
29,186,129787,1,0,0:0:0:0:
246,305,129947,1,2,0:0:0:0:
158,36,130106,1,0,0:0:0:0:
39,265,130266,1,10,0:0:0:0:
332,188,130425,1,8,0:0:0:0:
29,186,130585,6,0,B|81:181|113:226|113:226|170:243|211:199,1,200,6|0,0:0|0:0,0:0:0:0:
137,56,131064,1,2,0:0:0:0:
137,56,131223,2,0,P|139:111|153:171,1,100,0|2,0:0|0:0,0:0:0:0:
364,154,131542,2,0,P|373:105|375:56,1,100,8|0,0:0|0:0,0:0:0:0:
205,204,131862,2,0,P|145:232|99:217,1,100,2|0,0:0|0:0,0:0:0:0:
302,204,132181,2,0,P|362:232|408:217,1,100,2|0,0:0|0:0,0:0:0:0:
147,154,132500,5,2,0:0:0:0:
255,351,132659,1,0,0:0:0:0:
364,154,132819,1,0,0:0:0:0:
114,225,132979,1,2,0:0:0:0:
392,225,133138,1,0,0:0:0:0:
257,8,133298,1,2,0:0:0:0:
114,225,133457,5,8,0:0:0:0:
332,78,133617,1,0,0:0:0:0:
177,82,133776,1,2,0:0:0:0:
392,225,133936,1,0,0:0:0:0:
114,225,134096,1,2,0:0:0:0:
255,351,134255,1,0,0:0:0:0:
255,39,134415,6,0,L|255:141,1,100,2|0,0:0|0:0,0:0:0:0:
114,225,134734,1,0,0:0:0:0:
55,135,134893,1,2,0:0:0:0:
223,219,135053,1,0,0:0:0:0:
66,322,135213,1,2,0:0:0:0:
114,225,135372,6,0,P|140:175|153:126,1,100,8|0,0:0|0:0,0:0:0:0:
260,310,135691,2,0,P|234:260|221:211,1,100,2|0,0:0|0:0,0:0:0:0:
362,107,136011,2,0,L|253:118,1,100,2|0,0:0|0:0,0:0:0:0:
427,191,136330,5,2,0:0:0:0:
295,15,136489,1,0,0:0:0:0:
324,233,136649,1,0,0:0:0:0:
415,33,136808,1,2,0:0:0:0:
439,300,136968,1,0,0:0:0:0:
262,117,137128,1,2,0:0:0:0:
277,348,137287,5,8,0:0:0:0:
449,167,137447,1,0,0:0:0:0:
214,203,137606,1,2,0:0:0:0:
474,318,137766,1,0,0:0:0:0:
241,352,137925,1,10,0:0:0:0:
453,140,138085,1,8,0:0:0:0:
193,178,138245,6,0,P|109:191|82:253,1,150,6|0,0:0|0:0,0:0:0:0:
164,253,138564,2,0,B|161:207|193:178|193:178|162:155|168:111,1,150
248,120,138883,2,0,L|354:117,1,100,0|2,0:0|0:0,0:0:0:0:
263,250,139202,2,0,L|157:253,1,100,8|0,0:0|0:0,0:0:0:0:
370,363,139521,1,2,0:0:0:0:
360,208,139681,1,0,0:0:0:0:
227,368,139840,1,2,0:0:0:0:
496,355,140000,1,0,0:0:0:0:
347,117,140159,6,0,L|248:120,1,100,2|0,0:0|0:0,0:0:0:0:
363,286,140479,1,0,0:0:0:0:
465,114,140638,1,2,0:0:0:0:
263,220,140798,1,0,0:0:0:0:
375,29,140957,1,2,0:0:0:0:
486,227,141117,5,8,0:0:0:0:
247,120,141276,1,0,0:0:0:0:
465,114,141436,1,2,0:0:0:0:
277,321,141596,1,0,0:0:0:0:
191,54,141755,1,2,0:0:0:0:
363,286,141915,1,0,0:0:0:0:
76,318,142074,6,0,P|66:258|75:210,1,100,2|0,0:0|0:0,0:0:0:0:
127,135,142393,1,0,0:0:0:0:
164,261,142553,1,2,0:0:0:0:
10,143,142713,1,0,0:0:0:0:
247,120,142872,1,2,0:0:0:0:
72,2,143032,6,0,B|43:-2|26:19|26:19|56:31|75:13,1,100,8|0,0:0|0:0,0:0:0:0:
191,54,143351,1,2,0:0:0:0:
71,219,143511,1,0,0:0:0:0:
204,37,143670,1,2,0:0:0:0:
10,143,143830,1,0,0:0:0:0:
199,259,143989,5,2,0:0:0:0:
216,20,144149,1,0,0:0:0:0:
71,219,144308,1,0,0:0:0:0:
322,298,144468,1,2,0:0:0:0:
137,129,144628,1,0,0:0:0:0:
254,375,144787,1,2,0:0:0:0:
437,171,144947,5,8,0:0:0:0:
199,259,145106,1,0,0:0:0:0:
444,333,145266,1,2,0:0:0:0:
279,140,145425,1,0,0:0:0:0:
136,352,145585,1,10,0:0:0:0:
348,290,145745,1,8,0:0:0:0:
77,195,145904,6,0,P|48:127|130:42,1,200,6|0,0:0|0:0,0:0:0:0:
309,60,146383,1,2,0:0:0:0:
236,120,146542,2,0,P|175:127|131:129,1,100,0|2,0:0|0:0,0:0:0:0:
336,248,146862,2,0,P|329:187|327:143,1,100,8|0,0:0|0:0,0:0:0:0:
136,352,147181,2,0,P|143:291|145:247,1,100,2|0,0:0|0:0,0:0:0:0:
359,334,147500,2,0,P|298:327|254:325,1,100,2|0,0:0|0:0,0:0:0:0:
50,325,147819,5,2,0:0:0:0:
241,228,147979,1,0,0:0:0:0:
50,177,148138,1,0,0:0:0:0:
225,70,148298,1,2,0:0:0:0:
37,185,148457,1,0,0:0:0:0:
252,244,148617,1,2,0:0:0:0:
46,348,148776,5,8,0:0:0:0:
136,128,148936,1,0,0:0:0:0:
283,318,149096,1,2,0:0:0:0:
23,194,149255,1,0,0:0:0:0:
262,165,149415,1,2,0:0:0:0:
172,381,149574,1,0,0:0:0:0:
23,194,149734,6,0,P|11:139|30:95,1,100,2|0,0:0|0:0,0:0:0:0:
178,203,150053,1,0,0:0:0:0:
79,266,150213,1,2,0:0:0:0:
94,148,150372,1,0,0:0:0:0:
168,336,150532,1,2,0:0:0:0:
280,170,150691,6,0,P|292:115|273:71,1,100,8|0,0:0|0:0,0:0:0:0:
79,266,151011,1,2,0:0:0:0:
283,318,151170,1,0,0:0:0:0:
217,126,151330,1,2,0:0:0:0:
168,336,151489,1,0,0:0:0:0:
377,279,151649,5,2,0:0:0:0:
178,203,151808,1,0,0:0:0:0:
307,329,151968,1,2,0:0:0:0:
205,100,152128,1,0,0:0:0:0:
53,297,152287,1,2,0:0:0:0:
302,244,152447,1,0,0:0:0:0:
70,118,152606,5,8,0:0:0:0:
188,367,152766,1,2,0:0:0:0:
331,132,152925,5,8,0:0:0:0:
20,214,153085,1,8,0:0:0:0:
377,279,153245,5,2,0:0:0:0:
35,202,153404,1,2,0:0:0:0:
283,63,153576,6,0,B|359:33|401:95|401:95|430:133|487:119,2,220.000006713867,6|0|0,0:0|0:0|0:0,0:0:0:0:
460,46,154373,1,2,0:0:0:0:
490,199,154533,2,0,P|501:257|495:329,1,110.000003356934,8|0,0:0|0:0,0:0:0:0:
302,244,154852,2,0,P|300:189|311:135,1,110.000003356934,2|0,0:0|0:0,0:0:0:0:
232,283,155171,2,0,P|290:326|337:315,1,110.000003356934,2|0,0:0|0:0,0:0:0:0:
171,165,155490,5,2,0:0:0:0:
32,340,155650,1,0,0:0:0:0:
222,265,155810,1,0,0:0:0:0:
0,167,155969,1,2,0:0:0:0:
224,83,156129,1,0,0:0:0:0:
91,219,156288,1,2,0:0:0:0:
164,19,156448,6,0,P|239:0|295:135,1,220.000006713867,8|2,0:0|0:0,0:0:0:0:
287,180,156927,1,0,0:0:0:0:
475,157,157086,2,0,P|415:156|349:169,1,110.000003356934,2|0,0:0|0:0,0:0:0:0:
255,312,157405,6,0,B|266:271|235:237|235:237|199:203|212:160,1,165.000005035401,6|0,0:0|0:0,0:0:0:0:
287,180,157724,1,0,0:0:0:0:
181,293,157884,1,2,0:0:0:0:
224,83,158044,1,0,0:0:0:0:
339,334,158203,1,2,0:0:0:0:
382,124,158363,6,0,P|395:66|377:20,1,110.000003356934,8|0,0:0|0:0,0:0:0:0:
206,84,158682,2,0,P|266:74|325:75,1,110.000003356934,2|0,0:0|0:0,0:0:0:0:
424,199,159001,2,0,P|364:209|305:208,1,110.000003356934,2|0,0:0|0:0,0:0:0:0:
135,47,159320,6,0,B|106:98|135:156|171:133|197:197|160:255,2,220.000006713867,2|0|0,0:0|0:0|0:0,0:0:0:0:
98,203,160118,1,2,0:0:0:0:
272,235,160278,2,0,P|208:241|161:249,1,110.000003356934,8|0,0:0|0:0,0:0:0:0:
31,115,160597,2,0,P|68:167|98:204,1,110.000003356934,2|0,0:0|0:0,0:0:0:0:
48,384,160916,2,0,P|74:325|91:280,1,110.000003356934,2|0,0:0|0:0,0:0:0:0:
383,309,161235,6,0,P|295:316|159:334,1,220.000006713867,6|0,0:0|0:0,0:0:0:0:
379,208,161714,1,2,0:0:0:0:
440,359,161873,2,0,P|457:299|425:246,1,110.000003356934,0|2,0:0|0:0,0:0:0:0:
253,132,162193,5,8,0:0:0:0:
164,333,162352,1,0,0:0:0:0:
383,309,162512,1,2,0:0:0:0:
150,206,162671,5,0,0:0:0:0:
281,383,162831,1,2,0:0:0:0:
368,183,162990,1,0,0:0:0:0:
143,354,163150,5,2,0:0:0:0:
411,331,163310,1,0,0:0:0:0:
111,200,163469,1,0,0:0:0:0:
411,175,163629,1,2,0:0:0:0:
69,42,163788,1,0,0:0:0:0:
414,7,163948,1,2,0:0:0:0:
149,208,164107,6,0,B|106:228|57:195|57:195|97:225|95:271,1,165.000005035401,8|0,0:0|0:0,0:0:0:0:
25,369,164427,2,0,B|4:311|43:317|18:263,1,110.000003356934,2|0,0:0|0:0,0:0:0:0:
228,132,164746,2,0,B|203:185|242:179|221:238,1,110.000003356934,2|0,0:0|0:0,0:0:0:0:
99,337,165065,5,6,0:0:0:0:
297,161,165224,1,0,0:0:0:0:
45,35,165384,1,2,0:0:0:0:
221,238,165544,1,2,0:0:0:0:
378,22,165703,1,0,0:0:0:0:
136,175,165863,1,2,0:0:0:0:
361,350,166022,5,8,0:0:0:0:
215,108,166182,1,0,0:0:0:0:
226,328,166341,1,2,0:0:0:0:
412,121,166501,1,0,0:0:0:0:
153,27,166661,1,2,0:0:0:0:
312,270,166820,1,0,0:0:0:0:
481,32,166980,6,0,P|408:15|357:22,1,110.000003356934,2|0,0:0|0:0,0:0:0:0:
439,194,167299,1,2,0:0:0:0:
279,253,167458,2,0,B|335:225|399:243|381:283|439:295|497:256,1,220.000006713867,2|2,0:0|0:0,0:0:0:0:
403,99,167937,5,8,0:0:0:0:
213,338,168097,1,0,0:0:0:0:
487,262,168256,5,2,0:0:0:0:
193,154,168416,1,0,0:0:0:0:
424,19,168576,5,8,0:0:0:0:
243,238,168735,1,8,0:0:0:0:
53,25,168895,6,0,B|179:-8|138:89|283:49,1,220.000006713867,6|0,0:0|0:0,0:0:0:0:
344,36,169373,1,2,0:0:0:0:
122,211,169533,2,0,P|115:146|101:103,1,110.000003356934,0|2,0:0|0:0,0:0:0:0:
277,247,169852,2,0,P|283:182|297:139,1,110.000003356934,8|0,0:0|0:0,0:0:0:0:
102,291,170171,2,0,P|182:342|311:324,1,220.000006713867,2|2,0:0|0:0,0:0:0:0:
477,184,170650,1,0,0:0:0:0:
477,184,170810,6,0,B|374:166|393:278|259:242,1,220.000006713867,2|0,0:0|0:0,0:0:0:0:
467,372,171288,1,2,0:0:0:0:
467,372,171448,2,0,P|474:311|445:248,1,110.000003356934,0|2,0:0|0:0,0:0:0:0:
326,54,171767,2,0,P|309:105|317:159,1,110.000003356934,8|0,0:0|0:0,0:0:0:0:
454,46,172086,5,2,0:0:0:0:
204,18,172246,1,0,0:0:0:0:
477,184,172405,1,2,0:0:0:0:
198,251,172565,1,0,0:0:0:0:
430,53,172724,6,0,B|390:67|351:41|351:41|306:63|306:63|265:38|214:61,1,220.000006713867,6|0,0:0|0:0,0:0:0:0:
281,235,173203,1,2,0:0:0:0:
281,235,173363,2,0,P|274:169|257:116,1,110.000003356934,0|2,0:0|0:0,0:0:0:0:
114,329,173682,2,0,B|176:312|167:339|224:327,1,110.000003356934,8|0,0:0|0:0,0:0:0:0:
91,131,174001,5,2,0:0:0:0:
26,343,174161,1,0,0:0:0:0:
261,127,174320,1,2,0:0:0:0:
336,335,174480,1,0,0:0:0:0:
66,215,174639,6,0,B|128:221|163:176|163:176|203:222|265:209,1,220.000006713867,2|0,0:0|0:0,0:0:0:0:
317,139,175118,2,0,B|340:79|284:40|284:40|220:72|243:144,1,220.000006713867,2|0,0:0|0:0,0:0:0:0:
397,158,175597,2,0,P|408:97|399:47,1,110.000003356934,8|0,0:0|0:0,0:0:0:0:
163,176,175916,5,2,0:0:0:0:
465,210,176076,1,0,0:0:0:0:
167,277,176235,1,10,0:0:0:0:
459,103,176395,1,8,0:0:0:0:
150,95,176554,6,0,P|94:129|93:229,1,165.000005035401,6|0,0:0|0:0,0:0:0:0:
163,195,176873,2,0,L|288:208,1,110.000003356934,0|2,0:0|0:0,0:0:0:0:
272,349,177193,2,0,L|147:362,1,110.000003356934,0|2,0:0|0:0,0:0:0:0:
237,100,177512,5,8,0:0:0:0:
432,181,177671,1,0,0:0:0:0:
167,277,177831,1,2,0:0:0:0:
268,22,177990,1,0,0:0:0:0:
372,287,178150,1,2,0:0:0:0:
476,24,178310,1,0,0:0:0:0:
265,103,178469,6,0,P|208:84|181:39,1,110.000003356934,2|0,0:0|0:0,0:0:0:0:
383,177,178788,2,0,P|375:232|371:291,1,110.000003356934,0|2,0:0|0:0,0:0:0:0:
268,22,179107,2,0,P|323:30|382:34,1,110.000003356934,0|2,0:0|0:0,0:0:0:0:
449,296,179427,6,0,P|455:226|475:126,1,165.000005035401,8|0,0:0|0:0,0:0:0:0:
498,57,179746,1,2,0:0:0:0:
265,103,179905,1,0,0:0:0:0:
480,264,180065,1,2,0:0:0:0:
247,196,180224,1,0,0:0:0:0:
470,49,180384,5,6,0:0:0:0:
371,286,180544,1,0,0:0:0:0:
215,81,180703,1,2,0:0:0:0:
429,191,180863,1,2,0:0:0:0:
158,178,181022,1,0,0:0:0:0:
379,86,181182,1,2,0:0:0:0:
213,282,181341,5,8,0:0:0:0:
60,77,181501,1,0,0:0:0:0:
336,208,181661,1,2,0:0:0:0:
85,382,181820,1,0,0:0:0:0:
215,81,181980,1,2,0:0:0:0:
415,351,182139,1,0,0:0:0:0:
132,163,182299,5,6,0:0:0:0:
440,148,182458,1,0,0:0:0:0:
298,338,182618,1,2,0:0:0:0:
280,12,182778,2,0,B|346:108|246:124|321:235,1,220.000006713867,2|0,0:0|0:0,0:0:0:0:
402,364,183256,5,8,0:0:0:0:
181,62,183416,1,2,0:0:0:0:
123,369,183576,5,8,0:0:0:0:
374,32,183735,1,2,0:0:0:0:
389,377,183895,5,8,0:0:0:0:
136,28,184054,1,2,0:0:0:0:
115,377,184214,5,6,0:0:0:0:
170,380,184294,1,0,0:0:0:0:
221,362,184373,1,0,0:0:0:0:
252,317,184453,1,0,0:0:0:0:
255,262,184533,1,8,0:0:0:0:
234,211,184613,1,0,0:0:0:0:
189,180,184693,1,0,0:0:0:0:
135,174,184772,1,0,0:0:0:0:
85,196,184852,1,8,0:0:0:0:
54,241,184932,1,0,0:0:0:0:
45,295,185012,1,0,0:0:0:0:
72,342,185091,1,0,0:0:0:0:
115,377,185171,5,8,0:0:0:0:
129,334,185251,1,0,0:0:0:0:
116,285,185331,1,0,0:0:0:0:
79,251,185411,1,0,0:0:0:0:
41,220,185490,1,8,0:0:0:0:
23,173,185570,1,0,0:0:0:0:
30,123,185650,1,2,0:0:0:0:
63,84,185730,1,0,0:0:0:0:
109,66,185810,1,8,0:0:0:0:
158,70,185889,1,0,0:0:0:0:
198,99,185969,1,0,0:0:0:0:
213,147,186049,1,0,0:0:0:0:
210,197,186129,5,8,0:0:0:0:
215,236,186208,1,0,0:0:0:0:
245,262,186288,1,0,0:0:0:0:
284,269,186368,1,0,0:0:0:0:
322,256,186448,1,8,0:0:0:0:
342,221,186528,1,0,0:0:0:0:
339,181,186607,1,0,0:0:0:0:
313,150,186687,1,0,0:0:0:0:
299,113,186767,1,8,0:0:0:0:
307,73,186847,1,0,0:0:0:0:
332,42,186927,1,0,0:0:0:0:
371,33,187006,1,0,0:0:0:0:
410,42,187086,5,8,0:0:0:0:
437,78,187166,1,0,0:0:0:0:
442,123,187246,1,0,0:0:0:0:
417,161,187326,1,0,0:0:0:0:
375,176,187405,1,8,0:0:0:0:
330,168,187485,1,0,0:0:0:0:
285,176,187565,1,2,0:0:0:0:
247,200,187645,1,0,0:0:0:0:
228,241,187724,1,8,0:0:0:0:
233,286,187804,1,0,0:0:0:0:
259,323,187884,1,0,0:0:0:0:
302,337,187964,1,0,0:0:0:0:
347,335,188044,6,0,L|398:326,3,50,6|0|0|0,0:0|0:0|0:0|0:0,0:0:0:0:
259,247,188363,2,0,L|309:256,3,50,8|0|0|0,0:0|0:0|0:0|0:0,0:0:0:0:
165,335,188682,2,0,L|214:326,3,50,8|0|0|0,0:0|0:0|0:0|0:0,0:0:0:0:
28,215,189001,5,8,0:0:0:0:
23,268,189081,1,0,0:0:0:0:
18,321,189161,2,0,L|14:376,1,50
149,96,189320,5,8,0:0:0:0:
154,149,189400,1,0,0:0:0:0:
159,202,189480,2,0,L|163:257,1,50,2|0,0:0|0:0,0:0:0:0:
18,29,189639,5,8,0:0:0:0:
71,24,189719,1,0,0:0:0:0:
124,19,189799,2,0,L|179:15,1,50
311,4,189958,5,8,0:0:0:0:
369,9,190038,1,0,0:0:0:0:
421,35,190118,1,0,0:0:0:0:
441,89,190198,1,0,0:0:0:0:
432,147,190278,1,8,0:0:0:0:
390,186,190357,1,0,0:0:0:0:
334,200,190437,1,0,0:0:0:0:
287,233,190517,1,0,0:0:0:0:
274,289,190597,1,8,0:0:0:0:
303,339,190677,1,0,0:0:0:0:
358,355,190756,1,0,0:0:0:0:
413,335,190836,1,0,0:0:0:0:
427,279,190916,6,0,P|408:269|378:261,1,50,8|0,0:0|0:0,0:0:0:0:
118,161,191076,2,0,P|137:171|167:179,1,50
298,383,191235,6,0,P|297:358|290:334,1,50,12|0,0:0|0:0,0:0:0:0:
242,70,191395,2,0,P|243:95|250:119,1,50
144,324,191554,6,0,P|165:310|182:292,1,50,12|0,0:0|0:0,0:0:0:0:
399,114,191714,2,0,P|378:128|361:146,1,50
83,171,191873,5,6,0:0:0:0:
23,152,191953,1,0,0:0:0:0:
0,93,192033,1,0,0:0:0:0:
21,34,192113,1,0,0:0:0:0:
80,11,192193,1,8,0:0:0:0:
137,36,192272,1,0,0:0:0:0:
150,98,192352,1,0,0:0:0:0:
193,144,192432,1,0,0:0:0:0:
256,153,192512,1,8,0:0:0:0:
310,123,192591,1,0,0:0:0:0:
330,63,192671,1,0,0:0:0:0:
385,31,192751,1,0,0:0:0:0:
447,45,192831,5,8,0:0:0:0:
479,99,192911,1,0,0:0:0:0:
464,160,192990,1,0,0:0:0:0:
413,198,193070,1,0,0:0:0:0:
361,235,193150,1,8,0:0:0:0:
350,297,193230,1,0,0:0:0:0:
386,348,193310,1,2,0:0:0:0:
448,356,193389,1,0,0:0:0:0:
498,318,193469,1,8,0:0:0:0:
509,258,193549,1,0,0:0:0:0:
476,204,193629,1,0,0:0:0:0:
413,198,193708,1,0,0:0:0:0:
361,235,193788,5,8,0:0:0:0:
350,297,193868,1,0,0:0:0:0:
304,340,193948,1,0,0:0:0:0:
241,336,194028,1,0,0:0:0:0:
190,299,194107,1,8,0:0:0:0:
179,237,194187,1,0,0:0:0:0:
205,179,194267,1,0,0:0:0:0:
194,117,194347,1,0,0:0:0:0:
152,69,194427,1,8,0:0:0:0:
89,66,194506,1,0,0:0:0:0:
34,98,194586,1,0,0:0:0:0:
11,158,194666,1,0,0:0:0:0:
27,220,194746,5,8,0:0:0:0:
59,248,194826,1,0,0:0:0:0:
99,262,194905,1,0,0:0:0:0:
142,259,194985,1,0,0:0:0:0:
179,237,195065,1,8,0:0:0:0:
203,201,195145,1,0,0:0:0:0:
226,166,195224,1,2,0:0:0:0:
263,144,195304,1,0,0:0:0:0:
306,140,195384,1,8,0:0:0:0:
346,156,195464,1,0,0:0:0:0:
373,189,195544,1,0,0:0:0:0:
375,231,195623,1,0,0:0:0:0:
356,269,195703,5,6,0:0:0:0:
362,334,195783,1,0,0:0:0:0:
422,364,195863,1,0,0:0:0:0:
486,347,195943,1,0,0:0:0:0:
502,284,196022,1,8,0:0:0:0:
476,226,196102,1,0,0:0:0:0:
411,218,196182,1,0,0:0:0:0:
345,230,196262,1,0,0:0:0:0:
284,207,196341,1,8,0:0:0:0:
263,144,196421,1,0,0:0:0:0:
298,86,196501,1,0,0:0:0:0:
363,71,196581,1,0,0:0:0:0:
418,109,196661,6,0,P|444:124|481:133,3,50,8|0|0|0,0:0|0:0|0:0|0:0,0:0:0:0:
298,86,196980,2,0,P|315:110|344:134,3,50,8|0|2|0,0:0|0:0|0:0|0:0,0:0:0:0:
203,12,197299,2,0,P|208:41|225:75,3,50,8|0|0|0,0:0|0:0|0:0|0:0,0:0:0:0:
76,6,197618,5,8,0:0:0:0:
100,82,197698,1,0,0:0:0:0:
96,161,197778,1,0,0:0:0:0:
56,229,197857,1,0,0:0:0:0:
47,307,197937,1,8,0:0:0:0:
98,368,198017,1,0,0:0:0:0:
177,376,198097,1,0,0:0:0:0:
235,322,198177,1,0,0:0:0:0:
232,244,198256,1,8,0:0:0:0:
205,169,198336,1,0,0:0:0:0:
213,90,198416,1,0,0:0:0:0:
265,30,198496,1,0,0:0:0:0:
344,15,198576,6,0,P|421:23|462:89,1,150,8|0,0:0|0:0,0:0:0:0:
438,154,198895,2,0,P|419:215|410:335,1,150,4|0,0:0|0:0,0:0:0:0:
328,283,199214,2,0,P|337:213|376:86,1,200,8|0,0:0|0:0,0:0:0:0:
156,234,200490,6,0,B|247:226|247:226|314:247|314:247|407:239,1,239.999992675781,6|0,0:0|0:0,0:0:0:0:
126,312,200968,1,2,0:0:0:0:
126,312,201128,2,0,P|75:257|83:192,1,119.999996337891,0|2,0:0|0:0,0:0:0:0:
342,43,201447,2,0,P|330:118|326:180,1,119.999996337891,8|0,0:0|0:0,0:0:0:0:
106,17,201766,5,2,0:0:0:0:
435,52,201926,1,0,0:0:0:0:
96,33,202085,1,2,0:0:0:0:
446,31,202245,1,0,0:0:0:0:
73,124,202404,6,0,B|147:124|173:68|173:68|200:11|274:14,1,239.999992675781,2|0,0:0|0:0,0:0:0:0:
259,219,202883,2,0,L|252:89,1,119.999996337891,2|0,0:0|0:0,0:0:0:0:
116,272,203202,1,2,0:0:0:0:
116,272,203362,2,0,P|107:159|94:13,2,239.999992675781,8|2|2,0:0|0:0|0:0,0:0:0:0:
244,380,204160,1,0,0:0:0:0:
291,313,204319,6,0,B|228:280|165:307|196:350|136:380|57:345,1,239.999992675781,6|0,0:0|0:0,0:0:0:0:
318,236,204798,2,0,P|363:280|367:342,1,119.999996337891,2|0,0:0|0:0,0:0:0:0:
116,272,205117,1,2,0:0:0:0:
116,272,205277,2,0,P|112:215|106:149,1,119.999996337891,8|0,0:0|0:0,0:0:0:0:
299,144,205596,2,0,P|251:175|197:214,1,119.999996337891,2|0,0:0|0:0,0:0:0:0:
96,49,205915,2,0,P|147:74|207:101,1,119.999996337891,2|0,0:0|0:0,0:0:0:0:
469,181,206234,6,0,B|406:194|366:127|397:126|367:55|281:60,2,239.999992675781,2|0|0,0:0|0:0|0:0,0:0:0:0:
469,181,207192,1,8,0:0:0:0:
126,154,207351,1,0,0:0:0:0:
388,378,207511,1,2,0:0:0:0:
307,43,207670,1,2,0:0:0:0:
175,361,207830,1,8,0:0:0:0:
469,181,207990,1,8,0:0:0:0:
126,154,208149,6,0,B|179:146|211:189|211:189|241:230|295:222|295:222|264:213|252:191,1,239.999992675781,6|0,0:0|0:0,0:0:0:0:
137,351,208628,1,2,0:0:0:0:
137,351,208787,2,0,P|128:285|145:228,1,119.999996337891,0|2,0:0|0:0,0:0:0:0:
310,30,209107,2,0,P|324:87|314:146,1,119.999996337891,8|0,0:0|0:0,0:0:0:0:
77,46,209426,5,2,0:0:0:0:
409,54,209585,1,0,0:0:0:0:
46,300,209745,1,2,0:0:0:0:
427,315,209904,1,0,0:0:0:0:
69,53,210064,6,0,B|121:92|181:58|181:58|191:71|191:71|246:43|297:82,1,239.999992675781,2|0,0:0|0:0,0:0:0:0:
363,176,210543,2,0,B|323:164|287:195|287:195|249:225|206:191|206:191|204:134|259:137,1,239.999992675781,2|0,0:0|0:0,0:0:0:0:
354,361,211021,2,0,P|366:294|337:243,1,119.999996337891,8|0,0:0|0:0,0:0:0:0:
67,320,211341,5,2,0:0:0:0:
462,240,211500,1,8,0:0:0:0:
73,221,211660,1,2,0:0:0:0:
453,345,211819,1,2,0:0:0:0:
286,21,211979,5,6,0:0:0:0:
158,319,212138,1,0,0:0:0:0:
437,153,212298,1,2,0:0:0:0:
114,124,212458,1,2,0:0:0:0:
358,338,212617,1,0,0:0:0:0:
286,21,212777,1,2,0:0:0:0:
151,327,212936,5,8,0:0:0:0:
448,150,213096,1,0,0:0:0:0:
104,119,213255,1,2,0:0:0:0:
364,347,213415,1,0,0:0:0:0:
287,9,213575,1,2,0:0:0:0:
151,327,213734,1,0,0:0:0:0:
459,148,213894,5,6,0:0:0:0:
96,115,214053,1,2,0:0:0:0:
370,355,214213,1,2,0:0:0:0:
289,0,214372,2,0,P|282:88|269:276,1,239.999992675781,2|2,0:0|0:0,0:0:0:0:
443,149,214851,5,8,0:0:0:0:
70,111,215011,1,8,0:0:0:0:
459,148,215170,5,2,0:0:0:0:
45,200,215330,1,2,0:0:0:0:
477,146,215490,5,2,0:0:0:0:
73,285,215649,1,2,0:0:0:0:
286,21,215809,6,0,B|344:-17|415:-4|383:43|457:56|510:16,1,239.999992675781,6|0,0:0|0:0,0:0:0:0:
327,202,216287,1,2,0:0:0:0:
327,202,216447,2,0,P|338:121|349:75,1,119.999996337891,0|2,0:0|0:0,0:0:0:0:
78,319,216766,2,0,P|67:238|56:192,1,119.999996337891,8|0,0:0|0:0,0:0:0:0:
350,280,217085,2,0,P|284:274|244:224,1,119.999996337891,2|0,0:0|0:0,0:0:0:0:
423,317,217404,2,0,P|372:359|308:352,1,119.999996337891,2|0,0:0|0:0,0:0:0:0:
435,196,217724,6,0,B|471:195|490:163|490:163|461:231|486:272|486:272|508:303|492:347,1,239.999992675781,2|0,0:0|0:0,0:0:0:0:
425,116,218202,2,0,B|359:131|350:191|350:191|330:149|281:149|281:149|303:137|314:105,1,239.999992675781,2|0,0:0|0:0,0:0:0:0:
124,68,218681,2,0,P|196:75|263:86,1,119.999996337891,8|0,0:0|0:0,0:0:0:0:
139,270,219000,1,2,0:0:0:0:
45,12,219160,1,2,0:0:0:0:
313,44,219319,1,8,0:0:0:0:
18,189,219479,1,8,0:0:0:0:
292,371,219638,6,0,P|325:258|281:149,1,239.999992675781,6|0,0:0|0:0,0:0:0:0:
119,289,220117,1,2,0:0:0:0:
439,258,220277,1,0,0:0:0:0:
247,3,220436,1,2,0:0:0:0:
98,314,220596,2,0,P|158:337|215:325,1,119.999996337891,8|0,0:0|0:0,0:0:0:0:
504,193,220915,2,0,P|444:170|387:182,1,119.999996337891,2|2,0:0|0:0,0:0:0:0:
493,334,221234,1,8,0:0:0:0:
437,35,221394,1,8,0:0:0:0:
165,167,221553,6,0,P|259:206|396:175,2,239.999992675781,2|0|0,0:0|0:0|0:0,0:0:0:0:
112,98,222351,1,2,0:0:0:0:
296,66,222511,1,8,0:0:0:0:
135,243,222670,1,0,0:0:0:0:
49,18,222830,1,2,0:0:0:0:
315,64,222990,1,0,0:0:0:0:
28,112,223149,1,2,0:0:0:0:
276,208,223309,1,0,0:0:0:0:
5,255,223468,6,0,P|46:322|148:315,1,179.999994506836,6|0,0:0|0:0,0:0:0:0:
135,243,223787,2,0,L|125:122,1,119.999996337891,0|2,0:0|0:0,0:0:0:0:
304,213,224107,2,0,L|204:282,1,119.999996337891,0|2,0:0|0:0,0:0:0:0:
194,82,224426,2,0,L|303:133,1,119.999996337891,8|0,0:0|0:0,0:0:0:0:
439,109,224745,2,0,B|352:126|400:200|300:213,1,179.999994506836,2|0,0:0|0:0,0:0:0:0:
302,133,225064,1,2,0:0:0:0:
455,185,225224,1,0,0:0:0:0:
328,288,225383,6,0,P|206:295|101:215,1,239.999992675781,2|0,0:0|0:0,0:0:0:0:
47,376,225862,1,2,0:0:0:0:
47,376,226021,2,0,P|42:316|30:253,1,119.999996337891,0|2,0:0|0:0,0:0:0:0:
197,61,226341,2,0,P|186:119|181:179,1,119.999996337891,8|0,0:0|0:0,0:0:0:0:
55,24,226660,5,2,0:0:0:0:
414,57,226819,1,0,0:0:0:0:
40,23,226979,1,2,0:0:0:0:
440,59,227138,1,0,0:0:0:0:
143,310,227298,5,6,0:0:0:0:
168,22,227458,1,0,0:0:0:0:
313,342,227617,1,2,0:0:0:0:
297,36,227777,1,2,0:0:0:0:
483,357,227936,1,0,0:0:0:0:
428,32,228096,1,2,0:0:0:0:
140,191,228255,5,8,0:0:0:0:
488,139,228415,1,0,0:0:0:0:
100,101,228575,1,2,0:0:0:0:
433,223,228734,1,0,0:0:0:0:
39,179,228894,1,2,0:0:0:0:
387,131,229053,1,0,0:0:0:0:
1,84,229213,5,6,0:0:0:0:
336,213,229372,1,0,0:0:0:0:
7,319,229532,1,0,0:0:0:0:
138,14,229692,2,0,B|239:-8|219:68|332:37,1,179.999994506836
385,26,230011,1,2,0:0:0:0:
399,79,230091,1,2,0:0:0:0:
387,131,230170,6,0,L|327:135,1,59.9999981689454,8|2,0:0|0:0,0:0:0:0:
8,181,230330,2,0,L|68:177,1,59.9999981689454,2|2,0:0|0:0,0:0:0:0:
399,296,230490,6,0,L|339:300,1,59.9999981689454,2|2,0:0|0:0,0:0:0:0:
20,346,230649,2,0,L|80:342,1,59.9999981689454,2|2,0:0|0:0,0:0:0:0:
177,91,230809,5,8,0:0:0:0:
216,372,230968,1,8,0:0:0:0:
67,177,231128,6,0,P|55:123|72:75,1,100,6|0,0:0|0:0,0:0:0:0:
340,204,231447,2,0,P|352:258|335:306,1,100,0|2,0:0|0:0,0:0:0:0:
250,175,231766,1,0,0:0:0:0:
250,175,231926,1,2,0:0:0:0:
127,244,232085,6,0,B|213:214|198:277|294:246,1,150,8|0,0:0|0:0,0:0:0:0:
250,175,232404,1,2,0:0:0:0:
167,313,232564,1,8,0:0:0:0:
367,186,232724,1,2,0:0:0:0:
158,77,232883,1,2,0:0:0:0:
272,252,233043,6,0,B|303:301|269:347|269:347|266:320|246:297,1,150,6|0,0:0|0:0,0:0:0:0:
194,349,233362,1,0,0:0:0:0:
276,100,233521,1,2,0:0:0:0:
402,274,233681,1,0,0:0:0:0:
85,178,233841,1,2,0:0:0:0:
305,26,234000,2,0,P|347:65|353:122,1,100,8|0,0:0|0:0,0:0:0:0:
108,4,234319,5,2,0:0:0:0:
327,1,234479,1,8,0:0:0:0:
92,146,234638,1,6,0:0:0:0:
367,186,234798,1,0,0:0:0:0:
68,271,234958,6,0,B|151:254|137:315|223:300,1,150,6|0,0:0|0:0,0:0:0:0:
287,316,235277,2,0,P|266:247|198:223,1,150
210,301,235596,1,0,0:0:0:0:
422,267,235755,1,2,0:0:0:0:
286,102,235915,5,8,0:0:0:0:
319,313,236075,1,0,0:0:0:0:
420,74,236234,1,2,0:0:0:0:
160,109,236394,1,8,0:0:0:0:
426,174,236553,1,2,0:0:0:0:
213,29,236713,1,2,0:0:0:0:
194,286,236872,5,2,0:0:0:0:
194,286,236952,1,0,0:0:0:0:
194,286,237032,1,0,0:0:0:0:
297,83,237192,1,0,0:0:0:0:
43,110,237351,1,2,0:0:0:0:
311,203,237511,1,0,0:0:0:0:
54,228,237670,1,2,0:0:0:0:
164,17,237830,5,12,0:0:0:0:
197,302,237990,1,0,0:0:0:0:
292,36,238149,5,10,0:0:0:0:
310,284,238309,1,0,0:0:0:0:
409,29,238468,5,12,0:0:0:0:
417,277,238628,1,0,0:0:0:0:
198,159,238787,6,0,P|146:148|101:156,2,100,6|0|0,0:0|0:0|0:0,0:0:0:0:
167,330,239266,1,2,0:0:0:0:
167,330,239426,2,0,P|157:269|148:228,1,100,0|2,0:0|0:0,0:0:0:0:
380,281,239745,2,0,P|319:291|278:300,1,100,8|0,0:0|0:0,0:0:0:0:
379,78,240064,5,2,0:0:0:0:
426,366,240224,1,8,0:0:0:0:
237,233,240383,1,2,0:0:0:0:
511,195,240543,1,2,0:0:0:0:
338,4,240702,6,0,P|299:41|291:88,1,100,2|0,0:0|0:0,0:0:0:0:
467,84,241021,2,0,P|454:31|417:1,1,100,0|2,0:0|0:0,0:0:0:0:
333,155,241341,2,0,P|384:170|429:153,1,100,0|2,0:0|0:0,0:0:0:0:
192,28,241660,5,8,0:0:0:0:
101,43,241819,1,0,0:0:0:0:
10,58,241979,1,2,0:0:0:0:
83,179,242138,5,0,0:0:0:0:
132,261,242298,1,2,0:0:0:0:
111,354,242458,1,0,0:0:0:0:
212,249,242617,6,0,P|281:251|330:258,1,100,6|0,0:0|0:0,0:0:0:0:
482,282,242936,1,0,0:0:0:0:
408,318,243096,6,0,P|400:268|424:226,1,100,2|0,0:0|0:0,0:0:0:0:
494,204,243415,1,2,0:0:0:0:
479,361,243575,5,8,0:0:0:0:
351,262,243734,1,0,0:0:0:0:
494,204,243894,1,2,0:0:0:0:
334,337,244053,5,0,0:0:0:0:
482,282,244213,1,2,0:0:0:0:
360,187,244372,1,8,0:0:0:0:
212,242,244532,6,0,P|152:262|103:274,1,100,2|0,0:0|0:0,0:0:0:0:
69,108,244851,2,0,P|116:149|151:186,1,100,0|2,0:0|0:0,0:0:0:0:
25,299,245170,2,0,P|37:237|51:188,1,100,0|2,0:0|0:0,0:0:0:0:
179,58,245490,5,8,0:0:0:0:
377,354,245649,1,8,0:0:0:0:
356,46,245809,5,2,0:0:0:0:
199,365,245968,1,2,0:0:0:0:
455,194,246128,5,2,0:0:0:0:
100,217,246287,1,2,0:0:0:0:
278,206,246447,5,4,0:0:0:0:
