osu file format v14

[General]
AudioFilename: audio.mp3
AudioLeadIn: 0
PreviewTime: -1
Countdown: 0
SampleSet: Normal
StackLeniency: 0.2
Mode: 0
LetterboxInBreaks: 0
WidescreenStoryboard: 1

[Editor]
DistanceSpacing: 1.6
BeatDivisor: 4
GridSize: 4
TimelineZoom: 1

[Metadata]
Title:Mii Channel Music (VGR Remix) speed up 1.5x
TitleUnicode:Mii Channel Music (VGR Remix) speed up 1.5x
Artist:Video Gaming Remixes
ArtistUnicode:Video Gaming Remixes
Creator:Flapster
Version:Tumourous Nintendo Bullshit
Source:
Tags:mii channel Music remix wtf VGR speed up
BeatmapID:2126513
BeatmapSetID:1010662

[Difficulty]
HPDrainRate:7.3
CircleSize:5
OverallDifficulty:9
ApproachRate:9.5
SliderMultiplier:1.4
SliderTickRate:1

[Events]
//Background and Video events
0,0,"artworks-000267824063-trv94b-t500x500.jpg",0,0
//Break Periods
//Storyboard Layer 0 (Background)
//Storyboard Layer 1 (Fail)
//Storyboard Layer 2 (Pass)
//Storyboard Layer 3 (Foreground)
//Storyboard Sound Samples

[TimingPoints]
60,300,4,1,0,75,1,0
60,-60.5611297958819,4,1,0,75,0,0
1110,-63.5188584410761,4,1,0,75,0,0
2310,-65.8084548277619,4,1,0,75,0,0
2910,-61.0429414041982,4,1,0,75,0,0
3660,-59.6212689078216,4,1,0,75,0,0
5460,-60.4729147479494,4,1,0,75,0,0
9060,-30.4416486057854,4,1,0,75,0,0
9360,-30.8076778498488,4,1,0,75,0,0
9510,-66.6666666666667,4,1,0,75,0,0
9660,-39.3929779075963,4,1,0,75,0,0
10110,-39.4261965322959,4,1,0,75,0,0
10710,-40.2309577283353,4,1,0,75,0,0
12060,-40.7326652291074,4,1,0,75,0,0
12510,-38.9612399240917,4,1,0,75,0,0
13260,-39.6600477853291,4,1,0,75,0,0
14460,-39.9005233500637,4,1,0,75,0,0
14760,-40.2791738570296,4,1,0,75,0,0
15510,-40.5324574188877,4,1,0,75,0,0
15810,-40.8455703247366,4,1,0,75,0,0
16110,-41.1515710750376,4,1,0,75,0,0
16410,-41.1055842344723,4,1,0,75,0,0
17910,-40.1876039963784,4,1,0,75,0,0
18360,-40.5750264800084,4,1,0,75,0,0
19860,-19.9345243999911,4,1,0,75,0,0
20160,-18.8452711445686,4,1,0,75,0,0
20460,-19.6655817254706,4,1,0,75,0,0
20610,-66.6666666666667,4,1,0,75,0,0
20910,-41.0805147838061,4,1,0,75,0,0
21360,-40.4470814861856,4,1,0,75,0,0
21810,-40.5151312667243,4,1,0,75,0,0
22260,-40.6653460019245,4,1,0,75,0,0
22560,-40.7140857810153,4,1,0,75,0,0
23160,-41.887779093686,4,1,0,75,0,0
23460,-39.932009861745,4,1,0,75,0,0
24060,-20.0069697357691,4,1,0,75,0,0
24360,-19.7845125876068,4,1,0,75,0,0
24660,-19.9755156157135,4,1,0,75,0,0
24960,-19.618649848031,4,1,0,75,0,0
25260,-19.625712701383,4,1,0,75,0,0
25485,-66.6666666666667,4,1,0,75,0,0
25860,-40.6862151717501,4,1,0,75,0,0
26160,-40.7685214613344,4,1,0,75,0,0
26760,-41.0704833947396,4,1,0,75,0,0
27060,-39.7607004182959,4,1,0,75,0,0
27360,-21.0124563256883,4,1,0,75,0,0
27360,-66.6666666666667,4,1,0,75,0,0
27360,-33.3333333333333,4,1,0,75,0,0
27510,-66.6666666666667,4,1,0,75,0,0
27660,-40.5244541247284,4,1,0,75,0,0
27960,-40.9909303541924,4,1,0,75,0,0
28260,-40.3314210868349,4,1,0,75,0,0
28560,-40.8040702967335,4,1,0,75,0,0
28860,-40.038062124981,4,1,0,75,0,0
28876,-50,4,1,0,75,0,0
29160,-30.6913584661202,4,1,0,75,0,0
29460,-30.6980196414048,4,1,0,75,0,0
29760,-29.4235846324547,4,1,0,75,0,0
30060,-24.4985793268348,4,1,0,75,0,0
30360,-39.1548096775968,4,1,0,75,0,0
30660,-40.6158513304265,4,1,0,75,0,0
30960,-40.7166320974884,4,1,0,75,0,0
31260,-40.0127433485542,4,1,0,75,0,0
31710,-40.1856123375694,4,1,0,75,0,0
32010,-40.1170898029471,4,1,0,75,0,0
32460,-41.2389155136672,4,1,0,75,0,0
33060,-40.9041450381278,4,1,0,75,0,0
33360,-40.150238762149,4,1,0,75,0,0
33660,-30.0352311845804,4,1,0,75,0,0
33810,-33.3333333333333,4,1,0,75,0,0
33960,-19.5489685689747,4,1,0,75,0,0
34110,-50,4,1,0,75,0,0
34260,-29.5236961615794,4,1,0,75,0,0
34560,-29.6005237389106,4,1,0,75,0,0
34860,-30.0905798034974,4,1,0,75,0,0
35010,-66.6666666666667,4,1,0,75,0,0
35460,-39.723072349483,4,1,0,75,0,0
35760,-40.4782042452254,4,1,0,75,0,0
36360,-40.3741927020457,4,1,0,75,0,0
36810,-41.1364762031632,4,1,0,75,0,0
37260,-40.5589735629503,4,1,0,75,0,0
38010,-40.8977680854453,4,1,0,75,0,0
38310,-40.4505509266278,4,1,0,75,0,0
39960,-39.6841100040405,4,1,0,75,0,0
40260,-40.5212361295499,4,1,0,75,0,0
41310,-40.9498544981234,4,1,0,75,0,0
41610,-40.9096601857462,4,1,0,75,0,0
42210,-41.1494904377684,4,1,0,75,0,0
42810,-40.1518181410398,4,1,0,75,0,0
43110,-39.0991956564878,4,1,0,75,0,0
43710,-40.4729980626784,4,1,0,75,0,0
44010,-33.045775494472,4,1,0,75,0,0
44160,-31.8946242384467,4,1,0,75,0,0
44310,-32.5095796857232,4,1,0,75,0,0
44476,-66.6666666666667,4,1,0,75,0,0
44760,-40.9265366069636,4,1,0,75,0,0
45210,-39.9061779311185,4,1,0,75,0,0
45810,-39.6116926707439,4,1,0,75,0,0
47610,-42.9572978468202,4,1,0,75,0,0
47760,-43.2774215301839,4,1,0,75,0,0
47910,-46.8306408067518,4,1,0,75,0,0
48060,-48.3128932796983,4,1,0,75,0,0
48660,-40.982244486187,4,1,0,75,0,0
48885,-50,4,1,0,75,0,0
48960,-29.6111566745581,4,1,0,75,0,0
49185,-66.6666666666667,4,1,0,75,0,0
49560,-36.4702708033406,4,1,0,75,0,0
51810,-40.1668395646072,4,1,0,75,0,0
52410,-38.744168255949,4,1,0,75,0,0
52860,-29.6073287568584,4,1,0,75,0,0
53460,-66.6666666666667,4,1,0,75,0,0
54060,-39.6841100040404,4,1,0,75,0,0
54810,-40.763748005147,4,1,0,75,0,0
55110,-39.9732099059714,4,1,0,75,0,0
55710,-40.5117815063801,4,1,0,75,0,0
56010,-40.9328514641457,4,1,0,75,0,0
56910,-45.6490152512032,4,1,0,75,0,0
57060,-47.2949117124552,4,1,0,75,0,0
57210,-46.7944938729724,4,1,0,75,0,0
57360,-47.4550575227828,4,1,0,75,0,0
57510,-47.2949117124552,4,1,0,75,0,0
59460,-29.6014783567125,4,1,0,75,0,0
59760,-29.2586309573151,4,1,0,75,0,0
60060,-30.4032472776728,4,1,0,75,0,0
60210,-66.6666666666667,4,1,0,75,0,0
60510,-40.1694162004612,4,1,0,75,0,0
60960,-40.0186534211311,4,1,0,75,0,0
61560,-41.0274005592581,4,1,0,75,0,0
61860,-40.5700307221292,4,1,0,75,0,0
62310,-40.6374959829096,4,1,0,75,0,0
62610,-40.4218662268379,4,1,0,75,0,0
63060,-30.1626526069712,4,1,0,75,0,0
63210,-40,4,1,0,75,0,0
63360,-24.3232710554931,4,1,0,75,0,0
63510,-33.3333333333333,4,1,0,75,0,0
63660,-19.6960800632388,4,1,0,75,0,0
63810,-33.3333333333333,4,1,0,75,0,0
63960,-19.8603123516913,4,1,0,75,0,0
64260,-15.153167263207,4,1,0,75,0,0
64560,-15.153167263207,4,1,0,75,0,0
64710,-66.6666666666667,4,1,0,75,0,0
64860,-39.9707009777015,4,1,0,75,0,0
65310,-40.321612931344,4,1,0,75,0,0
65610,-40.2163964518259,4,1,0,75,0,0
65910,-40.2464961357067,4,1,0,75,0,0
66660,-40.7617212866072,4,1,0,75,0,0
67110,-40.1712497663268,4,1,0,75,0,0
67860,-40.7527871378131,4,1,0,75,0,0
68160,-41.4815593984905,4,1,0,75,0,0
68460,-40.8892268759703,4,1,0,75,0,0
69060,-14.8511615653486,4,1,0,75,0,0
69360,-14.8511615653486,4,1,0,75,0,0
69510,-66.6666666666667,4,1,0,75,0,0
69660,-40.2870420225883,4,1,0,75,0,0
70260,-15.097734015061,4,1,0,75,0,0
70410,-66.6666666666667,4,1,0,75,0,0
70560,-40.2309577283354,4,1,0,75,0,0
71160,-40.7419676069583,4,1,0,75,0,0
71460,-40.5962202907822,4,1,0,75,0,0
71910,-41.395318679602,4,1,0,75,0,0
72360,-39.9573241430027,4,1,0,75,0,0
72660,-30.7505866766323,4,1,0,75,0,0
72960,-30.1740672255563,4,1,0,75,0,0
73110,-66.6666666666667,4,1,0,75,0,0
73260,-39.6159221668728,4,1,0,75,0,0
73860,-19.8019310190447,4,1,0,75,0,0
74160,-19.6230682044007,4,1,0,75,0,0
74460,-19.8163071622741,4,1,0,75,0,0
74610,-66.6666666666667,4,1,0,75,0,0
75060,-40.6572030017334,4,1,0,75,0,0
75360,-39.7891658940669,4,1,0,75,0,0
75660,-40.2309577283353,4,1,0,75,0,0
76110,-40.5319506210168,4,1,0,75,0,0
76710,-41.1651747408697,4,1,0,75,0,0
77310,-40.6136139403501,4,1,0,75,0,0
77610,-40.9589685617058,4,1,0,75,0,0
77910,-43.6371329831198,4,1,0,75,0,0

[HitObjects]
34,96,60,6,0,B|38:92|42:88|42:88|40:83|40:83|45:86|45:86|49:83|53:80|53:80|57:83|57:83|55:78|55:78|59:75|64:73|64:73|62:68|62:68|66:72|66:72|71:69|75:67|75:67|78:71|78:71|78:66|78:66|83:64|87:63|87:63|88:58|88:58|90:62|90:62|96:61|100:60|100:60|103:65|103:65|103:59|103:59|109:59|113:58|113:58|114:53|114:53|116:58|116:58|120:58|123:58|123:58|124:58|125:58|125:58|130:58|130:58|126:55|126:55|127:53|127:53|128:58|128:58|130:58|131:58|131:58|133:53|133:53|134:58|134:58|139:59|144:60|144:60|144:65|144:65|147:60|147:60|152:62|157:63|157:63|159:59|159:59|159:64|159:64|161:64|163:65,1,231.171380837614
184,73,510,1,0,0:0:0:0:
168,205,810,1,0,0:0:0:0:
220,321,1110,2,0,B|230:314|230:314|228:309|228:309|232:313|232:313|241:307|241:307|245:311|245:311|243:306|243:306|252:300|252:300|250:295|250:295|254:299|254:299|262:293|262:293|266:296|266:296|265:291|265:291|273:286|273:286|272:281|272:281|276:284|276:284|279:282,1,110.203491873104
359,226,1410,1,0,0:0:0:0:
382,136,1560,1,0,0:0:0:0:
246,50,2310,6,0,B|235:54|235:54|235:60|235:60|232:55|232:55|223:59|223:59|220:55|220:55|220:60|220:60|211:64|211:64|211:69|211:69|208:65|208:65|199:68|199:68|196:64|196:64|196:70|196:70|187:73|187:73|187:78|187:78|184:74|184:74|181:75,1,106.369311030336
102,112,2610,1,0,0:0:0:0:
112,217,2760,1,0,0:0:0:0:
192,299,2910,2,0,B|202:293|202:293|201:288|201:288|205:291|205:291|213:286|213:286|217:289|217:289|216:284|216:284|224:279|224:279|223:274|223:274|227:277|227:277|235:272|235:272|239:275|239:275|237:270|237:270|246:265|246:265|244:260|244:260|248:263|248:263|257:258|257:258|261:261|261:261|259:256|259:256|264:253|264:253|265:249|265:249|260:246|260:246|265:246|265:246|267:237|267:237|266:236|266:236|267:232|267:232|264:235|264:235|262:234|262:234|268:234|268:234|268:232|268:232|263:229|263:229|269:229|269:229|271:219|271:219|276:218|276:218|271:216|271:216|273:206|273:206|268:204|268:204|273:203|273:203|274:199,1,229.346746371516
286,106,3510,1,0,0:0:0:0:
94,99,3660,6,0,B|104:105|104:105|108:101|108:101|107:106|107:106|116:112|116:112|114:117|114:117|118:113|118:113|127:118|127:118|131:114|131:114|129:120|129:120|139:125|139:125|134:123|134:123|137:127|137:127|132:134|132:134|135:139|135:139|130:137|130:137|124:144|124:144|119:143|119:143|122:147|122:147|115:155|115:155|118:159|118:159|114:157|114:157|108:164|108:164|109:165|109:165|106:169|106:169|110:167|110:167|111:168|111:168|106:166|106:166|105:167|105:167|107:167|107:167|109:163|109:163|110:168|110:168|120:170|120:170|120:175|120:175|123:171|123:171|132:173|132:173|135:168|135:168|135:173|135:173|146:175|146:175|146:181|146:181|148:176|148:176|158:178|158:178|161:173|161:173|161:179|161:179|168:180|168:180|167:183|167:183|161:182|161:182|165:185|165:185|160:194|160:194|164:198|164:198|159:197|159:197|154:206|154:206|149:205|149:205|153:208|153:208|152:210|152:210|147:209|147:209|150:213|150:213|148:211|148:211|153:210|153:210|150:213|150:213|145:223|145:223|140:222|140:222|144:225|144:225|139:234|139:234|141:229|141:229|142:234|142:234|152:236|152:236|152:241|152:241|155:237|155:237|164:238|164:238|167:234|167:234|167:239|167:239|178:240|178:240|178:246|178:246|181:241|181:241|187:242,1,469.631064768009
400,196,4860,5,0,0:0:0:0:
453,129,5160,1,0,0:0:0:0:
380,47,5460,2,0,B|368:49|368:49|368:54|368:54|365:49|365:49|355:51|355:51|353:46|353:46|352:52|352:52|343:53|343:53|342:58|342:58|340:54|340:54|330:55|330:55|327:51|327:51|327:56|327:56|317:58|317:58|316:63|316:63|314:58|314:58|304:60|304:60|302:55|302:55|301:60|301:60|291:62|291:62|291:67|291:67|288:62|288:62|279:64|279:64|274:66|274:66|279:68|279:68|279:69|279:69|276:64|276:64|274:64|274:64|273:70|273:70|271:65|271:65|261:67|261:67|259:62|259:62|258:67|258:67|248:69|248:69|247:74|247:74|245:69|245:69|241:70,1,231.50860279105
34,102,6060,5,0,0:0:0:0:
51,197,6360,1,0,0:0:0:0:
161,73,6660,1,0,0:0:0:0:
143,253,6960,1,0,0:0:0:0:
306,287,7260,5,0,0:0:0:0:
408,79,7410,1,0,0:0:0:0:
193,158,7560,1,0,0:0:0:0:
128,69,8160,5,0,0:0:0:0:
208,280,8310,1,0,0:0:0:0:
329,103,8460,1,0,0:0:0:0:
39,248,9060,6,0,B|39:254|40:260|40:260|45:260|45:260|40:263|40:263|41:268|43:272|43:272|39:275|39:275|44:275|44:275|47:279|50:283|50:283|54:281|54:281|52:286|52:286|53:287|53:287|56:290|59:292|59:292|57:297|57:297|61:294|61:294|66:297|70:299|70:299|73:294|73:294|73:300|73:300|78:301|83:302|83:302|84:307|84:307|86:302|86:302|88:302|89:302|89:302|93:302|96:302|96:302|97:296|97:296|99:301|99:301|103:301|107:299|107:299|107:298|107:298|112:296|112:296|107:294|107:294|107:293|107:293|110:297|110:297|112:296|113:295|113:295|112:290|112:290|116:294|116:294|120:291|124:288|124:288|128:290|128:290|126:286|126:286|129:282|132:278|132:278|128:274|128:274|133:275|133:275|134:273|135:272,1,229.948124382122
142,251,9360,2,0,B|142:245|142:239|142:239|137:239|137:239|141:236|141:236|140:231|138:227|138:227|142:224|142:224|137:224|137:224|135:219|132:216|132:216|127:218|127:218|130:213|130:213|129:212|128:211|128:211|125:208|123:206|123:206|125:202|125:202|120:205|120:205|116:201|112:200|112:200|109:203|109:203|109:198|109:198|104:196|99:196|99:196|99:190|99:190|96:195|96:195|93:195|91:195|91:195|88:195|86:195|86:195|85:200|85:200|84:195|84:195|79:195|75:197|75:197|75:198|75:198|70:200|70:200|75:202|75:202|72:198|72:198|70:199|68:200|68:200|69:205|69:205|66:201|66:201|61:204|57:207|57:207|53:204|53:204|55:209|55:209|51:213|48:216|48:216|51:220|51:220|47:219|47:219|46:220|45:221,1,227.216086655955,0|0,0:2|0:2,0:2:0:0:
373,297,9660,6,0,B|383:291|383:291|382:286|382:286|386:289|386:289|394:284|394:284|398:288|398:288|397:282|397:282|405:277|405:277|404:272|404:272|408:276|408:276|416:271|416:271|420:274|420:274|419:269|419:269|427:264|427:264|426:259|426:259|430:262|430:262|438:257|438:257|442:261|442:261|441:256|441:256|449:250|449:250|448:245|448:245|452:249|452:249|455:247|455:247|452:242|452:242|451:242|451:242|448:238|448:238|448:243|448:243|447:244|447:244|450:240|450:240|448:237|448:237|443:239|443:239|446:235|446:235|441:226|441:226|444:222|444:222|439:224|439:224|434:215|434:215|429:217|429:217|432:213|432:213|427:204|427:204|430:200|430:200|425:202|425:202|420:193|420:193|415:195|415:195|418:191|418:191|413:182|413:182|416:178|416:178|411:180|411:180|406:172|406:172|401:173|401:173|404:169|404:169|399:161|399:161|402:157|402:157|397:158|397:158|396:156|396:156|399:152|399:152|394:154|394:154|397:153|397:153|397:158|397:158|394:154|394:154|393:151,1,355.393303011957
353,29,10110,2,0,B|342:33|342:33|342:38|342:38|339:34|339:34|330:38|330:38|327:34|327:34|327:39|327:39|318:42|318:42|318:48|318:48|315:43|315:43|306:47|306:47|302:43|302:43|303:48|303:48|293:52|293:52|294:57|294:57|291:53|291:53|281:56|281:56|278:52|278:52|278:57|278:57|269:61|269:61|270:66|270:66|266:62|266:62|258:65|258:65|258:66|258:66|253:68|253:68|258:69|258:69|258:70|258:70|255:66|255:66|251:67|251:67|252:73|252:73|248:68|248:68|241:71|241:71|240:73|240:73|235:73|235:73|239:76|239:76|236:86|236:86|240:89|240:89|235:88|235:88|231:98|231:98|226:97|226:97|230:100|230:100|227:110|227:110|231:113|231:113|226:113|226:113|223:122|223:122|217:122|217:122|221:125|221:125|218:134|218:134|222:137|222:137|217:137|217:137|214:146|214:146|209:146|209:146|213:149|213:149|212:151|212:151|207:151|207:151|212:154|212:154|210:153|210:153|213:150|213:150|212:154|212:154|211:156,1,355.09386563803
238,290,10710,6,0,B|249:286|249:286|249:280|249:280|252:284|252:284|261:281|261:281|264:285|264:285|264:280|264:280|273:276|273:276|273:271|273:271|276:275|276:275|285:271|285:271|289:275|289:275|288:270|288:270|297:266|297:266|297:261|297:261|300:265|300:265|309:261|309:261|313:266|313:266|312:260|312:260|321:257|321:257|321:251|321:251|324:256|324:256|333:252|333:252|337:249|337:249|332:249|332:249|332:247|332:247|335:251|335:251|336:251,1,173.995367306372
308,152,11010,1,0,0:0:0:0:
239,88,11160,1,0,0:0:0:0:
42,191,11460,5,0,0:0:0:0:
82,266,11610,1,0,0:0:0:0:
161,278,11760,1,0,0:0:0:0:
334,205,12060,2,0,B|323:201|323:201|320:205|320:205|320:199|320:199|311:196|311:196|311:191|311:191|308:195|308:195|299:191|299:191|296:195|296:195|296:190|296:190|287:186|287:186|287:181|287:181|284:185|284:185|275:181|275:181|271:185|271:185|272:180|272:180|263:176|263:176|263:171|263:171|260:175|260:175|251:172|251:172|247:176|247:176|248:171|248:171|239:167|239:167|234:166|234:166|237:170|237:170|236:172|236:172|237:166|237:166|236:166,1,171.852252428271
125,169,12360,1,0,0:0:0:0:
191,77,12510,2,0,B|202:72|202:72|201:66|201:66|204:70|204:70|213:66|213:66|217:69|217:69|216:64|216:64|225:60|225:60|224:55|224:55|227:58|227:58|236:54|236:54|240:58|240:58|239:52|239:52|248:48|248:48|247:43|247:43|251:47|251:47|259:42|259:42|263:46|263:46|262:41|262:41|271:36|271:36|270:31|270:31|274:35|274:35|279:32|279:32|282:32|282:32|282:31|282:31|287:31|287:31|283:28|283:28|283:27|283:27|285:32|285:32|288:32|288:32|290:27|290:27|291:32|291:32|301:32|301:32|303:36|303:36|304:31|304:31|314:31|314:31|316:26|316:26|317:31|317:31|327:31|327:31|329:36|329:36|330:31|330:31|340:30|340:30|342:25|342:25|343:30|343:30|353:30|353:30|355:36|355:36|357:30|357:30|367:30|367:30|368:25|368:25|370:29|370:29|380:29|380:29|381:34|381:34|383:29|383:29|385:29|385:29|387:34|387:34|388:29|388:29|387:32|387:32|382:30|382:30|388:29|388:29|391:29,1,359.331493590396
454,124,13110,1,0,0:0:0:0:
405,315,13260,6,0,B|397:306|397:306|393:308|393:308|395:304|395:304|389:296|389:296|391:292|391:292|387:294|387:294|380:287|380:287|376:289|376:289|378:284|378:284|372:277|372:277|375:273|375:273|370:275|370:275|363:267|363:267|358:269|358:269|361:265|361:265|357:260|357:260|356:264|356:264|351:264|351:264|355:267|355:267|353:276|353:276|357:279|357:279|352:279|352:279|350:288|350:288|351:288|351:288|350:293|350:293|353:290|353:290|355:291|355:291|350:291|350:291|349:294|349:294|354:297|354:297|348:297|348:297|346:307|346:307|341:307|341:307|345:310|345:310|340:302|340:302|335:303|335:303|338:299|338:299|333:291|333:291|337:287|337:287|332:288|332:288|326:280|326:280|321:281|321:281|325:277|325:277|320:269|320:269|323:265|323:265|318:266|318:266|314:260|314:260|313:262|313:262|318:265|318:265|312:265|312:265|310:275|310:275|305:275|305:275|309:278|309:278|308:281|308:281|303:281|303:281|307:283|307:283|304:282|304:282|308:278|308:278|307:283|307:283|304:293|304:293|299:293|299:293|303:296|303:296|301:305|301:305|305:308|305:308|300:308|300:308|299:312|299:312|296:307|296:307|299:303|299:303|294:305|294:305|288:296|288:296|283:298|283:298|287:294|287:294|281:285|281:285|284:281|284:281|279:283|279:283|273:275|273:275|268:276|268:276|272:272|272:272|266:264|266:264|269:260|269:260|264:261|264:261|262:269|262:269|263:270|263:270|267:267|267:267|265:271|265:271|266:272|266:272|261:272|261:272|260:276|260:276|255:276|255:276|259:279|259:279|256:288|256:288|261:291|261:291|256:291|256:291|253:301|253:301|248:301|248:301|252:304|252:304|249:315|249:315|245:316|245:316|248:313|248:313|242:306|242:306|245:302|245:302|240:303|240:303|235:295|235:295|230:297|230:297|233:293|233:293|227:285|227:285|230:281|230:281|225:282|225:282|219:274|219:274|214:276|214:276|217:272|217:272|216:270|216:270|219:266|219:266|214:268|214:268|217:267|217:267|214:263|214:263|214:268|214:268|210:263,1,706.000184862938
100,197,14160,5,0,0:0:0:0:
240,57,14460,6,0,B|251:61|251:61|254:57|254:57|254:62|254:62|264:65|264:65|263:71|263:71|266:66|266:66|276:70|276:70|279:65|279:65|279:71|279:71|288:74|288:74|288:79|288:79|291:75|291:75|300:78|300:78|303:74|303:74|303:79|303:79|312:83|312:83|312:88|312:88|315:84|315:84|325:87|325:87|328:83|328:83|328:88|328:88|336:91|336:91|337:90|337:90|342:92|342:92|338:88|338:88|339:87|339:87|338:92|338:92|339:92|339:92|340:92,1,175.436302065888
433,173,14760,2,0,B|423:179|423:179|424:184|424:184|420:181|420:181|412:186|412:186|408:183|408:183|409:188|409:188|401:193|401:193|402:198|402:198|398:194|398:194|390:200|390:200|386:196|386:196|387:201|387:201|378:206|378:206|380:211|380:211|376:208|376:208|367:213|367:213|363:210|363:210|365:215|365:215|356:220|356:220|358:225|358:225|354:221|354:221|346:226|346:226|346:227|346:227|342:230|342:230|347:230|347:230|348:231|348:231|344:228|344:228|343:228|343:228|342:228,1,173.787086395447
256,294,15060,1,0,0:0:0:0:
167,251,15210,1,0,0:0:0:0:
167,159,15360,1,0,0:0:0:0:
287,192,15510,2,0,B|281:182|281:182|276:183|276:183|279:179|279:179|274:171|274:171|277:167|277:167|272:168|272:168|267:160|267:160|262:161|262:161|265:157|265:157|260:149|260:149|263:145|263:145|258:146|258:146|253:138|253:138|248:139|248:139|252:136|252:136|246:127|246:127|250:123|250:123|245:125|245:125|239:116|239:116|234:118|234:118|238:114|238:114|233:106|233:106|232:106|232:106|229:102|229:102|229:107|229:107|228:107|228:107|232:103|232:103|231:103|231:103|230:103,1,172.701107033468
133,40,15810,2,0,B|125:48|125:48|127:53|127:53|122:51|122:51|115:58|115:58|111:55|111:55|113:60|113:60|106:67|106:67|109:71|109:71|104:69|104:69|97:76|97:76|92:74|92:74|95:78|95:78|88:85|88:85|90:90|90:90|86:87|86:87|79:94|79:94|74:92|74:92|77:96|77:96|69:104|69:104|72:108|72:108|67:106|67:106|61:112|61:112|62:113|62:113|59:117|59:117|63:115|63:115|64:116|64:116|59:114,1,171.377219399223
13,265,16110,2,0,B|24:260|24:260|23:255|23:255|27:259|27:259|36:254|36:254|39:258|39:258|38:253|38:253|47:249|47:249|47:244|47:244|50:248|50:248|59:244|59:244|62:247|62:247|62:242|62:242|71:238|71:238|70:233|70:233|73:237|73:237|82:233|82:233|86:236|86:236|85:231|85:231|94:227|94:227|93:222|93:222|97:226|97:226|105:222|105:222|105:221|105:221|110:220|110:220|105:218|105:218|105:217|105:217|108:221|108:221|108:220,1,170.102868108357
187,54,16410,6,0,B|193:64|193:64|198:63|198:63|195:67|195:67|200:75|200:75|196:79|196:79|201:78|201:78|206:87|206:87|212:85|212:85|208:89|208:89|213:98|213:98|210:102|210:102|215:100|215:100|220:109|220:109|225:108|225:108|221:111|221:111|226:120|226:120|223:124|223:124|228:123|228:123|233:131|233:131|238:130|238:130|235:134|235:134|239:141|239:141|240:141|240:141|243:145|243:145|243:140|243:140|244:140|244:140|241:144,1,170.293170560471
282,242,16710,1,0,0:0:0:0:
355,121,16860,1,0,0:0:0:0:
454,55,17010,1,0,0:0:0:0:
465,222,17160,1,0,0:0:0:0:
360,304,17310,1,0,0:0:0:0:
328,280,17460,1,0,0:0:0:0:
284,276,17610,1,0,0:0:0:0:
244,276,17760,1,0,0:0:0:0:
48,200,17910,6,0,B|56:191|56:191|53:187|53:187|58:189|58:189|64:181|64:181|69:183|69:183|66:179|66:179|73:171|73:171|70:167|70:167|75:169|75:169|81:162|81:162|86:164|86:164|83:159|83:159|90:152|90:152|87:148|87:148|92:150|92:150|98:142|98:142|103:144|103:144|100:140|100:140|107:132|107:132|104:128|104:128|109:130|109:130|115:123|115:123|118:118|118:118|113:120|113:120|112:119|112:119|117:121|117:121|117:120,1,174.183070671733
196,48,18210,1,0,0:0:0:0:
288,124,18360,2,0,B|280:132|280:132|282:137|282:137|277:135|277:135|270:142|270:142|266:139|266:139|268:144|268:144|261:151|261:151|264:155|264:155|259:153|259:153|252:160|252:160|247:158|247:158|250:162|250:162|243:169|243:169|245:174|245:174|241:171|241:171|234:178|234:178|229:176|229:176|232:180|232:180|224:188|224:188|227:192|227:192|222:190|222:190|216:196|216:196|216:197|216:197|212:200|212:200|217:200|217:200|218:201|218:201|214:198|214:198|213:199,1,172.519918637089
144,280,18660,1,0,0:0:0:0:
72,204,19260,5,0,0:0:0:0:
88,176,19560,1,0,0:0:0:0:
164,88,19860,2,0,B|169:86|175:84|175:84|175:79|175:79|178:83|178:83|183:82|188:80|188:80|190:85|190:85|190:80|190:80|195:78|200:77|200:77|201:72|201:72|203:77|203:77|208:76|213:75|213:75|215:80|215:80|216:75|216:75|221:74|226:74|226:74|227:69|227:69|229:73|229:73|234:73|239:73|239:73|240:78|240:78|242:73|242:73|247:73|252:73|252:73|254:68|254:68|255:73|255:73|260:74|264:74|264:74|264:73|264:73|269:74|269:74|265:70|265:70|266:69|266:69|267:74|267:74|269:74|270:74|270:74|272:70|272:70|273:75|273:75|278:76|283:76|283:76|284:82|284:82|286:77|286:77|291:78|296:79|296:79|298:75|298:75|299:80|299:80|303:81|308:83|308:83|308:88|308:88|311:84|311:84|316:85|321:87|321:87|324:83|324:83|323:88|323:88|328:90|333:92|333:92|332:97|332:97|335:93|335:93|340:96|344:98|344:98|348:94|348:94|347:99|347:99|352:102|356:104|356:104|354:109|354:109|358:106|358:106|359:107|360:107|360:107|359:112|359:112|363:109|363:109|361:110|361:110|360:106|360:106|363:109|363:109|367:112|372:115|372:115|370:120|370:120|374:117|374:117|378:120|382:123|382:123|386:120|386:120|384:125|384:125|388:128|392:132|392:132|389:136|389:136|394:134|394:134|398:138|401:141|401:141|406:139|406:139|403:143|403:143|407:147|410:151|410:151|407:155|407:155|411:153|411:153|415:157|418:161|418:161|422:159|422:159|419:163|419:163|423:168|425:171|425:171|422:176|422:176|427:174|427:174|429:178|431:181|431:181|433:181|433:181|433:176|433:176|436:180|436:180|432:184|432:184|433:186|435:188,1,526.724399833083
436,224,20160,2,0,B|432:228|427:232|427:232|429:236|429:236|425:233|425:233|421:237|417:240|417:240|413:237|413:237|415:241|415:241|410:244|406:247|406:247|408:252|408:252|404:249|404:249|400:251|395:254|395:254|392:250|392:250|393:255|393:255|388:258|384:260|384:260|385:265|385:265|381:261|381:261|377:264|372:266|372:266|369:261|369:261|369:267|369:267|364:269|360:270|360:270|360:276|360:276|357:271|357:271|353:273|349:274|349:274|349:276|349:276|344:277|344:277|349:278|349:278|349:280|349:280|346:275|346:275|345:275|343:276|343:276|343:281|343:281|341:276|341:276|336:278|331:279|331:279|328:274|328:274|328:279|328:279|323:280|318:281|318:281|317:286|317:286|315:281|315:281|310:282|305:283|305:283|303:278|303:278|302:283|302:283|297:283|292:284|292:284|291:289|291:289|289:284|289:284|284:284|279:284|279:284|278:279|278:279|276:284|276:284|271:284|266:283|266:283|264:288|264:288|263:283|263:283|258:283|253:282|253:282|253:277|253:277|250:282|250:282|248:281|247:281|247:281|246:274|246:274|251:279|251:279|244:277|244:277|243:280|243:280|240:279|237:279|237:279|237:274|237:274|234:278|234:278|229:277|225:276|225:276|222:280|222:280|222:275|222:275|217:274|212:272|212:272|212:267|212:267|209:271|209:271|205:270|200:268|200:268|197:272|197:272|197:267|197:267|192:264|188:263|188:263|189:257|189:257|185:261|185:261|180:259|177:257|177:257|173:260|173:260|174:255|174:255|169:252|165:250|165:250|167:245|167:245|163:248|163:248|152:241|152:241|158:246|154:243|154:243|150:246|150:246|152:241|152:241|148:244|148:244|150:239|150:239|148:238|147:237|150:239|150:239|152:233|152:233|147:237,1,557.168974645897
116,208,20460,2,0,B|125:201|125:201|124:196|124:196|128:199|128:199|136:193|136:193|140:196|140:196|138:191|138:191|146:185|146:185|144:180|144:180|148:183|148:183|156:177|156:177|161:180|161:180|159:175|159:175|167:169|167:169|165:164|165:164|169:167|169:167|177:161|177:161|181:164|181:164|179:160|179:160|187:154|187:154|185:149|185:149|189:152|189:152|197:146|197:146|197:145|197:145|201:142|201:142|196:142|196:142|195:141|195:141|199:144|199:144|202:142|202:142|200:137|200:137|204:140|204:140|212:134|212:134|216:137|216:137|214:132|214:132|222:126|222:126|220:121|220:121|225:124|225:124|233:118|233:118|237:121|237:121|235:116|235:116|243:110|243:110|241:105|241:105|245:108|245:108|253:102|253:102|257:105|257:105|255:100|255:100|263:94|263:94|262:89|262:89|266:92|266:92|274:86|274:86|278:89|278:89|276:85|276:85|278:83|278:83|282:86|282:86|281:81|281:81|282:84|282:84|277:83|277:83|281:81|281:81|283:79,1,355.95185358603
360,68,20760,5,0,0:0:0:0:
420,156,20910,2,0,B|414:159|410:162|410:162|411:167|411:167|407:163|407:163|402:166|399:168|399:168|395:165|395:165|396:170|396:170|391:173|388:175|388:175|389:180|389:180|385:177|385:177|381:180|377:182|377:182|373:179|373:179|374:184|374:184|370:187|366:190|366:190|368:195|368:195|364:192|364:192|361:196|357:199|357:199|353:195|353:195|354:200|354:200|349:202|344:203|344:203|344:208|344:208|341:204|341:204|337:205|332:206|332:206|327:208|327:208|332:210|332:210|332:212|332:212|329:207,1,170.397092243551
224,76,21210,1,0,0:0:0:0:
120,172,21360,2,0,B|127:182|127:182|132:180|132:180|128:184|128:184|134:193|134:193|131:197|131:197|136:195|136:195|141:203|141:203|146:202|146:202|143:206|143:206|148:214|148:214|145:218|145:218|150:216|150:216|156:225|156:225|161:223|161:223|157:227|157:227|163:235|163:235|160:239|160:239|165:238|165:238|170:246|170:246|175:245|175:245|172:249|172:249|177:256|177:256|178:255|178:255|182:259|182:259|181:254|181:254|182:254|182:254|179:258|179:258|179:259,1,173.06564552549
332,264,21660,1,0,0:0:0:0:
448,148,21810,6,0,B|443:144|439:140|439:140|435:143|435:143|437:138|437:138|433:135|429:132|429:132|431:127|431:127|427:130|427:130|423:127|419:124|419:124|415:127|415:127|417:122|417:122|412:120|408:117|408:117|410:112|410:112|406:115|406:115|401:113|397:110|397:110|393:114|393:114|395:109|395:109|390:106|386:104|386:104|387:99|387:99|383:102|383:102|378:100|374:98|374:98|371:102|371:102|371:97|371:97|367:95|363:93|363:93|362:94|362:94|358:92|358:92|361:96|361:96|360:97|360:97|360:91,1,172.774962049253
280,296,22110,1,0,0:0:0:0:
232,64,22260,2,0,B|227:67|222:70|222:70|223:75|223:75|219:71|219:71|215:74|211:77|211:77|207:73|207:73|208:78|208:78|204:81|200:84|200:84|202:89|202:89|198:86|198:86|194:89|190:92|190:92|186:90|186:90|188:94|188:94|184:98|181:101|181:101|183:106|183:106|179:104|179:104|175:107|172:111|172:111|167:109|167:109|170:113|170:113|167:117|164:121|164:121|167:125|167:125|162:123|162:123|159:127|157:131|157:131|158:132|158:132|155:136|155:136|160:134|160:134|161:135|161:135|156:134|156:134|155:135,1,172.136744310438
80,228,22560,2,0,B|77:216|77:216|72:216|72:216|76:214|76:214|74:204|74:204|78:201|78:201|73:201|73:201|70:191|70:191|65:191|65:191|69:188|69:188|67:179|67:179|71:176|71:176|66:176|66:176|64:166|64:166|58:166|58:166|63:163|63:163|60:154|60:154|65:151|65:151|60:151|60:151|57:141|57:141|52:141|52:141|56:138|56:138|54:130|54:130|52:130|52:130|51:125|51:125|50:130|50:130|49:130|49:130|53:127|53:127|53:126,1,171.930675409954
115,47,22860,1,0,0:0:0:0:
213,209,23010,1,0,0:0:0:0:
277,59,23160,2,0,B|283:70|283:70|287:69|287:69|284:72|284:72|289:81|289:81|286:84|286:84|290:83|290:83|295:93|295:93|300:91|300:91|296:95|296:95|301:104|301:104|297:108|297:108|302:107|302:107|307:115|307:115|312:114|312:114|309:118|309:118|313:127|313:127|310:131|310:131|315:130|315:130|319:138|319:138|324:137|324:137|321:141|321:141|325:149|325:149|326:149|326:149|328:153|328:153|329:148|329:148|330:148|330:148|327:151|327:151|327:152,1,167.113187151142
405,265,23460,6,0,B|394:270|394:270|395:275|395:275|391:271|391:271|382:275|382:275|379:271|379:271|380:276|380:276|371:281|371:281|371:286|371:286|368:282|368:282|359:286|359:286|355:282|355:282|356:287|356:287|347:291|347:291|348:296|348:296|344:292|344:292|335:297|335:297|332:293|332:293|332:298|332:298|323:302|323:302|324:307|324:307|321:303|321:303|312:307|312:307|307:310|307:310|313:311|313:311|313:313|313:313|310:309|310:309|309:309|309:309|308:309,1,175.297970006134
208,264,23760,1,0,0:0:0:0:
153,365,23910,1,0,0:0:0:0:
30,173,24060,6,0,B|32:167|34:162|34:162|30:159|30:159|36:159|36:159|38:155|40:150|40:150|45:151|45:151|41:148|41:148|44:143|47:139|47:139|43:135|43:135|48:137|48:137|51:133|54:129|54:129|59:130|59:130|56:126|56:126|59:122|62:118|62:118|59:114|59:114|64:116|64:116|67:112|71:109|71:109|75:111|75:111|73:107|73:107|77:103|80:100|80:100|79:95|79:95|83:98|83:98|87:95|90:93|90:93|90:92|90:92|94:88|94:88|88:89|88:89|88:88|88:88|92:91|92:91|94:90|95:89|95:89|94:84|94:84|97:87|97:87|102:84|106:82|106:82|110:85|110:85|108:80|108:80|113:78|117:76|117:76|116:70|116:70|120:74|120:74|125:72|129:70|129:70|132:74|132:74|132:69|132:69|137:67|141:66|141:66|141:61|141:61|144:65|144:65|149:63|154:62|154:62|156:67|156:67|157:62|157:62|162:61|167:60|167:60|167:55|167:55|170:59|170:59|175:59|180:58|180:58|182:63|182:63|183:58|183:58|185:58|186:58|186:58|188:63|188:63|188:62|188:62|184:59|184:59|189:59|189:59|189:58|189:58|191:58,1,349.878085461087
213,62,24360,2,0,B|208:66|204:69|204:69|206:74|206:74|201:71|201:71|198:74|194:77|194:77|189:75|189:75|192:80|192:80|188:83|185:87|185:87|187:91|187:91|183:89|183:89|179:93|176:97|176:97|172:95|172:95|175:99|175:99|171:103|169:107|169:107|172:111|172:111|167:110|167:110|164:114|162:118|162:118|157:117|157:117|161:121|161:121|158:126|156:130|156:130|161:133|161:133|155:133|155:133|153:137|152:141|152:141|153:142|153:142|151:147|151:147|156:144|156:144|151:144|151:144|150:146|150:148|150:148|154:151|154:151|149:151|149:151|147:156|146:161|146:161|141:161|141:161|146:164|146:164|145:168|144:173|144:173|149:176|149:176|144:176|144:176|143:181|143:186|143:186|138:188|138:188|143:189|143:189|143:195|143:199|143:199|148:201|148:201|143:202|143:202|143:208|144:212|144:212|139:214|139:214|144:215|144:215|145:221|146:225|146:225|151:226|151:226|146:228|146:228|147:233|148:238|148:238|144:241|144:241|149:241|149:241|150:242|150:243|150:243|145:245|145:245|148:245|148:245|149:240|149:240|150:245|150:245|151:245|151:245|151:247|152:248,1,353.812116221335
166,277,24660,6,0,B|171:280|176:283|176:283|180:280|180:280|178:285|178:285|183:288|187:290|187:290|186:295|186:295|190:291|190:291|194:293|199:296|199:296|202:292|202:292|201:297|201:297|206:299|211:301|211:301|210:306|210:306|213:302|213:302|218:304|223:305|223:305|226:301|226:301|226:306|226:306|231:308|235:309|235:309|235:315|235:315|238:310|238:310|243:312|248:313|248:313|250:308|250:308|251:313|251:313|256:314|260:315|260:315|265:315|265:315|261:312|261:312|262:310|262:310|263:315|263:315|265:315|266:315|266:315|268:311|268:311|269:316|269:316|274:317|279:317|279:317|280:322|280:322|282:317|282:317|287:318|292:318|292:318|293:313|293:313|295:318|295:318|300:318|305:318|305:318|307:323|307:323|308:318|308:318|313:317|318:317|318:317|319:312|319:312|321:317|321:317|326:316|331:315|331:315|333:320|333:320|334:315|334:315|339:314|343:313|343:313|344:308|344:308|346:312|346:312|351:311|356:310|356:310|359:314|359:314|359:309|359:309|361:308|362:308|362:308|364:313|364:313|364:312|364:312|359:310|359:310|364:308|364:308|364:307|364:307|368:306|372:304|372:304|375:309|375:309|375:303|375:303|380:302|384:300|384:300|384:295|384:295|387:299|387:299|392:297|396:295|396:295|400:298|400:298|399:293|399:293|403:291|408:289|408:289|406:284|406:284|410:287|410:287|415:285|419:282|419:282|423:285|423:285|421:280|421:280|426:277|430:275|430:275|428:270|428:270|432:273|432:273|436:270|440:267|440:267|444:270|444:270|442:265|442:265|446:261|450:258|450:258|443:259|443:259|448:254|448:254|453:256|453:256|456:253,1,525.643522927813
483,221,24960,2,0,B|481:216|478:210|478:210|473:211|473:211|477:208|477:208|474:203|472:199|472:199|476:195|476:195|471:196|471:196|468:192|466:188|466:188|461:189|461:189|464:185|464:185|461:181|459:177|459:177|462:173|462:173|457:174|457:174|454:170|451:166|451:166|446:168|446:168|450:164|450:164|446:159|443:156|443:156|446:151|446:151|442:153|442:153|438:149|435:146|435:146|430:148|430:148|433:144|433:144|430:140|427:137|427:137|426:138|426:138|422:134|422:134|423:139|423:139|422:139|422:139|425:134|425:134|424:133|423:132|423:132|418:134|418:134|421:130|421:130|417:126|414:123|414:123|416:118|416:118|411:121|411:121|408:118|404:114|404:114|400:117|400:117|402:112|402:112|398:109|394:106|394:106|396:101|396:101|391:104|391:104|387:101|383:98|383:98|379:102|379:102|381:97|381:97|376:93|373:91|373:91|374:86|374:86|370:89|370:89|366:86|362:84|362:84|358:88|358:88|359:83|359:83|354:80|350:78|350:78|351:73|351:73|347:76|347:76|346:76|345:75|345:75|346:70|346:70|345:71|345:71|347:76|347:76|342:74|342:74|338:72|333:70|333:70|334:65|334:65|331:69|331:69|326:67|322:65|322:65|318:69|318:69|319:64|319:64|314:62|310:60|310:60|310:55|310:55|307:59|307:59|302:57|297:56|297:56|294:60|294:60|294:55|294:55|289:54|285:52|285:52|285:47|285:47|282:52|282:52|277:50|272:49|272:49|270:54|270:54|269:49|269:49|264:48|259:47|259:47|259:42|259:42|256:46|256:46|251:46|247:45|247:45|251:49|251:49|246:48|246:48|245:50|245:50|244:44|244:44|239:44|242:44|242:44|240:39|240:39|239:44,1,535.205046314492
222,54,25260,2,0,B|216:55|211:57|211:57|211:62|211:62|208:58|208:58|203:59|198:61|198:61|195:57|195:57|195:62|195:62|191:64|186:66|186:66|187:71|187:71|183:67|183:67|179:69|174:71|174:71|171:67|171:67|172:72|172:72|167:74|163:76|163:76|164:81|164:81|160:78|160:78|155:80|151:83|151:83|147:79|147:79|149:84|149:84|144:87|140:90|140:90|142:95|142:95|138:91|138:91|134:94|130:97|130:97|126:101|126:101|131:100|131:100|132:102|132:102|128:99|128:99|127:100|126:101|126:101|127:105|127:105|123:103|123:103|119:106|116:109|116:109|111:106|111:106|113:111|113:111|110:115|106:118|106:118|109:123|109:123|104:120|104:120|101:124|97:127|97:127|92:125|92:125|95:130|95:130|92:133|89:137|89:137|92:141|92:141|87:140|87:140|84:144|81:148|81:148|76:146|76:146|79:150|79:150|76:154|73:158|73:158|77:162|77:162|72:161|72:161|69:165|67:169|67:169|61:168|61:168|65:172|65:172|64:173|64:174|64:174|59:173|59:173|62:177|62:177|60:175|60:175|65:174|65:174|62:177|62:177|61:179,1,356.674958690063
21,269,25560,5,0,0:0:0:0:
201,38,25710,1,0,0:0:0:0:
245,320,25860,2,0,B|250:309|250:309|246:306|246:306|251:306|251:306|255:297|255:297|260:298|260:298|256:294|256:294|260:285|260:285|256:282|256:282|261:283|261:283|266:274|266:274|271:274|271:274|267:271|267:271|271:262|271:262|267:258|267:258|272:259|272:259|276:250|276:250|281:250|281:250|277:247|277:247|281:238|281:238|277:235|277:235|282:235|282:235|286:227|286:227|285:226|285:226|287:221|287:221|283:225|283:225|282:224|282:224|287:224|287:224|288:224,1,172.048450254698
347,57,26160,2,0,B|337:63|337:63|338:68|338:68|334:65|334:65|326:70|326:70|322:67|322:67|323:72|323:72|315:77|315:77|316:82|316:82|312:79|312:79|304:84|304:84|300:81|300:81|301:86|301:86|293:91|293:91|294:96|294:96|291:92|291:92|282:98|282:98|278:94|278:94|280:99|280:99|271:105|271:105|273:110|273:110|269:106|269:106|261:111|261:111|261:112|261:112|257:115|257:115|262:115|262:115|262:116|262:116|258:112|258:112|258:113,1,171.701107033468
183,187,26460,1,0,0:0:0:0:
220,304,26610,1,0,0:0:0:0:
442,162,26760,6,0,B|434:171|434:171|437:175|437:175|432:173|432:173|425:180|425:180|421:178|421:178|423:183|423:183|417:190|417:190|419:195|419:195|415:192|415:192|408:200|408:200|403:197|403:197|406:202|406:202|399:209|399:209|402:214|402:214|397:212|397:212|390:219|390:219|386:217|386:217|388:221|388:221|382:229|382:229|384:233|384:233|380:231|380:231|374:237|374:237|375:238|375:238|371:242|371:242|376:241|376:241|377:242|377:242|372:240,1,170.438711415931
240,66,27060,2,0,B|243:78|243:78|249:78|249:78|244:80|244:80|247:90|247:90|242:93|242:93|248:93|248:93|250:103|250:103|256:103|256:103|251:105|251:105|254:115|254:115|250:118|250:118|255:118|255:118|258:127|258:127|263:128|263:128|258:130|258:130|261:140|261:140|257:143|257:143|262:143|262:143|265:152|265:152|270:153|270:153|266:155|266:155|268:164|268:164|269:164|269:164|271:169|271:169|272:164|272:164|273:164|273:164|268:167|268:167|269:167,1,176.05324336308
294,283,27360,2,0,B|290:287|285:290|285:290|287:295|287:295|283:292|283:292|279:296|275:298|275:298|271:295|271:295|272:300|272:300|268:303|264:306|264:306|265:311|265:311|261:307|261:307|257:310|253:312|253:312|249:309|249:309|250:314|250:314|245:316|241:318|241:318|242:324|242:324|239:320|239:320|234:322|230:324|230:324|226:320|226:320|227:325|227:325|222:327|217:329|217:329|218:334|218:334|215:330|215:330|210:332|206:333|206:333|206:334|206:334|201:336|201:336|206:337|206:337|206:338|206:338|203:334|203:334|201:335|200:335|200:335|200:340|200:340|197:336|197:336|192:337|187:339|187:339|184:334|184:334|184:339|184:339|179:341|174:342|174:342|174:347|174:347|171:342|171:342|166:343|162:344|162:344|159:339|159:339|159:344|159:344|154:345|149:345|149:345|148:350|148:350|146:346|146:346|140:346|135:346|135:346|134:341|134:341|132:346|132:346|127:346|123:346|123:346|121:351|121:351|120:346|120:346|114:346|110:345|110:345|108:340|108:340|107:345|107:345|105:345|104:345|104:345|103:340|103:340|101:345|101:345|102:342|102:342|106:345|106:345|101:345|101:345|100:345|99:345,1,357.267108629357
34,251,27660,2,0,B|45:246|45:246|45:241|45:241|48:245|48:245|57:241|57:241|60:245|60:245|60:240|60:240|69:236|69:236|68:231|68:231|72:235|72:235|81:232|81:232|84:236|84:236|84:230|84:230|93:227|93:227|92:221|92:221|96:225|96:225|105:222|105:222|108:226|108:226|108:220|108:220|117:217|117:217|116:211|116:211|120:215|120:215|128:212|128:212|128:211|128:211|132:209|132:209|127:208|127:208|127:206|127:206|131:210,1,172.735214285276
287,150,27960,2,0,B|276:146|276:146|273:150|273:150|273:144|273:144|264:141|264:141|264:136|264:136|261:140|261:140|252:136|252:136|249:140|249:140|249:135|249:135|240:131|240:131|240:126|240:126|237:130|237:130|228:126|228:126|224:130|224:130|225:125|225:125|216:121|216:121|216:116|216:116|213:120|213:120|204:117|204:117|200:121|200:121|201:116|201:116|192:112|192:112|187:111|187:111|190:115|190:115|189:117|189:117|189:111,1,170.769489897973
44,101,28260,2,0,B|49:112|49:112|55:111|55:111|51:114|51:114|55:123|55:123|51:127|51:127|57:126|57:126|61:135|61:135|66:134|66:134|62:138|62:138|67:146|67:146|63:150|63:150|68:149|68:149|73:158|73:158|78:157|78:157|74:161|74:161|79:170|79:170|75:173|75:173|80:172|80:172|85:181|85:181|90:180|90:180|86:184|86:184|90:192|90:192|91:192|91:192|93:196|93:196|94:191|94:191|95:191|95:191|92:195,1,173.561954386819
163,319,28560,2,0,B|172:311|172:311|170:306|170:306|174:309|174:309|182:303|182:303|186:305|186:305|184:301|184:301|192:294|192:294|189:289|189:289|194:292|194:292|201:286|201:286|206:288|206:288|204:284|204:284|211:277|211:277|209:272|209:272|213:275|213:275|221:269|221:269|225:271|225:271|223:267|223:267|231:260|231:260|228:255|228:255|233:258|233:258|240:252|240:252|244:248|244:248|239:248|239:248|238:247|238:247|242:250|242:250|243:250,1,171.551519643107
439,154,28860,6,0,B|430:146|430:146|425:149|425:149|428:144|428:144|420:138|420:138|422:133|422:133|418:136|418:136|410:130|410:130|406:133|406:133|408:128|408:128|400:122|400:122|402:117|402:117|398:120|398:120|390:113|390:113|386:116|386:116|388:111|388:111|380:105|380:105|382:100|382:100|378:103|378:103|370:97|370:97|366:100|366:100|368:95|368:95|361:89|361:89|360:90|360:90|356:86|356:86|357:91|357:91|356:92|356:92|358:87,1,174.833643176283
439,154,29160,2,0,B|432:144|432:144|427:146|427:146|430:142|430:142|424:134|424:134|427:130|427:130|422:132|422:132|416:124|416:124|411:125|411:125|414:121|414:121|408:113|408:113|411:109|411:109|407:111|407:111|401:103|401:103|396:105|396:105|399:101|399:101|393:93|393:93|396:88|396:88|391:90|391:90|385:82|385:82|380:84|380:84|383:80|383:80|378:73|378:73|377:73|377:73|374:69|374:69|374:74|374:74|373:74|373:74|376:70|376:70|373:66|373:66|368:68|368:68|372:64|372:64|366:56|366:56|369:52|369:52|364:54|364:54|358:46|358:46|353:47|353:47|356:43|356:43|355:42,1,228.077229221614
74,124,29460,6,0,B|73:118|74:112|74:112|69:110|69:110|74:109|74:109|75:104|77:100|77:100|82:100|82:100|78:97|78:97|80:92|83:89|83:89|80:84|80:84|85:86|85:86|86:85|86:85|89:82|92:79|92:79|97:83|97:83|95:78|95:78|99:75|103:73|103:73|103:68|103:68|106:72|106:72|111:70|116:69|116:69|118:74|118:74|119:69|119:69|120:69|120:69|125:69|129:70|129:70|131:65|131:65|132:70|132:70|137:71|141:73|141:73|146:74|146:74|143:70|143:70|144:69|144:69|143:74|143:74|144:75|146:76|146:76|150:72|150:72|148:77|148:77|153:80|156:84|156:84|153:88|153:88|158:86|158:86|161:90|164:94|164:94|169:93|169:93|165:97|165:97|168:101|169:106|169:106|164:108|164:108|169:109|169:109|170:113|170:117,1,256.531215772166
74,124,29760,2,0,B|74:118|75:112|75:112|71:110|71:110|76:110|76:110|77:104|79:100|79:100|84:101|84:101|80:97|80:97|83:93|86:89|86:89|83:85|83:85|88:87|88:87|89:86|89:86|92:83|96:81|96:81|100:84|100:84|98:79|98:79|103:76|107:75|107:75|107:70|107:70|110:74|110:74|115:72|120:72|120:72|122:77|122:77|123:72|123:72|124:72|124:72|129:72|133:73|133:73|136:69|136:69|136:74|136:74|140:76|144:78|144:78|145:77|145:77|149:80|149:80|147:75|147:75|148:74|148:74|147:79|147:79|148:80|149:81|149:81|154:77|154:77|152:83|152:83|156:86|159:89|159:89|156:94|156:94|161:92|161:92|164:96|166:100|166:100|171:100|171:100|167:103|167:103|169:108|170:113|170:113|164:116|164:116|170:117|170:117|171:121|170:126|170:126|175:128|175:128|170:129|170:129|169:134|168:138|168:138|162:138|162:138|166:141|166:141|164:146|161:150|161:150|164:155|164:155|159:153|159:153|156:156|152:159|152:159|148:156|148:156|150:160|150:160|148:161|147:162|147:162|144:159|144:159|145:164|145:164|145:162|145:162|149:162|149:162|145:164|145:164|142:165,1,356.856587365576
74,124,30060,2,0,B|75:118|77:113|77:113|72:109|72:109|78:110|78:110|80:105|82:101|82:101|87:103|87:103|84:99|84:99|87:94|91:91|91:91|89:87|89:87|93:89|93:89|95:88|96:87|96:87|99:85|101:84|101:84|105:88|105:88|104:82|104:82|109:80|114:79|114:79|114:74|114:74|116:79|116:79|122:78|126:78|126:78|128:83|128:83|129:78|129:78|132:79|134:79|134:79|137:80|139:80|139:80|142:76|142:76|142:81|142:81|147:83|150:85|150:85|151:84|151:84|155:86|155:86|153:82|153:82|154:81|154:81|153:86|153:86|155:87|156:88|156:88|160:85|160:85|158:90|158:90|162:93|165:97|165:97|162:101|162:101|167:100|167:100|170:104|172:108|172:108|177:108|177:108|173:111|173:111|175:117|176:122|176:122|172:124|172:124|176:124|176:124|177:129|176:133|176:133|181:135|181:135|176:136|176:136|173:149|176:142|174:146|174:146|169:146|169:146|173:149,1,285.730854292129
89,284,30360,6,0,B|100:280|100:280|100:275|100:275|103:279|103:279|113:276|113:276|116:281|116:281|116:275|116:275|125:272|125:272|125:267|125:267|128:272|128:272|138:268|138:268|140:273|140:273|140:268|140:268|150:265|150:265|150:259|150:259|153:264|153:264|162:261|162:261|165:265|165:265|165:260|165:260|175:257|175:257|174:251|174:251|177:256|177:256|186:253|186:253|186:252|186:252|191:250|191:250|186:249|186:249|186:248|186:248|189:253|189:253|190:252,1,178.777532687995
422,159,30660,2,0,B|412:153|412:153|408:156|408:156|409:151|409:151|401:146|401:146|402:141|402:141|399:144|399:144|390:139|390:139|386:142|386:142|388:137|388:137|379:132|379:132|381:127|381:127|377:130|377:130|368:125|368:125|364:128|364:128|366:123|366:123|357:118|357:118|359:113|359:113|355:116|355:116|346:111|346:111|343:114|343:114|344:109|344:109|336:104|336:104|331:101|331:101|333:106|333:106|332:107|332:107|334:102|334:102|333:102|333:102|332:102,1,172.346510973781
208,48,30960,2,0,B|210:60|210:60|215:60|215:60|211:63|211:63|212:73|212:73|208:75|208:75|213:76|213:76|214:85|214:85|220:86|220:86|215:88|215:88|217:98|217:98|212:101|212:101|217:101|217:101|219:111|219:111|224:112|224:112|219:114|219:114|221:124|221:124|216:126|216:126|221:127|221:127|223:137|223:137|228:137|228:137|224:140|224:140|225:148|225:148|226:148|226:148|227:153|227:153|229:149|229:149|231:149|231:149|226:151|226:151|226:152,1,171.919923294947
246,293,31260,2,0,B|257:288|257:288|256:283|256:283|260:287|260:287|269:282|269:282|272:286|272:286|271:281|271:281|280:277|280:277|279:271|279:271|283:275|283:275|292:271|292:271|296:275|296:275|295:270|295:270|304:265|304:265|303:260|303:260|306:264|306:264|315:260|315:260|319:264|319:264|318:258|318:258|327:254|327:254|326:249|326:249|330:253|330:253|338:249|338:249|338:248|338:248|342:246|342:246|337:245|337:245|337:244|337:244|340:248|340:248|341:247,1,174.94427227974
459,221,31560,1,0,0:0:0:0:
309,140,31710,2,0,B|320:135|320:135|319:130|319:130|323:134|323:134|332:130|332:130|335:134|335:134|335:129|335:129|344:125|344:125|343:120|343:120|347:124|347:124|356:120|356:120|359:124|359:124|358:119|358:119|368:115|368:115|367:110|367:110|370:114|370:114|380:110|380:110|383:114|383:114|382:108|382:108|391:105|391:105|391:99|391:99|394:103|394:103|402:100|402:100|402:98|402:98|407:97|407:97|402:96|402:96|402:95|402:95|405:99|405:99|406:99,1,174.191703444183
222,43,32010,6,0,B|212:49|212:49|213:54|213:54|209:51|209:51|201:56|201:56|197:52|197:52|198:57|198:57|189:62|189:62|191:67|191:67|187:64|187:64|178:69|178:69|174:65|174:65|176:70|176:70|167:75|167:75|168:81|168:81|164:77|164:77|156:82|156:82|152:79|152:79|153:84|153:84|145:89|145:89|146:94|146:94|142:90|142:90|134:95|134:95|129:98|129:98|135:99|135:99|135:100|135:100|132:96|132:96|131:97,1,174.489233925302
115,190,32310,1,0,0:0:0:0:
117,320,32460,2,0,B|128:315|128:315|127:310|127:310|130:313|130:313|139:309|139:309|143:313|143:313|142:308|142:308|151:303|151:303|150:298|150:298|154:302|154:302|162:298|162:298|166:301|166:301|165:296|165:296|174:292|174:292|173:287|173:287|177:290|177:290|186:286|186:286|189:290|189:290|188:285|188:285|197:280|197:280|196:275|196:275|200:279|200:279|208:275|208:275|208:274|208:274|213:272|213:272|208:271|208:271|208:270|208:270|211:273|211:273|212:273,1,169.742588519548
201,146,32760,1,0,0:0:0:0:
248,72,32910,1,0,0:0:0:0:
432,76,33060,6,0,B|424:85|424:85|426:89|426:89|422:87|422:87|415:94|415:94|410:92|410:92|413:96|413:96|406:103|406:103|408:108|408:108|404:105|404:105|397:113|397:113|392:110|392:110|395:115|395:115|388:122|388:122|390:127|390:127|386:124|386:124|379:131|379:131|374:129|374:129|377:134|377:134|370:141|370:141|372:145|372:145|368:143|368:143|362:149|362:149|363:150|363:150|359:154|359:154|364:153|364:153|364:154|364:154|359:152,1,171.131807314489
280,264,33360,2,0,B|273:254|273:254|268:256|268:256|271:252|271:252|265:244|265:244|268:240|268:240|263:242|263:242|257:234|257:234|252:235|252:235|256:231|256:231|250:223|250:223|253:219|253:219|248:221|248:221|242:213|242:213|237:215|237:215|240:210|240:210|234:202|234:202|237:198|237:198|232:200|232:200|226:192|226:192|222:194|222:194|225:190|225:190|219:182|219:182|215:178|215:178|216:184|216:184|215:184|215:184|218:180|218:180|217:179,1,174.3451716065
72,56,33660,6,0,B|67:59|63:63|63:63|65:68|65:68|61:65|61:65|57:69|54:72|54:72|49:71|49:71|52:75|52:75|49:79|47:84|47:84|51:87|51:87|46:86|46:86|44:91|42:96|42:96|37:96|37:96|42:99|42:99|41:101|41:102|41:102|41:105|40:108|40:108|46:110|46:110|40:111|40:111|40:117|41:121|41:121|36:124|36:124|41:124|41:124|42:129|43:134|43:134|49:134|49:134|44:137|44:137|46:142|48:146|48:146|52:150|52:150|51:145|51:145|53:144|53:144|50:148|50:148|51:149|51:150|51:150|57:149|57:149|53:153|53:153|56:157|59:161|59:161|57:165|57:165|61:163|61:163|65:167|69:169|69:169|73:166|73:166|72:171|72:171|74:172|75:173,1,233.059634433368
72,56,33960,2,0,B|67:59|62:62|62:62|64:67|64:67|60:64|60:64|56:67|53:71|53:71|48:69|48:69|51:73|51:73|47:77|45:81|45:81|49:85|49:85|44:84|44:84|41:89|40:93|40:93|34:93|34:93|39:96|39:96|38:97|38:98|38:98|37:102|36:106|36:106|41:108|41:108|36:109|36:109|35:114|35:119|35:119|30:120|30:120|35:122|35:122|36:127|37:132|37:132|42:132|42:132|38:134|38:134|39:139|41:143|41:143|42:143|42:143|45:148|45:148|45:142|45:142|46:142|46:142|42:146|42:146|43:147|43:149|43:149|48:148|48:148|45:151|45:151|48:156|51:159|51:159|48:164|48:164|53:162|53:162|56:166|60:169|60:169|64:165|64:165|63:170|63:170|67:173|71:175|71:175|71:180|71:180|74:176|74:176|79:179|84:180|84:180|87:175|87:175|87:181|87:181|92:182|96:182|96:182|97:187|97:187|99:182|99:182|104:183|109:182|109:182|110:177|110:177|112:182|112:182|117:181|122:180|122:180|125:184|125:184|125:179|125:179|126:178|127:178|127:178|130:182|130:182|129:177|129:177|129:179|129:179|125:179|125:179|129:177|129:177|132:176,1,358.075171195385
400,296,34260,6,0,B|398:290|397:285|397:285|391:285|391:285|396:282|396:282|394:277|393:273|393:273|397:269|397:269|392:270|392:270|390:265|388:260|388:260|383:261|383:261|387:258|387:258|385:252|384:248|384:248|388:245|388:245|383:245|383:245|380:240|379:236|379:236|374:237|374:237|378:233|378:233|375:228|373:224|373:224|377:221|377:221|372:222|372:222|370:217|368:212|368:212|363:213|363:213|366:210|366:210|364:205|362:201|362:201|359:197|359:197|359:202|359:202|357:202|357:202|361:199|361:199|360:198|360:196|360:196|354:197|354:197|358:194|358:194|356:189|353:185|353:185|357:181|357:181|352:182|352:182|349:178|347:174|347:174|342:175|342:175|346:171|346:171|343:167|340:162|340:162|344:159|344:159|339:160|339:160|336:156|333:152|333:152|328:153|328:153|332:149|332:149|329:145|326:141|326:141|329:136|329:136|324:138|324:138|321:134|318:130|318:130|314:132|314:132|317:128|317:128|313:123|311:120|311:120|314:115|314:115|309:117|309:117|308:116|307:115|307:115|310:111|310:111|308:112|308:112|309:117|309:117|305:113|305:113|303:111,1,355.646526862181
256,48,34560,2,0,B|253:53|250:58|250:58|254:62|254:62|248:61|248:61|246:65|244:69|244:69|239:68|239:68|242:72|242:72|240:76|237:81|237:81|241:84|241:84|236:83|236:83|234:88|232:92|232:92|227:92|227:92|230:95|230:95|228:100|226:104|226:104|230:108|230:108|225:107|225:107|223:112|221:116|221:116|216:116|216:116|220:119|220:119|218:124|217:128|217:128|221:131|221:131|216:131|216:131|214:136|213:140|213:140|214:141|214:141|212:146|212:146|216:142|216:142|217:143|217:143|212:143|212:143|211:145|211:147|211:147|215:150|215:150|210:150|210:150|209:154|207:159|207:159|202:159|202:159|207:162|207:162|205:167|204:172|204:172|209:174|209:174|204:175|204:175|202:180|202:184|202:184|196:185|196:185|201:187|201:187|200:192|199:197|199:197|204:200|204:200|199:200|199:200|198:206|197:210|197:210|192:211|192:211|197:213|197:213|197:218|196:223|196:223|201:225|201:225|196:226|196:226|195:231|195:236|195:236|190:237|190:237|195:239|195:239|195:240|195:241|195:241|190:242|190:242|195:244|195:244|193:243|193:243|195:240|195:240|195:244|195:244|194:247,1,354.723453294765
172,300,34860,2,0,B|167:296|163:293|163:293|159:296|159:296|161:291|161:291|157:287|153:284|153:284|155:279|155:279|151:282|151:282|147:279|143:275|143:275|139:278|139:278|141:273|141:273|138:270|134:266|134:266|137:262|137:262|132:264|132:264|128:261|125:257|125:257|120:259|120:259|123:255|123:255|119:251|116:248|116:248|119:243|119:243|114:245|114:245|111:242|108:238|108:238|103:240|103:240|106:236|106:236|103:232|100:229|100:229|99:230|99:230|95:226|95:226|96:231|96:231|95:231|95:231|98:226|98:226|97:225|96:224|96:224|91:226|91:226|94:221|94:221|91:217|88:213|88:213|91:209|91:209|86:211|86:211|83:207|81:203|81:203|75:204|75:204|79:200|79:200|78:198|77:197,1,232.630944492017
36,120,35160,1,0,0:0:0:0:
120,44,35310,1,0,0:0:0:0:
200,204,35460,2,0,B|203:192|203:192|199:190|199:190|204:190|204:190|207:180|207:180|212:180|212:180|207:177|207:177|210:167|210:167|206:165|206:165|211:165|211:165|214:155|214:155|219:155|219:155|214:152|214:152|217:143|217:143|213:140|213:140|218:140|218:140|220:130|220:130|226:130|226:130|221:127|221:127|224:118|224:118|219:115|219:115|225:115|225:115|227:106|227:106|226:105|226:105|228:100|228:100|224:104|224:104|223:103|223:103|228:103|228:103|228:102,1,176.220011519827
324,52,35760,2,0,B|333:59|333:59|338:56|338:56|336:61|336:61|344:67|344:67|342:72|342:72|346:69|346:69|354:75|354:75|358:72|358:72|356:77|356:77|364:84|364:84|362:88|362:88|366:85|366:85|374:92|374:92|378:89|378:89|377:93|377:93|384:100|384:100|382:104|382:104|387:101|387:101|395:108|395:108|399:105|399:105|397:109|397:109|404:115|404:115|405:114|405:114|409:118|409:118|407:113|407:113|409:112|409:112|407:116|407:116|407:117,1,172.93257933631
456,200,36060,1,0,0:0:0:0:
396,296,36210,1,0,0:0:0:0:
112,104,36360,6,0,B|123:100|123:100|123:95|123:95|126:99|126:99|136:96|136:96|139:100|139:100|138:95|138:95|148:91|148:91|148:86|148:86|151:90|151:90|160:87|160:87|163:91|163:91|163:86|163:86|172:83|172:83|172:77|172:77|175:82|175:82|184:78|184:78|188:83|188:83|187:77|187:77|197:74|197:74|196:69|196:69|200:73|200:73|208:70|208:70|208:69|208:69|213:68|213:68|208:66|208:66|208:65|208:65|211:69,1,173.378086310915
300,60,36660,1,0,0:0:0:0:
416,100,36810,2,0,B|412:111|412:111|417:114|417:114|412:114|412:114|409:124|409:124|403:124|403:124|408:127|408:127|405:136|405:136|409:139|409:139|404:139|404:139|401:148|401:148|396:148|396:148|400:151|400:151|397:161|397:161|401:164|401:164|396:164|396:164|393:173|393:173|388:173|388:173|392:176|392:176|390:186|390:186|394:188|394:188|389:188|389:188|386:197|386:197|387:198|387:198|385:202|385:202|389:199|389:199|390:200|390:200|385:200,1,170.165286702183
344,280,37110,1,0,0:0:0:0:
288,164,37260,2,0,B|278:171|278:171|279:176|279:176|276:172|276:172|267:178|267:178|263:174|263:174|265:179|265:179|256:185|256:185|258:190|258:190|254:187|254:187|246:192|246:192|242:189|242:189|243:194|243:194|235:199|235:199|236:204|236:204|232:201|232:201|224:206|224:206|220:203|220:203|221:208|221:208|213:213|213:213|214:218|214:218|210:215|210:215|203:220|203:220|203:221|203:221|198:224|198:224|204:224|204:224|204:225|204:225|200:221|200:221|200:222,1,172.58820063985
120,280,37560,1,0,0:0:0:0:
32,228,37710,1,0,0:0:0:0:
4,136,37860,1,0,0:0:0:0:
272,48,38010,6,0,B|262:55|262:55|264:60|264:60|260:57|260:57|252:63|252:63|248:60|248:60|249:64|249:64|241:70|241:70|243:75|243:75|239:72|239:72|231:78|231:78|227:75|227:75|229:80|229:80|221:86|221:86|222:91|222:91|218:87|218:87|210:93|210:93|206:90|206:90|208:95|208:95|200:101|200:101|201:106|201:106|197:103|197:103|190:108|190:108|190:109|190:109|185:112|185:112|191:112|191:112|191:113|191:113|187:110,1,171.158490908455
212,224,38310,2,0,B|224:222|224:222|224:216|224:216|227:221|227:221|236:219|236:219|239:223|239:223|239:218|239:218|249:216|249:216|250:211|250:211|252:216|252:216|262:214|262:214|264:218|264:218|265:213|265:213|274:211|274:211|275:206|275:206|277:210|277:210|287:208|287:208|290:213|290:213|290:208|290:208|300:206|300:206|300:200|300:200|303:205|303:205|312:203|312:203|317:201|317:201|312:200|312:200|312:198|312:198|315:203,1,173.050801699238
392,128,38610,1,0,0:0:0:0:
472,224,38910,1,0,0:0:0:0:
384,300,39060,1,0,0:0:0:0:
344,304,39210,1,0,0:0:0:0:
304,304,39360,1,0,0:0:0:0:
40,56,39660,5,0,0:0:0:0:
80,176,39960,2,0,B|91:172|91:172|91:167|91:167|94:171|94:171|103:167|103:167|107:172|107:172|106:166|106:166|116:163|116:163|115:158|115:158|118:162|118:162|128:158|128:158|131:163|131:163|131:157|131:157|140:154|140:154|140:149|140:149|143:153|143:153|152:149|152:149|155:154|155:154|155:148|155:148|164:145|164:145|164:140|164:140|167:144|167:144|175:141|175:141|175:140|175:140|180:138|180:138|175:136|175:136|175:135|175:135|178:140|178:140|179:139,1,176.393026486321
232,48,40260,2,0,B|242:54|242:54|246:51|246:51|245:56|245:56|253:61|253:61|252:66|252:66|256:63|256:63|264:68|264:68|268:64|268:64|267:69|267:69|276:74|276:74|274:80|274:80|278:76|278:76|287:81|287:81|290:78|290:78|289:83|289:83|298:88|298:88|296:93|296:93|300:90|300:90|309:95|309:95|313:91|313:91|311:96|311:96|319:101|319:101|320:100|320:100|324:103|324:103|322:98|322:98|321:103|321:103|322:103,1,172.748932057482
408,168,40560,1,0,0:0:0:0:
328,264,40710,1,0,0:0:0:0:
252,176,40860,1,0,0:0:0:0:
220,152,41010,1,0,0:0:0:0:
184,124,41160,1,0,0:0:0:0:
40,204,41310,2,0,B|51:208|51:208|54:203|54:203|54:209|54:209|64:212|64:212|64:217|64:217|66:213|66:213|76:216|76:216|79:212|79:212|79:217|79:217|88:220|88:220|88:225|88:225|91:221|91:221|101:224|101:224|104:220|104:220|103:225|103:225|113:228|113:228|113:233|113:233|116:229|116:229|125:232|125:232|128:228|128:228|128:233|128:233|137:236|137:236|142:237|142:237|139:233|139:233|140:232|140:232|139:237|139:237|140:237,1,170.940784840874
284,296,41610,2,0,B|290:286|290:286|287:282|287:282|292:283|292:283|297:275|297:275|302:276|302:276|298:272|298:272|303:263|303:263|300:260|300:260|305:261|305:261|310:252|310:252|315:254|315:254|312:250|312:250|317:241|317:241|313:237|313:237|318:239|318:239|323:230|323:230|329:231|329:231|325:227|325:227|330:219|330:219|327:215|327:215|332:216|332:216|336:209|336:209|335:208|335:208|337:204|337:204|333:206|333:206|332:205|332:205|337:206|337:206|338:206,2,171.108736548923
176,296,42060,5,0,0:0:0:0:
104,216,42210,2,0,B|95:208|95:208|91:211|91:211|93:206|93:206|86:199|86:199|88:195|88:195|83:197|83:197|76:191|76:191|71:193|71:193|74:189|74:189|66:182|66:182|69:177|69:177|64:180|64:180|57:173|57:173|52:176|52:176|54:171|54:171|47:164|47:164|49:160|49:160|45:162|45:162|37:156|37:156|33:158|33:158|35:154|35:154|29:148|29:148|28:149|28:149|24:145|24:145|25:150|25:150|24:150|24:150|26:146|26:146|26:145,1,170.111469001423
100,56,42510,1,0,0:0:0:0:
172,136,42660,1,0,0:0:0:0:
240,48,42810,2,0,B|252:51|252:51|254:46|254:46|254:52|254:52|264:54|264:54|264:59|264:59|267:55|267:55|277:57|277:57|279:53|279:53|280:58|280:58|289:60|289:60|289:66|289:66|292:61|292:61|302:64|302:64|304:59|304:59|305:64|305:64|314:67|314:67|315:72|315:72|317:68|317:68|327:70|327:70|330:65|330:65|330:71|330:71|339:73|339:73|344:74|344:74|341:70|341:70|342:68|342:68|342:73|342:73|342:74,1,174.338313708241
448,156,43110,2,0,B|445:161|442:166|442:166|446:170|446:170|440:169|440:169|437:173|435:177|435:177|430:175|430:175|433:179|433:179|430:183|426:186|426:186|429:191|429:191|424:189|424:189|421:192|417:195|417:195|412:192|412:192|414:197|414:197|410:201|406:203|406:203|408:208|408:208|404:205|404:205|399:208|395:210|395:210|392:206|392:206|393:211|393:211|388:214|383:216|383:216|384:221|384:221|381:217|381:217|376:219|372:220|372:220|372:221|372:221|367:222|367:222|372:224|372:224|372:225|372:225|369:221|369:221|367:222|365:222|365:222|365:227|365:227|362:223|362:223|358:224|353:224|353:224|350:220|350:220|350:225|350:225|344:226|340:226|340:226|338:231|338:231|337:226|337:226|331:226|327:226|327:226|326:221|326:221|324:226|324:226|319:225|314:225|314:225|312:229|312:229|311:224|311:224|306:223|301:222|301:222|301:217|301:217|298:221|298:221|293:219|289:218|289:218|286:222|286:222|286:217|286:217|281:215|277:213|277:213|278:207|278:207|274:211|274:211|273:210|272:210|272:210|273:205|273:205|269:209|269:209|271:207|271:207|274:212|274:212|269:209|269:209|268:208,1,358.063645530126
208,84,43560,1,0,0:0:0:0:
100,156,43710,2,0,B|105:167|105:167|110:166|110:166|106:170|106:170|110:179|110:179|106:182|106:182|111:181|111:181|116:190|116:190|121:190|121:190|117:193|117:193|121:202|121:202|117:206|117:206|122:205|122:205|126:214|126:214|131:213|131:213|127:217|127:217|132:226|132:226|128:229|128:229|133:229|133:229|137:238|137:238|142:237|142:237|138:240|138:240|142:249|142:249|145:254|145:254|146:248|146:248|147:248|147:248|143:252,1,172.954824255626
420,292,44010,6,0,B|417:285|415:281|415:281|410:282|410:282|414:278|414:278|410:272|409:270|409:270|412:266|412:266|407:267|407:267|404:263|401:260|401:260|396:262|396:262|398:258|398:258|395:254|391:251|391:251|393:246|393:246|389:249|389:249|383:245|380:244|380:244|377:247|377:247|378:242|378:242|376:241|374:240,1,105.913689348446
416,288,44160,2,0,B|413:281|410:277|410:277|405:279|405:279|409:275|409:275|405:269|403:267|403:267|406:262|406:262|401:264|401:264|397:259|395:257|395:257|390:259|390:259|393:255|393:255|389:251|386:248|386:248|388:243|388:243|384:246|384:246|380:242|376:239|376:239|372:243|372:243|373:238|373:238|372:237|370:236,1,109.73636101914
420,292,44310,2,0,B|417:287|414:282|414:282|409:283|409:283|412:279|412:279|408:274|406:271|406:271|409:267|409:267|404:269|404:269|401:265|398:261|398:261|393:264|393:264|396:259|396:259|392:256|389:252|389:252|391:248|391:248|386:250|386:250|381:246|379:244|379:244|374:247|374:247|376:242|376:242|375:241|373:240,1,107.660573708895
256,312,44460,5,0,0:0:0:0:
116,228,44760,2,0,B|127:224|127:224|127:219|127:219|130:223|130:223|140:220|140:220|143:224|143:224|142:219|142:219|152:216|152:216|152:211|152:211|155:215|155:215|164:212|164:212|167:216|167:216|167:211|167:211|177:208|177:208|176:203|176:203|179:207|179:207|189:204|189:204|192:208|192:208|192:203|192:203|201:200|201:200|201:195|201:195|204:199|204:199|213:196|213:196|218:193|218:193|212:192|212:192|212:191|212:191|215:195|215:195|216:195,1,171.038178340206
324,168,45060,1,0,0:0:0:0:
248,72,45210,2,0,B|236:72|236:72|235:77|235:77|234:72|234:72|224:72|224:72|222:67|222:67|220:72|220:72|210:72|210:72|209:78|209:78|207:72|207:72|198:72|198:72|196:67|196:67|194:72|194:72|184:72|184:72|183:77|183:77|182:72|182:72|172:72|172:72|170:67|170:67|168:72|168:72|158:72|158:72|157:77|157:77|156:72|156:72|146:72|146:72|146:73|146:73|141:73|141:73|145:76|145:76|145:77|145:77|144:72|144:72|142:72,1,175.411443288592
48,136,45510,1,0,0:0:0:0:
32,248,45660,1,0,0:0:0:0:
144,272,45810,6,0,B|150:274|155:275|155:275|158:271|158:271|158:276|158:276|163:277|168:278|168:278|168:284|168:284|171:279|171:279|176:280|181:281|181:281|183:276|183:276|184:281|184:281|189:282|194:282|194:282|195:287|195:287|196:282|196:282|202:283|206:283|206:283|208:278|208:278|209:283|209:283|215:283|220:282|220:282|221:287|221:287|223:282|223:282|228:282|232:282|232:282|233:276|233:276|235:281|235:281|240:281|244:280|244:280|244:279|244:279|250:278|250:278|245:275|245:275|247:280|247:280|249:280|251:279|251:279|251:274|251:274|254:279|254:279|259:277|264:276|264:276|266:280|266:280|266:275|266:275|271:274|276:273|276:273|276:267|276:267|279:272|279:272|283:270|288:268|288:268|291:272|291:272|291:267|291:267|296:265|300:263|300:263|299:258|299:258|303:261|303:261|307:259|311:257|311:257|315:260|315:260|314:255|314:255|319:253|323:250|323:250|321:245|321:245|325:248|325:248|330:245|333:243|333:243|337:246|337:246|336:241|336:241|337:240|338:239|338:239|343:242|343:242|342:241|342:241|337:241|337:241|341:238|341:238|341:237|341:237|343:236|342:236,1,353.431009637154
408,176,46260,1,0,0:0:0:0:
328,56,46560,1,0,0:0:0:0:
248,144,46860,1,0,0:0:0:0:
195,140,47010,1,0,0:0:0:0:
144,151,47160,1,0,0:0:0:0:
98,176,47310,1,0,0:0:0:0:
59,211,47460,1,0,0:0:0:0:
228,328,47610,6,0,B|226:316|226:316|220:316|220:316|225:313|225:313|224:310,1,27.1587546156101
380,232,47760,2,0,B|389:225|389:225|387:219|387:219|392:223|392:223|394:221,1,26.9578609335072
328,56,47910,2,0,B|320:64|320:64|322:69|322:69|317:67|317:67|315:69,1,24.912465238
208,176,48060,2,0,B|200:167|200:167|196:169|196:169|198:165|198:165|197:162,1,24.1481441489598
56,104,48660,6,0,B|54:110|52:115|52:115|56:118|56:118|51:118|51:118|49:123|48:127|48:127|42:127|42:127|47:130|47:130|45:135|44:140|44:140|49:142|49:142|44:143|44:143|43:148|42:153|42:153|37:153|37:153|42:155|42:155|41:161|41:165|41:165|46:167|46:167|41:168|41:168|40:174|40:179|40:179|35:180|35:180|40:182|40:182|40:187|41:191|41:191|46:193|46:193|41:195|41:195|41:199|42:204|42:204|43:204|43:204|44:209|44:209|46:204|46:204|47:204|47:204|42:207|42:207|42:208|42:210|42:210|47:210|47:210|43:212|43:212|44:218|45:222|45:222|41:225|41:225|46:225|46:225|47:230|49:235|49:235|54:234|54:234|50:237|50:237|52:242|53:247|53:247|49:250|49:250|55:250|55:250|56:254|58:257,1,256.208524744958
116,276,48960,2,0,B|113:271|110:266|110:266|105:267|105:267|109:263|109:263|106:259|104:255|104:255|108:251|108:251|103:252|103:252|100:247|99:243|99:243|93:243|93:243|97:240|97:240|96:235|94:231|94:231|98:228|98:228|93:228|93:228|91:223|90:218|90:218|85:218|85:218|89:215|89:215|88:210|87:205|87:205|92:203|92:203|87:203|87:203|86:197|85:193|85:193|80:192|80:192|85:190|85:190|84:185|84:181|84:181|83:180|83:180|83:175|83:175|80:179|80:179|79:179|79:179|84:178|84:178|84:176|84:174|84:174|79:173|79:173|84:171|84:171|84:166|84:161|84:161|89:160|89:160|84:158|84:158|84:153|85:148|85:148|80:146|80:146|85:145|85:145|86:140|86:135|86:135|92:135|92:135|87:132|87:132|88:127|89:122|89:122|84:120|84:120|90:120|90:120|91:115|92:110|92:110|97:110|97:110|93:107|93:107|95:102|96:98|96:98|92:94|92:94|97:95|97:95|99:90|101:86|101:86|107:86|107:86|103:83|103:83|103:81|104:80|104:80|109:81|109:81|108:80|108:80|103:82|103:82|106:78|106:78|105:77|105:77|106:76,1,354.596077262379
136,32,49260,5,0,0:0:0:0:
208,144,49560,2,0,B|219:140|219:140|219:135|219:135|222:139|222:139|232:136|232:136|235:141|235:141|235:135|235:135|244:132|244:132|244:127|244:127|247:132|247:132|257:128|257:128|260:133|260:133|259:128|259:128|269:124|269:124|269:119|269:119|272:124|272:124|281:121|281:121|284:125|284:125|284:120|284:120|294:117|294:117|294:111|294:111|297:116|297:116|308:112|308:112|306:113|306:113|308:115|308:115|308:112|308:112|305:113|305:113|305:108|305:108|308:112|306:110|306:110|311:108|311:108|308:112,1,191.937161771434
380,52,50010,1,0,0:0:0:0:
448,140,50310,1,0,0:0:0:0:
400,244,50460,1,0,0:0:0:0:
364,268,50610,1,0,0:0:0:0:
332,292,50760,1,0,0:0:0:0:
136,216,51060,5,0,0:0:0:0:
112,180,51210,1,0,0:0:0:0:
88,144,51360,1,0,0:0:0:0:
208,64,51810,6,0,B|220:65|220:65|222:60|222:60|223:65|223:65|233:66|233:66|234:72|234:72|236:67|236:67|246:68|246:68|248:63|248:63|249:68|249:68|259:69|259:69|260:74|260:74|262:69|262:69|272:70|272:70|274:65|274:65|275:71|275:71|285:72|285:72|286:77|286:77|288:72|288:72|298:73|298:73|300:68|300:68|301:73|301:73|309:74|309:74|310:73|310:73|315:73|315:73|311:70|311:70|311:69|311:69|312:74|312:74|313:74,2,174.273115408284
416,148,52410,2,0,B|413:153|409:158|409:158|412:162|412:162|407:160|407:160|404:164|401:168|401:168|396:165|396:165|399:170|399:170|396:174|393:177|393:177|395:182|395:182|390:179|390:179|387:183|383:186|383:186|379:184|379:184|381:189|381:189|377:192|374:195|374:195|376:200|376:200|371:197|371:197|367:200|363:203|363:203|359:200|359:200|361:205|361:205|356:208|353:211|353:211|354:216|354:216|350:212|350:212|346:215|342:217|342:217|337:220|337:220|343:221|343:221|343:222|343:222|339:218|339:218|337:219|336:219|336:219|337:224|337:224|334:221|334:221|329:223|325:225|325:225|321:221|321:221|322:226|322:226|317:228|313:230|313:230|313:235|313:235|310:231|310:231|305:233|301:235|301:235|298:230|298:230|298:236|298:236|293:237|288:238|288:238|288:244|288:244|285:239|285:239|280:240|276:241|276:241|273:237|273:237|273:242|273:242|267:243|263:243|263:243|262:248|262:248|260:244|260:244|254:244|250:245|250:245|248:240|248:240|247:245|247:245|245:245|244:245|244:245|242:240|242:240|241:245|241:245|242:242|242:242|247:244|247:244|241:245|241:245|238:245,1,361.344717521663
172,72,52860,6,0,B|178:74|183:75|183:75|186:71|186:71|186:76|186:76|191:78|196:79|196:79|196:84|196:84|199:79|199:79|203:80|208:81|208:81|211:77|211:77|211:82|211:82|216:83|221:83|221:83|222:88|222:88|224:84|224:84|230:84|234:85|234:85|236:80|236:80|237:85|237:85|243:85|247:85|247:85|248:90|248:90|250:85|250:85|256:86|260:85|260:85|262:80|262:80|263:85|263:85|268:85|272:85|272:85|272:84|272:84|277:83|277:83|273:81|273:81|273:80|273:80|275:85|275:85|277:85|279:84|279:84|279:79|279:79|282:84|282:84|287:83|291:82|291:82|294:86|294:86|294:81|294:81|299:79|304:78|304:78|303:73|303:73|306:77|306:77|312:74|316:72|316:72|310:71|310:71|315:75|315:75|313:79|311:84|311:84|315:87|315:87|310:86|310:86|308:91|305:95|305:95|300:94|300:94|304:98|304:98|302:103|299:107|299:107|303:110|303:110|298:109|298:109|295:114|293:118|293:118|288:117|288:117|291:120|291:120|291:121|290:122|290:122|285:121|285:121|288:125|288:125|287:123|287:123|290:122|290:122|288:125|288:125|285:130|282:134|282:134|277:132|277:132|280:137|280:137|277:141|274:144|274:144|276:149|276:149|272:146|272:146|268:150|265:153|265:153|260:150|260:150|262:155|262:155|258:158|254:161|254:161|256:166|256:166|252:163|252:163|247:166|243:168|243:168|239:164|239:164|240:169|240:169|236:171|231:173|231:173|231:178|231:178|228:174|228:174|223:176|218:177|218:177|215:172|215:172|215:177|215:177|211:178|208:178|208:178|206:183|206:183|207:180|207:180|211:183|211:183|206:183|206:183|205:178|205:178|203:178|200:178|200:178|199:172|199:172|197:178|197:178|192:177|187:176|187:176|185:181|185:181|184:176|184:176|179:175|175:173|175:173|175:168|175:168|172:172|172:172|167:171|162:169|162:169|159:173|159:173|160:168|160:168|156:166|152:164|152:164|152:165|152:166|152:166|147:166|147:166|151:168|151:168|151:173|151:178|151:178|156:180|156:180|150:181|150:181|150:186|150:191|150:191|145:193|145:193|150:194|150:194|150:200|151:204|151:204|156:205|156:205|151:207|151:207|151:208|151:209|151:209|147:211|147:211|152:212|152:212|148:214|148:214|152:215|152:215|153:219|154:224|154:224|159:224|159:224|155:227|155:227|156:231|158:236|158:236|153:239|153:239|159:239|159:239|161:244|163:248|163:248|168:247|168:247|164:251|164:251|166:255|169:259|169:259|166:263|166:263|171:262|171:262|174:266|177:270|177:270|182:268|182:268|179:272|179:272|183:276|186:279|186:279|184:284|184:284|188:281|188:281|198:289|198:289|192:285|196:287|196:287|200:285|200:285|198:289|198:289|201:292|204:293|204:293|208:290|208:290|204:290|204:290|207:292|207:292|206:295|206:295|209:296|211:298|211:298|215:294|215:294|214:299|214:299|219:301|223:303|223:303|222:308|222:308|226:304|226:304|231:306|235:307|235:307|238:303|238:303|238:308|238:308|243:309|247:310,1,945.71179419602
384,224,53760,1,0,0:0:0:0:
240,56,54060,6,0,B|229:60|229:60|229:65|229:65|226:61|226:61|217:65|217:65|213:60|213:60|214:66|214:66|204:69|204:69|205:74|205:74|202:70|202:70|192:74|192:74|189:69|189:69|189:75|189:75|180:78|180:78|180:83|180:83|177:79|177:79|168:83|168:83|165:78|165:78|165:84|165:84|156:87|156:87|156:92|156:92|153:88|153:88|145:91|145:91|145:92|145:92|140:94|140:94|145:96|145:96|145:97|145:97|142:92|142:92|141:93,2,176.393026486321
308,128,54510,1,0,0:0:0:0:
248,220,54660,1,0,0:0:0:0:
116,184,54810,2,0,B|121:195|121:195|126:194|126:194|122:198|122:198|127:207|127:207|123:210|123:210|128:209|128:209|132:218|132:218|137:218|137:218|133:221|133:221|138:230|138:230|134:233|134:233|139:233|139:233|143:242|143:242|148:241|148:241|144:244|144:244|148:253|148:253|145:257|145:257|150:256|150:256|154:265|154:265|159:264|159:264|155:268|155:268|159:276|159:276|160:276|160:276|162:281|162:281|163:276|163:276|164:276|164:276|160:279|160:279|161:280,1,171.721213322801
292,340,55110,2,0,B|298:330|298:330|294:326|294:326|299:327|299:327|304:318|304:318|309:319|309:319|305:316|305:316|310:307|310:307|307:303|307:303|312:304|312:304|316:296|316:296|322:297|322:297|318:293|318:293|323:284|323:284|319:280|319:280|324:282|324:282|329:273|329:273|334:274|334:274|330:270|330:270|335:261|335:261|332:258|332:258|337:259|337:259|341:251|341:251|340:250|340:250|344:246|344:246|339:248|339:248|338:247|338:247|343:249|343:249|343:248,1,175.117291893617
404,168,55410,1,0,0:0:0:0:
500,112,55560,1,0,0:0:0:0:
384,48,55710,2,0,B|372:51|372:51|372:56|372:56|370:52|370:52|360:54|360:54|357:50|357:50|357:55|357:55|347:57|347:57|347:63|347:63|344:58|344:58|335:61|335:61|332:56|332:56|332:61|332:61|322:64|322:64|322:69|322:69|319:65|319:65|310:67|310:67|307:63|307:63|307:68|307:68|297:70|297:70|297:75|297:75|294:71|294:71|286:73|286:73|286:74|286:74|280:75|280:75|285:78|285:78|285:79|285:79|283:74|283:74|282:74,1,172.789248133322
116,144,56010,6,0,B|122:133|122:133|118:130|118:130|123:131|123:131|128:122|128:122|133:123|133:123|129:119|129:119|134:111|134:111|130:107|130:107|135:108|135:108|140:99|140:99|145:100|145:100|142:97|142:97|146:88|146:88|143:84|143:84|148:85|148:85|152:76|152:76|158:78|158:78|154:74|154:74|159:65|159:65|155:61|155:61|160:62|160:62|164:55|164:55|163:54|163:54|166:50|166:50|161:51|161:51|166:52,1,171.011791669591
244,188,56310,1,0,0:0:0:0:
176,300,56460,1,0,0:0:0:0:
136,304,56610,1,0,0:0:0:0:
96,308,56760,1,0,0:0:0:0:
40,196,56910,6,0,B|52:197|52:197|54:192|54:192|55:197|55:197|65:198|65:198|66:204|66:204|68:199|68:199|75:200,1,51.1146496699387
100,60,57060,2,0,B|107:70|107:70|112:68|112:68|109:72|109:72|114:80|114:80|111:84|111:84|116:83|116:83|120:89,1,49.3358236194456
208,196,57210,2,0,B|217:188|217:188|215:184|215:184|220:187|220:187|227:180|227:180|232:183|232:183|230:178|230:178|235:174,1,49.8634183046615
360,80,57360,2,0,B|349:76|349:76|346:80|346:80|346:75|346:75|337:71|337:71|337:66|337:66|334:70|334:70|327:67,1,49.1693308183796
368,220,57510,2,0,B|358:227|358:227|360:232|360:232|356:229|356:229|348:234|348:234|344:231|344:231|345:236|345:236|339:240,1,49.3358236194456
196,304,57660,1,0,0:0:0:0:
145,316,57735,1,0,0:0:0:0:
97,298,57810,1,0,0:0:0:0:
66,256,57885,1,0,0:0:0:0:
65,204,57960,1,0,0:0:0:0:
92,161,58035,1,0,0:0:0:0:
128,140,58110,1,0,0:0:0:0:
159,116,58185,1,0,0:0:0:0:
180,81,58260,1,0,0:0:0:0:
388,148,58860,5,0,0:0:0:0:
388,172,59160,1,0,0:0:0:0:
388,196,59460,2,0,B|387:202|385:207|385:207|389:210|389:210|384:210|384:210|382:215|381:219|381:219|375:219|375:219|380:222|380:222|378:227|376:231|376:231|379:235|379:235|374:234|374:234|372:239|370:243|370:243|364:242|364:242|368:246|368:246|365:250|363:254|363:254|366:258|366:258|361:256|361:256|358:261|355:264|355:264|350:262|350:262|353:267|353:267|349:271|346:274|346:274|349:279|349:279|344:276|344:276|340:280|337:283|337:283|334:288|334:288|339:286|339:286|340:287|340:287|335:285|335:285|334:286|333:287|333:287|335:292|335:292|330:289|330:289|327:292|323:295|323:295|319:292|319:292|320:296|320:296|316:299|312:302|312:302|313:307|313:307|309:304|309:304|305:306|300:308|300:308|297:305|297:305|298:310|298:310|293:312|289:314|289:314|289:319|289:319|286:315|286:315|281:317|277:319|277:319|274:314|274:314|274:320|274:320|269:321|264:322|264:322|264:328|264:328|261:323|261:323|256:324|251:325|251:325|249:320|249:320|248:326|248:326|247:326|246:326|246:326|244:321|244:321|244:323|244:323|248:325|248:325|243:326|243:326|243:327|243:327|240:327,1,354.712013821397
224,312,59760,2,0,B|224:306|224:300|224:300|218:299|218:299|223:297|223:297|223:292|223:287|223:287|227:286|227:286|222:285|222:285|222:280|221:275|221:275|216:274|216:274|221:272|221:272|220:266|219:262|219:262|224:259|224:259|219:259|219:259|218:253|217:249|217:249|212:249|212:249|216:246|216:246|215:241|214:236|214:236|218:234|218:234|213:233|213:233|212:228|211:224|211:224|205:224|205:224|210:221|210:221|208:216|207:212|207:212|206:212|206:212|205:207|205:207|203:212|203:212|202:212|202:212|206:209|206:209|205:207|205:205|205:205|200:206|200:206|204:203|204:203|202:198|200:193|200:193|204:190|204:190|199:190|199:190|197:186|195:181|195:181|190:182|190:182|194:178|194:178|192:174|190:169|190:169|194:166|194:166|189:167|189:167|187:162|184:158|184:158|179:159|179:159|183:155|183:155|180:150|178:146|178:146|182:142|182:142|177:144|177:144|174:139|171:135|171:135|166:137|166:137|170:133|170:133|167:128|164:124|164:124|167:120|167:120|162:122|162:122|162:121|161:120|161:120|164:116|164:116|159:118|159:118|161:117|161:117|162:121|162:121|159:118|159:118|158:116,1,358.868465695414
128,96,60060,2,0,B|132:91|136:87|136:87|133:83|133:83|138:85|138:85|141:81|145:78|145:78|149:81|149:81|147:76|147:76|151:72|155:69|155:69|153:64|153:64|157:67|157:67|161:64|165:61|165:61|169:65|169:65|167:60|167:60|172:57|176:55|176:55|175:50|175:50|178:53|178:53|183:50|187:48|187:48|191:52|191:52|190:47|190:47|195:45|199:43|199:43|199:38|199:38|202:42|202:42|207:40|211:39|211:39|211:38|211:38|216:37|216:37|211:36|211:36|211:34|211:34|214:38|214:38|216:38|217:37|217:37|218:32|218:32|220:36|220:36|226:35|230:34|230:34|232:39|232:39|233:34|233:34|238:33|243:32|243:32|244:27|244:27|246:32|246:32|248:32|249:32,1,230.238564192469
348,44,60360,1,0,0:0:0:0:
504,156,60510,2,0,B|493:160|493:160|493:165|493:165|490:160|490:160|480:163|480:163|477:159|477:159|477:164|477:164|468:167|468:167|468:172|468:172|465:168|465:168|456:171|456:171|453:167|453:167|453:172|453:172|443:175|443:175|443:180|443:180|440:176|440:176|431:179|431:179|428:174|428:174|428:180|428:180|418:182|418:182|418:188|418:188|416:183|416:183|407:186|407:186|407:187|407:187|402:188|402:188|407:190|407:190|407:191|407:191|404:187|404:187|403:187|403:187|402:187,1,174.261936795299
248,112,60810,1,0,0:0:0:0:
324,296,60960,2,0,B|312:294|312:294|310:298|310:298|309:293|309:293|299:291|299:291|299:286|299:286|297:291|297:291|287:289|287:289|284:294|284:294|284:288|284:288|274:286|274:286|273:281|273:281|271:286|271:286|261:284|261:284|259:289|259:289|258:284|258:284|249:282|249:282|248:276|248:276|246:281|246:281|236:279|236:279|233:284|233:284|233:279|233:279|224:277|224:277|224:278|224:278|219:277|219:277|223:281|223:281|222:282|222:282|221:277,1,174.918435994466
8,184,61260,5,0,0:0:0:0:
80,96,61410,1,0,0:0:0:0:
156,192,61560,2,0,B|162:181|162:181|158:178|158:178|163:179|163:179|168:170|168:170|173:171|173:171|169:167|169:167|174:158|174:158|170:155|170:155|175:156|175:156|180:147|180:147|185:148|185:148|181:144|181:144|185:136|185:136|182:132|182:132|187:133|187:133|191:124|191:124|197:125|197:125|193:121|193:121|197:113|197:113|194:109|194:109|199:110|199:110|203:102|203:102|202:101|202:101|204:97|204:97|200:99|200:99|199:98|199:98|204:99,1,170.617688949567
288,28,61860,2,0,B|300:31|300:31|302:26|302:26|303:31|303:31|312:34|312:34|313:39|313:39|315:34|315:34|325:37|325:37|327:32|327:32|328:37|328:37|338:40|338:40|338:45|338:45|340:40|340:40|350:42|350:42|353:38|353:38|353:43|353:43|363:45|363:45|363:51|363:51|366:46|366:46|375:48|375:48|378:44|378:44|378:49|378:49|387:51|387:51|388:50|388:50|392:52|392:52|389:48|389:48|390:47|390:47|390:52,1,172.541162588043
488,120,62160,1,0,0:0:0:0:
428,256,62310,2,0,B|422:246|422:246|417:247|417:247|421:243|421:243|416:234|416:234|419:231|419:231|414:232|414:232|409:223|409:223|404:224|404:224|408:221|408:221|403:212|403:212|406:208|406:208|401:209|401:209|396:201|396:201|391:202|391:202|395:198|395:198|390:189|390:189|393:186|393:186|388:187|388:187|383:178|383:178|378:179|378:179|382:176|382:176|377:167|377:167|374:163|374:163|374:168|374:168|372:169|372:169|376:165|376:165|376:164,1,172.254714463035
280,44,62610,2,0,B|271:52|271:52|274:57|274:57|269:54|269:54|262:61|262:61|258:59|258:59|260:63|260:63|253:70|253:70|255:75|255:75|251:72|251:72|243:79|243:79|239:77|239:77|241:81|241:81|234:88|234:88|236:93|236:93|232:90|232:90|225:97|225:97|220:95|220:95|223:99|223:99|215:106|215:106|218:111|218:111|213:108|213:108|206:115|206:115|203:119|203:119|208:117|208:117|209:119|209:119|204:117,1,173.173604299872
192,240,62910,1,0,0:0:0:0:
360,112,63060,6,0,B|363:117|365:123|365:123|370:122|370:122|366:125|366:125|368:130|369:135|369:135|365:138|365:138|370:138|370:138|372:143|373:147|373:147|379:147|379:147|374:150|374:150|375:155|376:160|376:160|372:162|372:162|377:163|377:163|378:168|379:173|379:173|384:173|384:173|379:176|379:176|380:180|380:185|380:185|375:187|375:187|381:188|381:188|381:194|381:199|381:199|386:200|386:200|381:201|381:201|381:206|381:210|381:210|382:211|382:211|382:216|382:216|385:212|385:212|386:212|386:212|381:213|381:213|381:215|381:217|381:217|386:219|386:219|381:220|381:220|380:225|379:230|379:230|374:231|374:231|379:233|379:233|378:238|377:243|377:243|382:245|382:245|377:246|377:246|376:248|376:249,1,232.075079443848
412,264,63360,2,0,B|415:258|417:253|417:253|412:250|412:250|418:250|418:250|419:245|421:241|421:241|426:241|426:241|422:238|422:238|423:233|424:229|424:229|419:226|419:226|425:226|425:226|426:221|426:216|426:216|432:215|432:215|427:213|427:213|427:207|428:203|428:203|423:201|423:201|428:200|428:200|428:194|428:190|428:190|433:188|433:188|428:187|428:187|428:182|428:177|428:177|422:176|422:176|427:174|427:174|427:168|426:164|426:164|424:159|424:159|422:164|422:164|421:164|421:164|425:162|425:162|425:160|424:158|424:158|419:158|419:158|424:156|424:156|423:150|422:146|422:146|426:143|426:143|421:143|421:143|419:138|418:133|418:133|413:133|413:133|417:130|417:130|415:126|413:121|413:121|417:118|417:118|412:118|412:118|410:114|408:109|408:109|403:110|403:110|406:107|406:107|400:96|404:102|401:98|401:98|404:95|404:95|400:96,1,287.790239397885
440,76,63660,2,0,B|443:81|445:86|445:86|450:86|450:86|446:89|446:89|448:94|450:98|450:98|446:102|446:102|451:101|451:101|453:106|455:110|455:110|460:110|460:110|456:113|456:113|457:118|459:123|459:123|454:126|454:126|460:126|460:126|461:131|462:135|462:135|467:136|467:136|463:138|463:138|464:143|465:148|465:148|461:151|461:151|466:151|466:151|467:156|467:161|467:161|473:162|473:162|468:164|468:164|469:168|469:173|469:173|470:173|470:173|470:178|470:178|473:174|473:174|474:174|474:174|469:176|469:176|469:178|469:179|469:179|474:180|474:180|470:182|470:182|470:187|470:192|470:192|465:194|465:194|470:195|470:195|470:200|470:205|470:205|475:207|475:207|470:208|470:208|470:213|470:218|470:218|465:219|465:219|470:221|470:221|469:227|469:231|469:231|474:233|474:233|469:234|469:234|468:240|467:244|467:244|462:245|462:245|467:247|467:247|466:253|465:257|465:257|470:259|470:259|465:260|465:260|464:265|462:270|462:270|457:270|457:270|462:273|462:273|461:274|461:275|461:275|456:275|456:275|460:278|460:278|458:276|458:276|462:274|462:274|460:278|460:278|459:280|459:281,1,355.400680975794
492,280,63960,2,0,B|494:275|496:269|496:269|491:266|491:266|496:266|496:266|498:261|499:256|499:256|504:256|504:256|500:253|500:253|501:249|502:244|502:244|498:241|498:241|503:241|503:241|504:235|504:231|504:231|510:230|510:230|505:228|505:228|506:223|506:218|506:218|501:216|501:216|507:215|507:215|507:210|507:205|507:205|513:204|513:204|508:202|508:202|508:197|508:192|508:192|503:191|503:191|508:189|508:189|508:184|508:180|508:180|507:180|507:180|507:175|507:175|504:179|504:179|503:179|503:179|508:177|508:177|508:175|508:174|508:174|503:172|503:172|508:171|508:171|507:166|507:161|507:161|511:159|511:159|507:158|507:158|506:153|505:148|505:148|500:147|500:147|505:145|505:145|504:140|503:135|503:135|508:133|508:133|503:132|503:132|502:127|501:122|501:122|495:122|495:122|500:119|500:119|498:114|497:110|497:110|501:107|501:107|496:107|496:107|495:102|493:97|493:97|488:98|488:98|492:94|492:94|490:89|489:85|489:85|493:82|493:82|487:82|487:82|487:80|486:79|486:79|490:76|490:76|489:76|489:76|488:81|488:81|486:77|486:77|485:77|485:77|485:76|484:75,1,352.461740936955
240,52,64260,6,0,B|234:50|229:49|229:49|227:54|227:54|226:48|226:48|221:48|216:48|216:48|214:43|214:43|213:48|213:48|208:49|203:51|203:51|204:56|204:56|201:52|201:52|198:53|196:54|196:54|194:55|192:57|192:57|187:53|187:53|189:58|189:58|185:62|182:65|182:65|184:69|184:69|180:67|180:67|176:71|174:75|174:75|169:74|169:74|173:78|173:78|170:82|169:87|169:87|173:90|173:90|168:90|168:90|167:95|167:100|167:100|168:106|168:106|170:101|170:101|172:101|172:101|167:103|167:103|167:105|167:106|167:106|173:106|173:106|168:109|168:109|168:114|170:118|170:118|166:121|166:121|171:121|171:121|172:126|175:130|175:130|180:129|180:129|177:133|177:133|180:137|183:140|183:140|181:145|181:145|185:142|185:142|186:143|186:143|190:146|194:148|194:148|197:144|197:144|196:149|196:149|201:152|206:153|206:153|206:158|206:158|208:154|208:154|214:155|218:155|218:155|220:150|220:150|221:155|221:155|224:155|226:155|226:155|229:155|231:154|231:154|234:158|234:158|234:153|234:153|236:153|237:152|237:152|240:157|240:157|240:156|240:156|235:154|235:154|240:153|240:153|240:151|240:151|244:149|247:147|247:147|251:151|251:151|250:146|250:146|254:143|258:140|258:140|255:135|255:135|260:138|260:138|263:134|266:130|266:130|271:131|271:131|267:127|267:127|269:123|271:119|271:119|271:118|271:118|267:115|267:115|272:115|272:115|273:110|274:105|274:105|278:104|278:104|274:102|274:102|274:97|273:93,1,461.949629302682
240,52,64560,6,0,B|234:50|229:49|229:49|227:54|227:54|226:48|226:48|221:48|216:48|216:48|214:43|214:43|213:48|213:48|208:49|203:51|203:51|204:56|204:56|201:52|201:52|198:53|196:54|196:54|194:55|192:57|192:57|187:53|187:53|189:58|189:58|185:62|182:65|182:65|184:69|184:69|180:67|180:67|176:71|174:75|174:75|169:74|169:74|173:78|173:78|170:82|169:87|169:87|173:90|173:90|168:90|168:90|167:95|167:100|167:100|168:106|168:106|170:101|170:101|172:101|172:101|167:103|167:103|167:105|167:106|167:106|173:106|173:106|168:109|168:109|168:114|170:118|170:118|166:121|166:121|171:121|171:121|172:126|175:130|175:130|180:129|180:129|177:133|177:133|180:137|183:140|183:140|181:145|181:145|185:142|185:142|186:143|186:143|190:146|194:148|194:148|197:144|197:144|196:149|196:149|201:152|206:153|206:153|206:158|206:158|208:154|208:154|214:155|218:155|218:155|220:150|220:150|221:155|221:155|224:155|226:155|226:155|229:155|231:154|231:154|234:158|234:158|234:153|234:153|236:153|237:152|237:152|240:157|240:157|240:156|240:156|235:154|235:154|240:153|240:153|240:151|240:151|244:149|247:147|247:147|251:151|251:151|250:146|250:146|254:143|258:140|258:140|255:135|255:135|260:138|260:138|263:134|266:130|266:130|271:131|271:131|267:127|267:127|269:123|271:119|271:119|271:118|271:118|267:115|267:115|272:115|272:115|273:110|274:105|274:105|278:104|278:104|274:102|274:102|274:97|273:93,1,461.949629302682
468,144,64860,6,0,B|458:150|458:150|459:155|459:155|455:151|455:151|446:156|446:156|443:153|443:153|444:158|444:158|435:163|435:163|436:168|436:168|432:164|432:164|424:169|424:169|420:165|420:165|421:170|421:170|412:175|412:175|414:180|414:180|410:177|410:177|401:182|401:182|397:178|397:178|399:183|399:183|390:188|390:188|391:193|391:193|387:189|387:189|379:194|379:194|374:197|374:197|380:198|380:198|380:199|380:199|377:195|377:195|376:196,1,175.12828386307
392,312,65160,1,0,0:0:0:0:
268,252,65310,2,0,B|264:241|264:241|259:241|259:241|263:238|263:238|259:229|259:229|264:225|264:225|258:226|258:226|255:216|255:216|250:217|250:217|254:214|254:214|251:204|251:204|255:201|255:201|250:201|250:201|246:192|246:192|241:192|241:192|245:189|245:189|242:180|242:180|246:177|246:177|241:177|241:177|237:168|237:168|232:168|232:168|236:165|236:165|233:156|233:156|230:151|230:151|229:157|229:157|227:157|227:157|231:154|231:154|231:153,1,173.604173001407
360,88,65610,2,0,B|349:84|349:84|346:89|346:89|346:83|346:83|336:80|336:80|336:75|336:75|333:79|333:79|324:76|324:76|321:81|321:81|321:76|321:76|312:72|312:72|312:67|312:67|309:72|309:72|299:69|299:69|296:73|296:73|296:68|296:68|287:65|287:65|287:59|287:59|284:64|284:64|274:61|274:61|271:65|271:65|272:60|272:60|263:57|263:57|262:58|262:58|258:56|258:56|261:60|261:60|260:61|260:61|260:56,1,174.058366353482
168,128,65910,2,0,B|157:133|157:133|157:138|157:138|154:134|154:134|145:138|145:138|142:134|142:134|142:139|142:139|133:143|133:143|134:148|134:148|130:144|130:144|121:148|121:148|118:143|118:143|118:149|118:149|109:152|109:152|110:158|110:158|106:154|106:154|97:157|97:157|94:153|94:153|94:159|94:159|85:162|85:162|86:168|86:168|82:164|82:164|74:167|74:167|74:168|74:168|70:170|70:170|75:171|75:171|75:173|75:173|71:169,1,173.928191001412
32,268,66210,1,0,0:0:0:0:
216,268,66360,5,0,0:0:0:0:
304,48,66510,1,0,0:0:0:0:
424,336,66660,2,0,B|416:327|416:327|412:329|412:329|415:324|415:324|408:317|408:317|411:312|411:312|406:314|406:314|400:307|400:307|395:309|395:309|398:304|398:304|392:296|392:296|395:292|395:292|390:294|390:294|384:286|384:286|379:288|379:288|382:284|382:284|376:276|376:276|379:272|379:272|374:274|374:274|368:266|368:266|363:268|363:268|366:264|366:264|360:257|360:257|359:257|359:257|356:254|356:254|356:259|356:259|359:254|359:254|358:254,1,171.729751494297
144,156,66960,1,0,0:0:0:0:
176,56,67110,2,0,B|188:54|188:54|188:49|188:49|191:53|191:53|201:52|201:52|203:56|203:56|203:51|203:51|213:49|213:49|214:44|214:44|216:49|216:49|226:47|226:47|228:52|228:52|229:46|229:46|239:45|239:45|239:40|239:40|242:44|242:44|251:42|251:42|254:47|254:47|254:42|254:42|264:40|264:40|265:35|265:35|267:40|267:40|276:38|276:38|276:37|276:37|282:37|282:37|277:34|277:34|277:33|277:33|279:38|279:38|280:38,1,174.253982829692
368,72,67410,1,0,0:0:0:0:
416,148,67560,1,0,0:0:0:0:
428,232,67710,1,0,0:0:0:0:
360,328,67860,2,0,B|349:324|349:324|346:328|346:328|346:323|346:323|336:320|336:320|337:314|337:314|334:319|334:319|324:315|324:315|321:320|321:320|321:314|321:314|312:311|312:311|312:306|312:306|309:310|309:310|300:307|300:307|297:311|297:311|297:306|297:306|288:302|288:302|288:297|288:297|285:301|285:301|275:298|275:298|272:302|272:302|272:297|272:297|264:294|264:294|263:295|263:295|259:293|259:293|262:297|262:297|261:298|261:298|261:293,1,171.767399450668
72,208,68160,6,0,B|84:205|84:205|84:200|84:200|87:204|87:204|96:202|96:202|99:207|99:207|99:201|99:201|109:199|109:199|109:194|109:194|112:198|112:198|122:196|122:196|124:200|124:200|124:195|124:195|134:193|134:193|134:188|134:188|137:192|137:192|147:190|147:190|149:194|149:194|150:189|150:189|159:187|159:187|160:182|160:182|162:186|162:186|171:184|171:184|171:183|171:183|176:182|176:182|171:180|171:180|171:179|171:179|174:183,1,168.749689465231
264,112,68460,2,0,B|253:108|253:108|250:112|250:112|250:106|250:106|241:103|241:103|241:97|241:97|238:102|238:102|229:98|229:98|226:102|226:102|226:97|226:97|217:93|217:93|217:88|217:88|214:92|214:92|205:88|205:88|201:92|201:92|202:87|202:87|193:83|193:83|193:78|193:78|190:82|190:82|181:78|181:78|177:82|177:82|178:77|178:77|170:74|170:74|169:75|169:75|165:73|165:73|167:77|167:77|166:78|166:78|167:73|167:73|166:73,1,171.194243614877
48,80,68760,1,0,0:0:0:0:
4,156,68910,1,0,0:0:0:0:
72,292,69060,6,0,B|73:286|75:281|75:281|71:278|71:278|76:278|76:278|78:273|81:269|81:269|86:271|86:271|82:267|82:267|86:262|89:259|89:259|87:255|87:255|92:257|92:257|94:256|95:255|95:255|97:253|100:252|100:252|104:256|104:256|103:251|103:251|107:249|112:247|112:247|112:242|112:242|115:247|115:247|120:246|125:246|125:246|126:251|126:251|128:246|128:246|132:246|135:247|135:247|137:247|138:248|138:248|141:244|141:244|141:249|141:249|145:250|149:252|149:252|150:251|150:251|155:254|155:254|152:249|152:249|153:248|153:248|152:253|152:253|153:254|155:255|155:255|159:252|159:252|157:257|157:257|161:260|165:263|165:263|162:268|162:268|166:266|166:266|170:269|172:274|172:274|177:273|177:273|173:277|173:277|177:289|177:289|175:282|176:286|176:286|172:289|172:289|177:289|177:289|178:294|178:299|178:299|183:300|183:300|178:302|178:302|178:307|177:312|177:312|171:312|171:312|176:315|176:315|174:320|172:324|172:324|176:328|176:328|170:327|170:327|169:328|169:329|169:329|167:332|165:335|165:335|160:332|160:332|162:337|162:337|162:338|161:338|161:338|156:336|156:336|159:340|159:340|158:338|158:338|161:337|161:337|159:340|159:340|154:343|150:346|150:346|147:342|147:342|147:347|147:347|143:349|138:351|138:351|138:356|138:356|135:351|135:351|130:352|125:352|125:352|124:348|124:348|122:352|122:352|119:352|117:352|117:352|114:351|112:351|112:351|110:355|110:355|109:350|109:350|104:349|100:347|100:347|101:341|101:341|97:345|97:345|94:343|91:341,1,471.343602936266
72,292,69360,6,0,B|73:286|75:281|75:281|71:278|71:278|76:278|76:278|78:273|81:269|81:269|86:271|86:271|82:267|82:267|86:262|89:259|89:259|87:255|87:255|92:257|92:257|94:256|95:255|95:255|97:253|100:252|100:252|104:256|104:256|103:251|103:251|107:249|112:247|112:247|112:242|112:242|115:247|115:247|120:246|125:246|125:246|126:251|126:251|128:246|128:246|132:246|135:247|135:247|137:247|138:248|138:248|141:244|141:244|141:249|141:249|145:250|149:252|149:252|150:251|150:251|155:254|155:254|152:249|152:249|153:248|153:248|152:253|152:253|153:254|155:255|155:255|159:252|159:252|157:257|157:257|161:260|165:263|165:263|162:268|162:268|166:266|166:266|170:269|172:274|172:274|177:273|177:273|173:277|173:277|177:289|177:289|175:282|176:286|176:286|172:289|172:289|177:289|177:289|178:294|178:299|178:299|183:300|183:300|178:302|178:302|178:307|177:312|177:312|171:312|171:312|176:315|176:315|174:320|172:324|172:324|176:328|176:328|170:327|170:327|169:328|169:329|169:329|167:332|165:335|165:335|160:332|160:332|162:337|162:337|162:338|161:338|161:338|156:336|156:336|159:340|159:340|158:338|158:338|161:337|161:337|159:340|159:340|154:343|150:346|150:346|147:342|147:342|147:347|147:347|143:349|138:351|138:351|138:356|138:356|135:351|135:351|130:352|125:352|125:352|124:348|124:348|122:352|122:352|119:352|117:352|117:352|114:351|112:351|112:351|110:355|110:355|109:350|109:350|104:349|100:347|100:347|101:341|101:341|97:345|97:345|94:343|91:341,1,471.343602936266
16,184,69660,6,0,B|26:177|26:177|24:172|24:172|28:175|28:175|36:170|36:170|41:173|41:173|39:168|39:168|47:162|47:162|45:157|45:157|50:161|50:161|58:155|58:155|62:158|62:158|60:153|60:153|68:147|68:147|67:142|67:142|71:146|71:146|79:140|79:140|83:143|83:143|81:138|81:138|90:133|90:133|88:128|88:128|92:131|92:131|99:126|99:126|99:125|99:125|104:122|104:122|98:121|98:121|102:124,1,173.753145319134
184,48,69960,1,0,0:0:0:0:
248,120,70110,1,0,0:0:0:0:
460,224,70260,6,0,B|464:219|466:214|466:214|462:211|462:211|467:211|467:211|469:206|469:201|469:201|474:200|474:200|469:198|469:198|470:193|469:189|469:189|464:188|464:188|468:186|468:186|468:184|468:184|467:179|465:176|465:176|470:172|470:172|464:173|464:173|462:168|459:165|459:165|454:167|454:167|457:162|457:162|454:158|450:156|450:156|451:150|451:150|447:154|447:154|446:153|446:153|442:151|438:150|438:150|435:154|435:154|436:149|436:149|431:147|426:147|426:147|421:147|421:147|425:150|425:150|424:152|424:152|423:146|423:146|422:146|421:146|421:146|420:151|420:151|418:146|418:146|413:147|408:148|408:148|405:144|405:144|405:149|405:149|400:150|396:153|396:153|397:158|397:158|394:154|394:154|389:157|385:161|385:161|380:159|380:159|383:163|383:163|380:167|378:171|378:171|382:174|382:174|377:173|377:173|374:178|373:183|373:183|368:183|368:183|373:186|373:186|372:191|372:197|372:197|376:198|376:198|372:200|372:200|372:204|373:209|373:209|369:211|369:211|374:211|374:211|375:213|376:215|376:215|372:219|372:219|373:213|373:213|376:218|376:218|377:218|377:218|379:222|382:225|382:225|379:229|379:229|384:227|384:227|387:231|391:234|391:234|395:231|395:231|393:236|393:236|398:238|402:240|402:240|402:246|402:246|405:241|405:241|408:242|410:243|410:243|412:243|415:244|415:244|417:239|417:239|418:244|418:244|423:244|428:243|428:243|430:248|430:248|431:243|431:243|436:242|440:240,1,463.645736043372
356,60,70560,2,0,B|345:64|345:64|345:70|345:70|342:66|342:66|333:69|333:69|330:65|330:65|330:70|330:70|321:74|321:74|321:79|321:79|318:75|318:75|309:79|309:79|305:75|305:75|306:80|306:80|297:84|297:84|297:89|297:89|294:85|294:85|285:89|285:89|281:84|281:84|282:90|282:90|273:93|273:93|273:99|273:99|270:94|270:94|261:98|261:98|257:101|257:101|262:101|262:101|262:103|262:103|259:99|259:99|258:99,1,173.995367306372
228,220,70860,1,0,0:0:0:0:
144,44,71010,1,0,0:0:0:0:
24,332,71160,2,0,B|27:320|27:320|22:318|22:318|28:318|28:318|30:308|30:308|35:308|35:308|31:305|31:305|33:295|33:295|29:293|29:293|34:292|34:292|37:283|37:283|42:283|42:283|37:280|37:280|40:270|40:270|35:268|35:268|41:267|41:267|43:258|43:258|48:257|48:257|44:255|44:255|46:245|46:245|42:242|42:242|47:242|47:242|49:234|49:234|48:233|48:233|50:228|50:228|45:231|45:231|50:231|50:231|50:230,1,171.813014397303
128,148,71460,2,0,B|139:153|139:153|142:149|142:149|142:154|142:154|151:158|151:158|150:164|150:164|153:160|153:160|162:164|162:164|166:160|166:160|165:165|165:165|174:169|174:169|174:175|174:175|177:171|177:171|186:175|186:175|190:171|190:171|189:176|189:176|198:180|198:180|197:185|197:185|201:182|201:182|210:186|210:186|213:182|213:182|212:187|212:187|221:191|221:191|226:192|226:192|223:188|223:188|224:187|224:187|223:192|223:192|224:192,1,172.42985225938
260,312,71760,1,0,0:0:0:0:
372,232,71910,2,0,B|366:222|366:222|361:223|361:223|364:219|364:219|359:211|359:211|362:207|362:207|357:208|357:208|352:200|352:200|347:201|347:201|350:197|350:197|345:189|345:189|348:185|348:185|343:186|343:186|338:178|338:178|333:179|333:179|337:176|337:176|331:167|331:167|335:163|335:163|330:165|330:165|324:156|324:156|319:157|319:157|323:154|323:154|318:146|318:146|317:146|317:146|314:142|314:142|314:147|314:147|313:147|313:147|316:143,1,169.101253240941
228,32,72210,1,0,0:0:0:0:
168,340,72360,6,0,B|163:329|163:329|158:330|158:330|162:326|162:326|157:317|157:317|161:314|161:314|156:315|156:315|152:306|152:306|146:307|146:307|150:303|150:303|146:294|146:294|150:290|150:290|145:291|145:291|140:282|140:282|135:283|135:283|139:280|139:280|135:271|135:271|139:267|139:267|133:268|133:268|129:259|129:259|124:260|124:260|128:256|128:256|124:248|124:248|123:248|123:248|121:244|121:244|120:249|120:249|119:249|119:249|123:245|123:245|122:245,1,175.18691296686
384,92,72660,6,0,B|393:100|393:100|397:98|397:98|395:102|395:102|402:109|402:109|400:114|400:114|404:111|404:111|412:118|412:118|416:115|416:115|414:120|414:120|421:127|421:127|419:131|419:131|424:129|424:129|431:136|431:136|435:133|435:133|433:138|433:138|440:144|440:144|435:146|435:146|440:148|440:148|440:158|440:158|445:159|445:159|440:160|440:160|440:170|440:170|441:175|441:175|443:171|443:171|445:171|445:171|440:172|440:172|440:175|440:175|445:176|445:176|440:178|440:178|440:188|440:188|435:190|435:190|440:191|440:191|440:201|440:201|445:202|445:202|440:204|440:204|440:208,1,227.637933338013
440,207,72960,6,0,B|428:210|428:210|428:215|428:215|425:210|425:210|416:213|416:213|413:208|413:208|413:213|413:213|403:216|403:216|403:221|403:221|400:216|400:216|388:219|388:219|390:218|390:218|388:215|388:215|388:219|388:219|385:229|385:229|389:232|389:232|384:232|384:232|381:241|381:241|376:241|376:241|380:244|380:244|377:254|377:254|382:256|382:256|377:256|377:256|374:265|374:265|375:266|375:266|373:271|373:271|378:268|378:268|373:268|373:268|372:272|372:272|376:275|376:275|371:275|371:275|368:285|368:285|363:285|363:285|367:288|367:288|364:297|364:297|369:300|369:300|364:300|364:300|363:302,1,231.987287218319
268,332,73260,2,0,B|258:325|258:325|254:329|254:329|256:324|256:324|247:318|247:318|249:313|249:313|245:316|245:316|236:311|236:311|232:314|232:314|234:309|234:309|226:304|226:304|227:299|227:299|223:302|223:302|215:296|215:296|211:300|211:300|212:295|212:295|204:289|204:289|206:284|206:284|202:288|202:288|193:282|193:282|189:285|189:285|191:280|191:280|183:275|183:275|178:273|178:273|181:277|181:277|179:279|179:279|181:274|181:274|180:274,1,176.696638223968
72,244,73560,1,0,0:0:0:0:
100,152,73710,1,0,0:0:0:0:
144,60,73860,6,0,B|150:59|155:58|155:58|156:53|156:53|159:58|159:58|163:57|168:56|168:56|170:61|170:61|171:56|171:56|177:56|181:55|181:55|183:50|183:50|184:55|184:55|189:55|194:55|194:55|196:60|196:60|197:55|197:55|202:55|207:55|207:55|209:50|209:50|210:55|210:55|216:55|220:56|220:56|221:61|221:61|223:56|223:56|228:56|233:57|233:57|235:52|235:52|236:58|236:58|241:58|245:59|245:59|246:58|246:58|250:60|250:60|247:56|247:56|248:55|248:55|248:60|248:60|250:60|252:61|252:61|254:56|254:56|255:61|255:61|260:62|265:64|265:64|265:69|265:69|268:64|268:64|272:66|277:67|277:67|280:63|280:63|280:68|280:68|285:69|290:71|290:71|289:76|289:76|292:72|292:72|298:74|302:76|302:76|305:72|305:72|304:77|304:77|310:79|314:81|314:81|313:86|313:86|316:82|316:82|321:85|325:87|325:87|329:83|329:83|328:88|328:88|332:91|336:93|336:93|335:98|335:98|339:95|339:95|340:96|341:96|341:96|339:101|339:101|341:99|341:99|338:95|338:95|343:97|343:97|347:100|351:102|351:102|349:107|349:107|354:104|354:104|358:107|361:110|361:110|366:107|366:107|364:112|364:112|368:115|372:118|372:118|370:123|370:123|374:120|374:120|378:123|381:127|381:127|386:124|386:124|384:129|384:129|387:132|391:136|391:136|388:140|388:140|393:138|393:138|396:142|400:145|400:145|404:143|404:143|402:147|402:147|405:152|408:155|408:155|405:159|405:159|410:157|410:157|413:161|416:165|416:165|416:160|416:160|419:164|419:164|421:163|421:163|418:167|418:167|421:171|419:168|420:170|420:170|418:172|418:172|421:171,1,530.251337126909
452,224,74160,2,0,B|446:223|441:222|441:222|438:227|438:227|438:221|438:221|433:220|428:220|428:220|427:214|427:214|425:219|425:219|420:218|415:218|415:218|413:222|413:222|412:217|412:217|407:217|402:216|402:216|401:211|401:211|399:216|399:216|394:215|389:215|389:215|387:219|387:219|386:214|386:214|381:214|376:213|376:213|375:208|375:208|373:213|373:213|368:213|363:213|363:213|361:218|361:218|360:212|360:212|355:212|351:212|351:212|351:213|351:213|346:212|346:212|350:216|350:216|349:217|349:217|348:212|348:212|346:212|345:212|345:212|343:217|343:217|342:212|342:212|337:212|332:212|332:212|330:207|330:207|329:212|329:212|323:212|319:212|319:212|317:217|317:217|316:212|316:212|310:212|306:212|306:212|304:207|304:207|303:212|303:212|297:213|293:213|293:213|291:218|291:218|290:213|290:213|284:213|280:213|280:213|278:209|278:209|277:214|277:214|271:214|267:214|267:214|266:219|266:219|264:215|264:215|258:215|254:215|254:215|252:211|252:211|251:216|251:216|249:216|248:216|248:216|246:211|246:211|246:213|246:213|250:215|250:215|245:216|245:216|245:217|245:217|241:218|236:218|236:218|234:213|234:213|233:218|233:218|228:219|224:220|224:220|223:225|223:225|221:220|221:220|215:221|211:222|211:222|208:217|208:217|208:222|208:222|202:223|198:224|198:224|197:229|197:229|195:225|195:225|190:226|185:227|185:227|183:222|183:222|182:227|182:227|177:228|172:230|172:230|172:235|172:235|170:230|170:230|164:231|160:233|160:233|157:228|157:228|157:233|157:233|152:235|147:236|147:236|154:238|154:238|147:240|147:240|147:241|147:241|144:236|144:236|140:238|143:236|142:237|142:237|139:234|139:234|140:238,1,535.084538828054
144,304,74460,2,0,B|151:294|151:294|148:290|148:290|153:292|153:292|159:284|159:284|164:286|164:286|161:282|161:282|167:274|167:274|164:269|164:269|168:271|168:271|174:263|174:263|179:265|179:265|176:261|176:261|182:253|182:253|179:249|179:249|184:250|184:250|190:242|190:242|195:244|195:244|192:240|192:240|198:232|198:232|194:228|194:228|199:230|199:230|205:222|205:222|207:217|207:217|203:220|203:220|201:218|201:218|206:220|206:220|207:218|207:218|204:214|204:214|209:216|209:216|215:208|215:208|220:209|220:209|217:205|217:205|223:197|223:197|220:193|220:193|225:195|225:195|231:187|231:187|236:188|236:188|232:184|232:184|238:176|238:176|235:172|235:172|240:174|240:174|246:166|246:166|251:168|251:168|248:163|248:163|254:155|254:155|251:151|251:151|256:153|256:153|262:145|262:145|266:147|266:147|263:143|263:143|266:139|266:139|271:141|271:141|266:142|266:142|269:138|269:138|268:137|268:137|269:135,1,353.244437003646
340,36,74760,1,0,0:0:0:0:
260,20,74910,1,0,0:0:0:0:
228,180,75060,2,0,B|220:171|220:171|216:173|216:173|218:168|218:168|212:161|212:161|215:156|215:156|210:158|210:158|204:151|204:151|199:153|199:153|202:148|202:148|196:141|196:141|199:136|199:136|194:138|194:138|187:131|187:131|183:133|183:133|186:128|186:128|179:121|179:121|182:116|182:116|177:118|177:118|171:111|171:111|166:113|166:113|169:108|169:108|163:101|163:101|159:97|159:97|160:102|160:102|158:103|158:103|161:99,1,172.171220600943
56,56,75360,2,0,B|53:68|53:68|57:70|57:70|52:70|52:70|49:80|49:80|44:80|44:80|49:83|49:83|46:93|46:93|50:95|50:95|45:95|45:95|42:105|42:105|37:105|37:105|42:108|42:108|39:117|39:117|43:120|43:120|38:120|38:120|36:130|36:130|30:130|30:130|35:133|35:133|32:142|32:142|37:145|37:145|31:145|31:145|29:154|29:154|30:154|30:154|29:159|29:159|32:156|32:156|34:157|34:157|28:157|28:157|28:158,1,175.927293516665
332,320,75660,6,0,B|328:309|328:309|322:309|322:309|326:306|326:306|323:297|323:297|327:294|327:294|322:294|322:294|318:285|318:285|313:285|313:285|317:282|317:282|313:273|313:273|317:269|317:269|312:270|312:270|308:261|308:261|303:261|303:261|307:258|307:258|303:249|303:249|308:245|308:245|302:246|302:246|299:237|299:237|293:237|293:237|298:234|298:234|294:225|294:225|291:221|291:221|291:226|291:226|289:226|289:226|293:223|293:223|293:222,1,173.995367306372
184,112,75960,1,0,0:0:0:0:
244,40,76110,2,0,B|255:45|255:45|258:41|258:41|258:46|258:46|267:50|267:50|266:55|266:55|270:51|270:51|279:55|279:55|282:51|282:51|282:56|282:56|291:60|291:60|290:65|290:65|294:61|294:61|303:65|303:65|306:61|306:61|305:66|305:66|315:70|315:70|314:75|314:75|317:71|317:71|327:75|327:75|330:71|330:71|329:76|329:76|338:80|338:80|343:81|343:81|340:77|340:77|341:76|341:76|340:81|340:81|341:82,1,172.703266429994
416,128,76410,1,0,0:0:0:0:
432,220,76560,1,0,0:0:0:0:
352,304,76710,2,0,B|341:300|341:300|338:304|338:304|338:298|338:298|329:295|329:295|329:290|329:290|326:294|326:294|317:290|317:290|314:294|314:294|314:289|314:289|305:285|305:285|305:280|305:280|302:284|302:284|293:280|293:280|289:284|289:284|290:279|290:279|281:275|281:275|281:270|281:270|278:274|278:274|269:271|269:271|265:275|265:275|266:270|266:270|257:266|257:266|252:265|252:265|255:269|255:269|254:270|254:270|255:265|255:265|254:265,1,170.046654996439
236,168,77010,1,0,0:0:0:0:
188,92,77160,1,0,0:0:0:0:
100,32,77310,2,0,B|93:42|93:42|97:46|97:46|92:44|92:44|86:53|86:53|81:51|81:51|85:55|85:55|79:64|79:64|82:68|82:68|77:66|77:66|72:74|72:74|67:73|67:73|70:77|70:77|65:85|65:85|68:89|68:89|63:88|63:88|58:96|58:96|53:95|53:95|56:99|56:99|51:107|51:107|54:111|54:111|49:110|49:110|44:117|44:117|45:118|45:118|42:122|42:122|47:120|47:120|48:121|48:121|43:120|43:120|42:120,1,172.356005484019
52,312,77610,6,0,B|63:309|63:309|63:303|63:303|66:308|66:308|76:305|76:305|79:309|79:309|79:304|79:304|88:301|88:301|88:296|88:296|91:300|91:300|101:297|101:297|104:302|104:302|104:297|104:297|113:294|113:294|113:289|113:289|116:293|116:293|126:290|126:290|128:294|128:294|128:289|128:289|138:286|138:286|138:281|138:281|141:285|141:285|149:283|149:283|149:282|149:282|155:281|155:281|150:278|150:278|152:282|152:282|153:282,1,170.902747623713
240,192,77910,2,0,B|228:189|228:189|226:193|226:193|226:188|226:188|216:185|216:185|216:180|216:180|213:184|213:184|203:182|203:182|201:186|201:186|201:181|201:181|191:178|191:178|191:173|191:173|188:177|188:177|179:174|179:174|176:179|176:179|176:174|176:174|166:171|166:171|166:166|166:166|163:170|163:170|154:167|154:167|151:172|151:172|151:166|151:166|142:164|142:164|141:165|141:165|137:163|137:163|140:167|140:167|139:168|139:168|139:163,1,170.988224628509
36,100,78210,1,0,0:0:0:0:
188,56,78510,1,0,0:0:0:0:
336,148,78660,1,0,0:0:0:0:
336,188,78810,1,0,0:0:0:0:
336,228,78960,1,0,0:0:0:0:
392,72,79260,1,0,0:0:0:0:
