osu file format v14

[General]
AudioFilename: audio.mp3
AudioLeadIn: 0
PreviewTime: 64152
Countdown: 0
SampleSet: Soft
StackLeniency: 0.2
Mode: 0
LetterboxInBreaks: 0
WidescreenStoryboard: 0

[Editor]
Bookmarks: 6073,34976,94197,95294,99684,121087,124197
DistanceSpacing: 0.8
BeatDivisor: 4
GridSize: 32
TimelineZoom: 1.8

[Metadata]
Title:Take a Hint feat. Victoria Justice & Elizabeth Gillies (Speed Up Ver.)
TitleUnicode:Take a Hint feat. Victoria Justice & Elizabeth Gillies (Speed Up Ver.)
Artist:Victorius Cast
ArtistUnicode:Victorius Cast
Creator:enryotoki
Version:take the hint u dumbass
Source:
Tags:
BeatmapID:2083007
BeatmapSetID:995783

[Difficulty]
HPDrainRate:4.8
CircleSize:4.1
OverallDifficulty:8.9
ApproachRate:9.2
SliderMultiplier:1.8
SliderTickRate:1

[Events]
//Background and Video events
0,0,"Konachan.com - 270834 sample_waifu2x_art_noise1_scale_tta_1.jpg",0,0
//Break Periods
//Storyboard Layer 0 (Background)
//Storyboard Layer 1 (Fail)
//Storyboard Layer 2 (Pass)
//Storyboard Layer 3 (Foreground)
//Storyboard Sound Samples

[TimingPoints]
220,365.853658536585,4,2,0,100,1,0
6073,-83.3333333333333,4,2,0,100,0,0
11927,-100,4,2,0,100,0,0
20707,-125,4,2,0,100,0,0
21439,-142.857142857143,4,2,0,100,0,0
22171,-166.666666666667,4,2,0,100,0,0
22902,-200,4,2,0,100,0,0
23268,-250,4,2,0,100,0,0
23634,-100,4,2,0,100,0,0
34976,-500,4,2,0,100,0,0
35341,-71.4285714285714,4,2,0,100,0,1
47049,-83.3333333333333,4,2,0,100,0,0
52872,365.853658536585,4,2,0,100,1,0
52872,-100,4,2,0,100,0,0
64213,-500,4,2,0,100,0,0
64579,365.853658536585,4,2,0,100,1,1
64579,-71.4285714285714,4,2,0,100,0,1
76286,-83.3333333333333,4,2,0,100,0,0
81576,365.853658536585,4,2,0,100,1,0
82124,365.853658536585,4,2,0,100,1,0
82124,-71.4285714285714,4,2,0,100,0,0
94928,-500,4,2,0,100,0,0
95294,-100,4,2,0,100,0,0
99684,-105.263157894737,4,2,0,100,0,0
101148,-71.4285714285714,4,2,0,100,0,1
107002,-71.4285714285714,4,2,0,100,0,0
112855,-62.5,4,2,0,100,0,1
118709,-83.3333333333333,4,2,0,100,0,0

[Colours]
Combo1 : 242,162,162
Combo2 : 48,233,209
Combo3 : 147,240,154
Combo4 : 241,160,230

[HitObjects]
0,121,6073,6,0,B|97:123|97:123|109:127|109:127|225:129,1,215.999993408203
372,189,6622,1,0,0:0:0:0:
215,215,6805,1,0,0:0:0:0:
379,356,6988,1,0,0:0:0:0:
372,189,7171,1,0,0:0:0:0:
319,305,7354,1,0,0:0:0:0:
417,118,7537,6,0,P|353:107|299:226,1,215.999993408203
478,171,8085,1,0,0:0:0:0:
344,24,8268,1,0,0:0:0:0:
460,250,8451,1,0,0:0:0:0:
417,118,8634,5,0,0:0:0:0:
478,171,8817,1,0,0:0:0:0:
137,44,9000,6,0,B|264:25|264:25|298:7|298:7|350:26,1,215.999993408203
124,64,9549,1,0,0:0:0:0:
124,64,9732,2,0,L|5:55,1,107.999996704102
197,196,10098,2,0,L|316:187,1,107.999996704102
37,380,10463,6,0,B|27:250|27:250|39:211,1,161.999995056153
79,162,10829,1,0,0:0:0:0:
124,383,11012,1,0,0:0:0:0:
143,220,11195,1,0,0:0:0:0:
124,383,11378,1,0,0:0:0:0:
137,108,11561,5,0,0:0:0:0:
137,108,11927,6,0,B|199:105|199:105|211:107|211:107|275:103,1,135
330,58,12293,2,0,P|349:98|335:140,1,90
283,202,12659,1,0,0:0:0:0:
298,281,12841,1,0,0:0:0:0:
274,190,13024,1,0,0:0:0:0:
274,190,13207,1,0,0:0:0:0:
242,354,13390,6,0,L|335:363,1,90
512,270,13756,2,0,L|419:279,1,90
243,164,14122,1,0,0:0:0:0:
291,291,14305,1,0,0:0:0:0:
293,299,14396,1,0,0:0:0:0:
295,307,14488,1,0,0:0:0:0:
307,117,14671,1,0,0:0:0:0:
116,384,14854,6,0,P|99:345|121:296,1,90
235,179,15219,2,0,P|250:220|233:260,1,90
78,121,15585,2,0,L|88:164,1,45
217,53,15768,2,0,L|207:96,1,45
61,17,15951,1,0,0:0:0:0:
164,181,16134,1,0,0:0:0:0:
217,53,16317,6,0,L|355:51,1,135
283,134,16866,1,0,0:0:0:0:
442,160,17049,5,0,0:0:0:0:
361,186,17232,1,0,0:0:0:0:
176,263,17415,5,0,0:0:0:0:
257,289,17598,1,0,0:0:0:0:
444,380,17780,6,0,B|454:269|454:269|428:301,1,135
377,342,18146,1,0,0:0:0:0:
377,342,18329,1,0,0:0:0:0:
306,242,18512,2,0,P|343:218|395:236,1,90
261,375,18878,2,0,P|218:384|181:360,1,90
70,225,19244,5,0,0:0:0:0:
94,363,19427,1,0,0:0:0:0:
70,225,19610,1,0,0:0:0:0:
138,294,19793,1,0,0:0:0:0:
148,216,19976,5,0,0:0:0:0:
27,147,20159,1,0,0:0:0:0:
105,132,20341,5,0,0:0:0:0:
148,216,20524,1,0,0:0:0:0:
109,22,20707,6,0,P|139:1|181:2,1,72
264,29,21073,2,0,P|297:44|317:81,1,72
330,152,21439,2,0,P|333:188|313:223,1,62.9999980773926
263,262,21805,2,0,P|251:291|256:322,1,62.9999980773926
307,376,22171,6,0,P|336:387|363:383,1,53.9999983520508
418,339,22537,2,0,P|429:309|425:283,1,53.9999983520508
389,225,22902,2,0,P|363:214|337:216,1,45
281,238,23268,2,0,P|270:264|270:283,1,36
389,225,23634,5,0,0:0:0:0:
510,111,23817,1,0,0:0:0:0:
389,225,24000,1,0,0:0:0:0:
431,115,24183,1,0,0:0:0:0:
510,111,24366,6,0,L|502:211,1,90
398,314,24732,2,0,L|388:219,1,90
168,106,25098,6,0,B|231:101|231:101|244:103|244:103|306:97,1,135
373,135,25463,2,0,P|378:76|357:46,1,90
298,182,25829,1,0,0:0:0:0:
258,46,26012,1,0,0:0:0:0:
254,37,26104,1,0,0:0:0:0:
249,28,26195,1,0,0:0:0:0:
236,242,26378,1,0,0:0:0:0:
33,152,26561,6,0,P|76:135|126:158,1,90
197,317,26927,2,0,P|154:330|114:313,1,90
292,156,27293,1,0,0:0:0:0:
334,302,27476,1,0,0:0:0:0:
372,172,27659,1,0,0:0:0:0:
372,172,27841,1,0,0:0:0:0:
234,377,28024,6,0,B|347:381|347:381|381:372,1,135
411,311,28390,1,0,0:0:0:0:
289,264,28573,1,0,0:0:0:0:
448,382,28756,1,0,0:0:0:0:
448,382,28939,5,0,0:0:0:0:
472,226,29122,1,0,0:0:0:0:
411,311,29305,1,0,0:0:0:0:
411,143,29488,6,0,L|508:139,1,90
344,245,29854,2,0,L|247:241,1,90
347,89,30219,1,0,0:0:0:0:
347,89,30402,1,0,0:0:0:0:
344,245,30585,1,0,0:0:0:0:
405,300,30768,1,0,0:0:0:0:
305,159,30951,6,0,P|271:116|285:40,1,135
352,8,31317,1,0,0:0:0:0:
352,8,31500,1,0,0:0:0:0:
318,171,31683,6,0,P|273:152|228:165,1,90
133,307,32049,2,0,P|176:315|216:296,1,90
51,103,32415,6,0,B|51:78|25:67|25:67|-9:106|29:158,1,135
78,201,32780,1,0,0:0:0:0:
126,70,32963,1,0,0:0:0:0:
136,260,33146,1,0,0:0:0:0:
78,201,33329,1,0,0:0:0:0:
233,250,33512,1,0,0:0:0:0:
59,279,33695,1,0,0:0:0:0:
191,156,33878,6,0,P|228:129|284:143,1,90
269,383,34244,2,0,P|227:364|211:308,1,90
427,202,34610,2,0,P|431:247|391:289,1,90
337,119,34976,6,0,L|341:90,1,27
371,12,35341,6,0,B|329:-2|286:12|268:46|268:46|232:22|181:42,1,188.999994232178
137,96,35707,1,0,0:0:0:0:
337,119,35890,1,0,0:0:0:0:
132,232,36073,2,0,B|122:134|122:134|128:92,1,125.999996154785
197,286,36439,1,0,0:0:0:0:
137,96,36622,1,0,0:0:0:0:
149,351,36805,2,0,B|191:379|256:371|271:303|271:303|268:278|284:253,1,188.999994232178
347,218,37171,5,0,0:0:0:0:
149,351,37354,1,0,0:0:0:0:
268,194,37537,1,0,0:0:0:0:
455,279,37719,1,0,0:0:0:0:
254,205,37902,1,0,0:0:0:0:
508,214,38085,1,0,0:0:0:0:
307,384,38268,2,0,P|278:326|302:260,1,125.999996154785
421,116,38634,6,0,P|436:175|407:230,1,125.999996154785
260,37,39000,1,0,0:0:0:0:
511,75,39183,1,0,0:0:0:0:
213,104,39366,1,0,0:0:0:0:
511,75,39549,1,0,0:0:0:0:
392,120,39732,5,0,0:0:0:0:
137,71,39915,1,0,0:0:0:0:
137,71,40098,1,0,0:0:0:0:
170,154,40280,1,0,0:0:0:0:
1,1,40463,1,0,0:0:0:0:
116,219,40646,1,0,0:0:0:0:
116,219,40829,1,0,0:0:0:0:
64,49,41012,1,0,0:0:0:0:
0,325,41195,6,0,B|84:329|84:329|103:337|103:337|197:341,1,188.999994232178
267,323,41561,1,0,0:0:0:0:
116,219,41744,1,0,0:0:0:0:
271,344,41927,2,0,P|252:281|291:223,1,125.999996154785
461,156,42293,2,0,P|488:210|469:268,1,125.999996154785
287,39,42659,2,0,B|252:52|222:27|222:27|250:-11|296:-14|341:16,1,188.999994232178
382,68,43024,5,0,0:0:0:0:
252,130,43207,1,0,0:0:0:0:
426,1,43390,1,0,0:0:0:0:
383,241,43573,1,0,0:0:0:0:
426,1,43756,1,0,0:0:0:0:
317,283,43939,1,0,0:0:0:0:
0,105,44122,2,0,B|103:99|103:99|143:82|143:82|199:96,1,188.999994232178
246,151,44488,5,0,0:0:0:0:
27,10,44671,1,0,0:0:0:0:
232,264,44854,1,0,0:0:0:0:
207,0,45037,1,0,0:0:0:0:
144,292,45219,1,0,0:0:0:0:
255,65,45402,1,0,0:0:0:0:
144,292,45585,5,0,0:0:0:0:
340,384,45768,1,0,0:0:0:0:
340,384,45951,1,0,0:0:0:0:
316,281,46134,1,0,0:0:0:0:
131,384,46317,5,0,0:0:0:0:
394,305,46500,1,0,0:0:0:0:
110,227,46683,5,0,0:0:0:0:
404,327,46866,1,0,0:0:0:0:
241,169,47049,6,0,B|165:107|232:18|232:18|278:63,1,215.999993408203
237,187,47598,2,0,L|107:171,2,107.999996704102
80,238,48146,1,0,0:0:0:0:
80,238,48329,1,0,0:0:0:0:
261,373,48512,6,0,B|235:393|235:393|255:251,1,161.999995056153
303,212,48878,1,0,0:0:0:0:
303,212,49061,2,0,P|248:189|197:213,1,107.999996704102
416,305,49427,2,0,P|465:323|512:301,2,107.999996704102
463,57,49976,6,0,B|356:58|356:58|345:62|345:62|234:63,1,215.999993408203
0,141,50524,1,0,0:0:0:0:
144,186,50707,1,0,0:0:0:0:
65,101,50890,1,0,0:0:0:0:
135,293,51073,2,0,L|144:186,1,107.999996704102
4,368,51439,6,0,B|38:346|79:360|79:360|122:393|174:370,1,161.999995056153
210,316,51805,1,0,0:0:0:0:
75,277,51988,1,0,0:0:0:0:
260,379,52171,1,0,0:0:0:0:
75,277,52354,1,0,0:0:0:0:
317,278,52537,1,0,0:0:0:0:
282,195,52719,1,0,0:0:0:0:
260,379,52872,6,0,L|372:370,1,90
512,271,53237,2,0,L|400:262,1,90
265,173,53603,1,0,0:0:0:0:
265,173,53786,1,0,0:0:0:0:
417,265,53969,1,0,0:0:0:0:
343,147,54152,1,0,0:0:0:0:
207,229,54335,6,0,P|183:168|214:111,1,135
290,85,54701,1,0,0:0:0:0:
280,267,54884,1,0,0:0:0:0:
214,111,55067,1,0,0:0:0:0:
282,274,55249,1,0,0:0:0:0:
285,282,55341,1,0,0:0:0:0:
288,290,55432,1,0,0:0:0:0:
290,85,55615,1,0,0:0:0:0:
255,356,55798,6,0,P|216:334|162:347,1,90
0,240,56164,2,0,P|39:218|93:231,1,90
72,382,56530,1,0,0:0:0:0:
154,207,56713,1,0,0:0:0:0:
148,354,56896,1,0,0:0:0:0:
148,354,57079,1,0,0:0:0:0:
50,121,57262,6,0,B|161:106|161:106|190:111,1,135
249,158,57628,2,0,P|265:101|247:59,1,90
154,207,57993,5,0,0:0:0:0:
154,207,58725,6,0,B|150:143|150:143|145:134|145:134|141:63,1,135
182,6,59091,1,0,0:0:0:0:
61,106,59274,1,0,0:0:0:0:
277,27,59457,2,0,P|232:11|180:26,1,90
427,152,59823,2,0,P|470:159|512:144,1,90
393,29,60188,6,0,B|361:0|361:0|349:106,1,135
343,172,60554,1,0,0:0:0:0:
453,91,60737,1,0,0:0:0:0:
343,172,60920,5,0,0:0:0:0:
420,199,61103,1,0,0:0:0:0:
253,374,61286,5,0,0:0:0:0:
330,347,61469,1,0,0:0:0:0:
49,167,61652,6,0,B|24:164|15:137|15:137|57:107|105:149,1,135
144,202,62017,1,0,0:0:0:0:
10,239,62200,1,0,0:0:0:0:
198,265,62383,1,0,0:0:0:0:
144,202,62566,1,0,0:0:0:0:
180,361,62749,1,0,0:0:0:0:
224,190,62932,1,0,0:0:0:0:
162,117,63115,6,0,B|142:94|148:73|148:73|164:83|165:111,1,90
88,331,63481,2,0,B|78:358|56:364|56:364|58:345|80:330,1,90
311,289,63847,2,0,B|340:283|355:299|355:299|338:307|314:295,1,90
0,188,64213,6,0,L|31:182,1,27
91,232,64579,6,0,B|122:192|107:120|60:108|60:108|35:111|16:103,1,188.999994232178
42,29,64945,1,0,0:0:0:0:
80,243,65128,1,0,0:0:0:0:
51,38,65310,2,0,B|109:32|109:32|122:34|122:34|188:26,1,125.999996154785
403,129,65676,1,0,0:0:0:0:
204,149,65859,1,0,0:0:0:0:
435,58,66042,2,0,B|469:80|485:115|485:115|485:185|416:208,1,188.999994232178
351,196,66408,5,0,0:0:0:0:
502,12,66591,1,0,0:0:0:0:
384,269,66774,1,0,0:0:0:0:
358,36,66957,1,0,0:0:0:0:
384,269,67140,1,0,0:0:0:0:
345,58,67323,1,0,0:0:0:0:
332,334,67506,6,0,P|405:356|447:328,1,125.999996154785
161,203,67871,2,0,P|105:177|49:201,1,125.999996154785
260,383,68237,1,0,0:0:0:0:
196,85,68420,1,0,0:0:0:0:
158,373,68603,1,0,0:0:0:0:
454,275,68786,1,0,0:0:0:0:
279,261,68969,5,0,0:0:0:0:
56,193,69152,1,0,0:0:0:0:
56,193,69335,1,0,0:0:0:0:
110,272,69518,1,0,0:0:0:0:
90,45,69701,1,0,0:0:0:0:
26,274,69884,1,0,0:0:0:0:
26,274,70067,1,0,0:0:0:0:
114,147,70249,1,0,0:0:0:0:
33,353,70432,6,0,B|80:383|123:351|123:351|170:316|234:349,1,188.999994232178
277,383,70798,1,0,0:0:0:0:
77,291,70981,1,0,0:0:0:0:
236,201,71164,2,0,P|295:175|360:205,1,125.999996154785
512,363,71530,2,0,P|453:382|397:356,1,125.999996154785
461,136,71896,2,0,B|496:109|496:109|477:270,1,188.999994232178
422,312,72262,5,0,0:0:0:0:
403,75,72445,1,0,0:0:0:0:
405,300,72628,1,0,0:0:0:0:
334,22,72810,1,0,0:0:0:0:
405,300,72993,1,0,0:0:0:0:
473,31,73176,1,0,0:0:0:0:
235,202,73359,2,0,B|263:227|301:194|301:194|278:160|233:146|188:165,1,188.999994232178
141,218,73725,5,0,0:0:0:0:
362,80,73908,1,0,0:0:0:0:
57,161,74091,1,0,0:0:0:0:
241,368,74274,1,0,0:0:0:0:
134,136,74457,1,0,0:0:0:0:
163,343,74640,1,0,0:0:0:0:
134,136,74823,5,0,0:0:0:0:
99,288,75006,1,0,0:0:0:0:
99,288,75188,1,0,0:0:0:0:
173,241,75371,1,0,0:0:0:0:
1,99,75554,1,0,0:0:0:0:
170,325,75737,1,0,0:0:0:0:
170,325,75920,1,0,0:0:0:0:
99,207,76103,1,0,0:0:0:0:
108,375,76286,6,0,B|190:369|190:369|227:380|227:380|327:372,1,215.999993408203
496,292,76835,2,0,L|384:301,2,107.999996704102
287,214,77383,1,0,0:0:0:0:
287,214,77566,1,0,0:0:0:0:
449,12,77749,6,0,B|450:151|450:151|442:178,1,161.999995056153
391,234,78115,1,0,0:0:0:0:
391,234,78298,2,0,P|445:255|495:231,1,107.999996704102
315,78,78664,2,0,P|265:60|217:82,2,107.999996704102
61,199,79213,6,0,B|25:232|-13:205|-13:205|6:156|53:146|109:172,1,215.999993408203
252,277,79761,1,0,0:0:0:0:
134,321,79944,1,0,0:0:0:0:
185,229,80127,1,0,0:0:0:0:
320,242,80310,2,0,P|331:294|295:344,1,107.999996704102
260,108,80676,5,0,0:0:0:0:
260,108,80859,1,0,0:0:0:0:
448,163,81042,1,0,0:0:0:0:
369,182,81225,1,0,0:0:0:0:
433,24,81408,1,0,0:0:0:0:
433,34,81499,1,0,0:0:0:0:
433,41,81576,6,0,L|421:96,1,45
330,239,81758,2,0,L|318:184,1,45
490,339,81941,2,0,L|478:394,1,45
327,109,82124,5,0,0:0:0:0:
327,109,82306,1,0,0:0:0:0:
280,89,82398,1,0,0:0:0:0:
230,98,82489,2,0,L|158:109,1,62.9999980773926
0,209,82672,2,0,L|72:220,1,62.9999980773926
211,368,82855,6,0,B|231:393|231:393|216:286,1,125.999996154785
141,270,83130,2,0,B|109:274|109:274|209:315,1,125.999996154785
260,258,83404,2,0,B|271:228|271:228|186:294,1,125.999996154785
393,375,83770,5,0,0:0:0:0:
405,372,83861,1,0,0:0:0:0:
417,369,83953,2,0,P|403:337|416:298,1,62.9999980773926
493,248,84136,2,0,P|507:216|494:177,1,62.9999980773926
386,111,84319,2,0,B|366:76|367:35|404:2|404:2|380:0|356:6|343:31,1,188.999994232178
378,125,84684,6,0,P|437:95|504:128,1,125.999996154785
263,291,85050,2,0,P|322:321|389:288,1,125.999996154785
187,72,85416,1,0,0:0:0:0:
188,244,85599,1,0,0:0:0:0:
205,84,85782,2,0,B|227:39|219:-5|219:-5|236:40,1,125.999996154785
63,206,86148,2,0,B|41:161|49:117|49:117|32:162,1,125.999996154785
204,329,86514,5,0,0:0:0:0:
14,384,86697,1,0,0:0:0:0:
14,384,86880,1,0,0:0:0:0:
63,323,87063,1,0,0:0:0:0:
277,382,87245,5,0,0:0:0:0:
258,143,87428,1,0,0:0:0:0:
212,212,87611,1,0,0:0:0:0:
340,330,87794,5,0,0:0:0:0:
364,325,87886,1,0,0:0:0:0:
388,321,87977,1,0,0:0:0:0:
512,172,88160,5,0,0:0:0:0:
480,165,88252,1,0,0:0:0:0:
448,160,88343,2,0,L|384:151,1,62.9999980773926
206,53,88526,2,0,L|270:44,1,62.9999980773926
472,2,88709,5,0,0:0:0:0:
411,236,88892,1,0,0:0:0:0:
400,48,89075,1,0,0:0:0:0:
393,47,89166,1,0,0:0:0:0:
386,46,89258,1,0,0:0:0:0:
379,45,89349,1,0,0:0:0:0:
372,44,89441,6,0,B|268:49|268:49|228:33|228:33|175:52,1,188.999994232178
134,101,89806,1,0,0:0:0:0:
249,220,89989,1,0,0:0:0:0:
158,26,90172,1,0,0:0:0:0:
178,166,90355,1,0,0:0:0:0:
249,220,90538,1,0,0:0:0:0:
35,214,90721,1,0,0:0:0:0:
243,237,90904,6,0,B|232:268|232:268|329:245,1,125.999996154785
507,179,91270,2,0,B|518:210|518:210|421:187,1,125.999996154785
243,121,91636,2,0,B|232:152|232:152|329:129,1,125.999996154785
507,63,92002,2,0,B|518:94|518:94|421:71,1,125.999996154785
197,0,92367,5,0,0:0:0:0:
197,0,92550,1,0,0:0:0:0:
112,15,92733,5,0,0:0:0:0:
112,15,92916,1,0,0:0:0:0:
66,86,93099,5,0,0:0:0:0:
66,86,93282,1,0,0:0:0:0:
80,168,93465,5,0,0:0:0:0:
80,168,93648,1,0,0:0:0:0:
143,218,93831,6,0,L|131:290,1,62.9999980773926
205,158,94014,2,0,L|193:86,1,62.9999980773926
259,258,94197,2,0,L|247:330,1,62.9999980773926
305,86,94380,2,0,L|293:14,1,62.9999980773926
362,284,94563,2,0,L|350:356,1,62.9999980773926
413,62,94745,2,0,L|401:-10,1,62.9999980773926
512,219,94928,6,0,L|482:214,1,27
409,209,95294,5,0,0:0:0:0:
397,202,95386,1,0,0:0:0:0:
383,200,95477,1,0,0:0:0:0:
369,203,95569,1,0,0:0:0:0:
357,209,95660,1,0,0:0:0:0:
345,216,95752,1,0,0:0:0:0:
331,218,95843,1,0,0:0:0:0:
317,215,95935,1,0,0:0:0:0:
305,209,96026,1,0,0:0:0:0:
293,202,96117,1,0,0:0:0:0:
279,200,96208,1,0,0:0:0:0:
265,203,96300,1,0,0:0:0:0:
253,209,96391,1,0,0:0:0:0:
243,218,96483,1,0,0:0:0:0:
235,229,96575,1,0,0:0:0:0:
230,241,96666,1,0,0:0:0:0:
230,254,96758,5,0,0:0:0:0:
255,272,96849,1,0,0:0:0:0:
286,276,96941,1,0,0:0:0:0:
314,262,97032,1,0,0:0:0:0:
330,235,97123,1,0,0:0:0:0:
333,203,97215,1,0,0:0:0:0:
318,174,97306,1,0,0:0:0:0:
292,155,97398,1,0,0:0:0:0:
260,153,97489,1,0,0:0:0:0:
231,166,97581,1,0,0:0:0:0:
212,191,97672,1,0,0:0:0:0:
183,205,97764,1,0,0:0:0:0:
151,206,97855,1,0,0:0:0:0:
122,192,97947,1,0,0:0:0:0:
103,166,98038,1,0,0:0:0:0:
94,135,98130,1,0,0:0:0:0:
100,104,98221,6,0,P|75:98|40:114,3,45
21,188,98587,2,0,P|7:209|11:248,3,45
76,289,98953,2,0,P|92:308|130:316,3,45
189,267,99319,2,0,P|212:257|231:223,3,45
257,148,99684,6,0,B|271:197|323:193|345:231|345:231|354:183|427:174|433:113|405:79|405:79|369:63|336:73|324:103|324:103|294:71|243:61|207:90|207:90|151:124|99:78,1,641.249982876778
104,82,101148,6,0,B|31:64|31:64|41:195,1,188.999994232178
62,258,101514,1,0,0:0:0:0:
274,341,101697,1,0,0:0:0:0:
92,343,101880,1,0,0:0:0:0:
274,341,102063,1,0,0:0:0:0:
404,225,102245,1,0,0:0:0:0:
198,299,102428,1,0,0:0:0:0:
455,338,102611,5,0,0:0:0:0:
408,91,102794,1,0,0:0:0:0:
380,373,102977,1,0,0:0:0:0:
161,182,103160,1,0,0:0:0:0:
380,373,103343,1,0,0:0:0:0:
246,170,103526,1,0,0:0:0:0:
407,1,103709,1,0,0:0:0:0:
161,182,103892,1,0,0:0:0:0:
503,154,104075,5,0,0:0:0:0:
110,119,104258,1,0,0:0:0:0:
503,154,104441,1,0,0:0:0:0:
321,383,104623,1,0,0:0:0:0:
370,45,104806,1,0,0:0:0:0:
321,383,104989,1,0,0:0:0:0:
423,115,105172,1,0,0:0:0:0:
133,119,105355,1,0,0:0:0:0:
389,280,105538,5,0,0:0:0:0:
389,280,105721,5,0,0:0:0:0:
392,292,105813,1,0,0:0:0:0:
395,303,105904,1,0,0:0:0:0:
440,269,105995,1,0,0:0:0:0:
455,220,106087,5,0,0:0:0:0:
430,176,106178,1,0,0:0:0:0:
384,154,106270,1,0,0:0:0:0:
334,160,106361,1,0,0:0:0:0:
297,194,106453,1,0,0:0:0:0:
255,205,106544,1,0,0:0:0:0:
215,208,106636,5,0,0:0:0:0:
184,200,106727,1,0,0:0:0:0:
162,186,106819,1,0,0:0:0:0:
150,171,106910,1,0,0:0:0:0:
145,159,107002,6,0,P|85:135|23:166,1,125.999996154785
183,356,107367,2,0,P|239:380|296:357,1,125.999996154785
229,133,107733,1,0,0:0:0:0:
136,294,107916,1,0,0:0:0:0:
174,71,108099,1,0,0:0:0:0:
387,123,108282,1,0,0:0:0:0:
114,141,108465,6,0,B|2:136|2:136|22:144,1,125.999996154785
257,352,108831,2,0,B|145:357|145:357|165:349,1,125.999996154785
339,120,109197,1,0,0:0:0:0:
339,120,109380,1,0,0:0:0:0:
342,383,109563,1,0,0:0:0:0:
381,312,109745,1,0,0:0:0:0:
271,80,109928,5,0,0:0:0:0:
479,50,110111,1,0,0:0:0:0:
339,120,110294,1,0,0:0:0:0:
212,23,110477,1,0,0:0:0:0:
326,199,110660,1,0,0:0:0:0:
346,2,110843,1,0,0:0:0:0:
249,226,111026,1,0,0:0:0:0:
482,207,111209,1,0,0:0:0:0:
411,158,111392,5,0,0:0:0:0:
386,380,111575,1,0,0:0:0:0:
386,380,111758,1,0,0:0:0:0:
349,305,111941,1,0,0:0:0:0:
508,123,112123,5,0,0:0:0:0:
216,210,112306,1,0,0:0:0:0:
216,210,112489,1,0,0:0:0:0:
288,249,112672,1,0,0:0:0:0:
122,39,112855,6,0,B|76:26|30:45|30:45|-8:102|32:174,1,216
136,33,113221,1,0,0:0:0:0:
65,234,113404,1,0,0:0:0:0:
272,154,113587,2,0,P|211:120|141:156,1,144
281,257,113953,1,0,0:0:0:0:
40,226,114136,1,0,0:0:0:0:
265,333,114319,2,0,B|318:350|377:290|353:228|353:228|380:239|391:273,1,216
421,336,114684,5,0,0:0:0:0:
162,306,114867,1,0,0:0:0:0:
481,279,115050,1,0,0:0:0:0:
302,87,115233,1,0,0:0:0:0:
421,336,115416,1,0,0:0:0:0:
385,124,115599,1,0,0:0:0:0:
111,51,115782,2,0,P|169:13|244:43,1,144
503,242,116148,6,0,P|436:263|378:225,1,144
366,0,116514,1,0,0:0:0:0:
302,277,116697,1,0,0:0:0:0:
413,68,116880,1,0,0:0:0:0:
294,292,117063,1,0,0:0:0:0:
118,37,117245,5,0,0:0:0:0:
468,179,117428,1,0,0:0:0:0:
81,152,117611,5,0,0:0:0:0:
480,171,117794,1,0,0:0:0:0:
89,238,117977,5,0,0:0:0:0:
502,318,118160,1,0,0:0:0:0:
106,373,118343,5,0,0:0:0:0:
452,249,118526,1,0,0:0:0:0:
40,300,118709,6,0,P|16:219|118:162,1,215.999993408203
43,311,119258,2,0,L|164:315,2,107.999996704102
215,247,119806,1,0,0:0:0:0:
215,247,119989,1,0,0:0:0:0:
366,330,120172,6,0,B|352:353|369:380|369:380|397:359|407:310|381:264,1,161.999995056153
444,223,120538,1,0,0:0:0:0:
444,224,120721,2,0,P|397:198|346:211,1,107.999996704102
173,360,121087,2,0,P|224:372|270:347,2,107.999996704102
216,0,121636,6,0,B|244:37|237:88|199:113|199:113|182:153|216:196,1,215.999993408203
153,44,122184,1,0,0:0:0:0:
283,133,122367,1,0,0:0:0:0:
93,98,122550,1,0,0:0:0:0:
283,133,122733,2,0,B|374:127|374:127|409:130,1,107.999996704102
68,172,123099,6,0,P|18:125|62:39,1,161.999995056153
126,20,123465,1,0,0:0:0:0:
80,251,123648,1,0,0:0:0:0:
205,6,123831,1,0,0:0:0:0:
80,251,124014,1,0,0:0:0:0:
53,171,124197,5,0,0:0:0:0:
