osu file format v14

[General]
AudioFilename: audio.mp3
AudioLeadIn: 0
PreviewTime: 99178
Countdown: 0
SampleSet: Soft
StackLeniency: 0.7
Mode: 0
LetterboxInBreaks: 0
EpilepsyWarning: 1
WidescreenStoryboard: 1

[Editor]
DistanceSpacing: 0.7
BeatDivisor: 4
GridSize: 16
TimelineZoom: 2.799999

[Metadata]
Title:Freak the Freak Out (Nightcore Mix)
TitleUnicode:Freak the Freak Out (Nightcore Mix)
Artist:Victorious Cast feat. Victoria Justice
ArtistUnicode:Victorious Cast feat. Victoria Justice
Creator:AJT
Version:You Never Listen
Source:Victorious
Tags:english pop dance sped up ver. nickelodeon Sonnyc Chanmann Sytho -Ady
BeatmapID:4066804
BeatmapSetID:1962243

[Difficulty]
HPDrainRate:5
CircleSize:4
OverallDifficulty:8
ApproachRate:9
SliderMultiplier:2.5
SliderTickRate:1

[Events]
//Background and Video events
0,0,"wallhaven-q632vd.jpg",0,0
//Break Periods
2,67878,71578
//Storyboard Layer 0 (Background)
//Storyboard Layer 1 (Fail)
//Storyboard Layer 2 (Pass)
//Storyboard Layer 3 (Foreground)
Sprite,Foreground,Centre,"lyrics\0044.png",187.5883,0 MY,1,69350,69549,240,231.9833 F,0,69350,69550,0,1 S,1,69350,69550,0.11,0.12 C,0,69450,69550,51,51,51,255,255,255 P,0,69550,,A F,0,70470,70670,1,0 S,1,70470,70670,0.12,0.11 C,0,70570,70670,255,255,255,153,153,153
Sprite,Foreground,Centre,"lyrics\0069.png",208.8183,0 F,0,69350,69550,0,1 S,1,69350,69550,0.11,0.12 MY,1,69350,69551,240,232.6983 C,0,69450,69550,51,51,51,255,255,255 P,0,69550,,A F,0,70470,70670,1,0 S,1,70470,70670,0.12,0.11 C,0,70570,70670,255,255,255,153,153,153
Sprite,Foreground,Centre,"lyrics\0066.png",220.9733,0 F,0,69350,69550,0,1 S,1,69350,69550,0.11,0.12 MY,1,69350,69551,240,237.1533 C,0,69450,69550,51,51,51,255,255,255 P,0,69550,,A F,0,70470,70670,1,0 S,1,70470,70670,0.12,0.11 C,0,70570,70670,255,255,255,153,153,153
Sprite,Foreground,Centre,"lyrics\0066.png",235.3833,0 F,0,69350,69550,0,1 S,1,69350,69550,0.11,0.12 MY,1,69350,69551,240,237.1533 C,0,69450,69550,51,51,51,255,255,255 P,0,69550,,A F,0,70470,70670,1,0 S,1,70470,70670,0.12,0.11 C,0,70570,70670,255,255,255,153,153,153
Sprite,Foreground,Centre,"lyrics\0069.png",249.0783,0 MY,1,69350,69549,240,232.6983 F,0,69350,69550,0,1 S,1,69350,69550,0.11,0.12 C,0,69450,69550,51,51,51,255,255,255 P,0,69550,,A F,0,70470,70670,1,0 S,1,70470,70670,0.12,0.11 C,0,70570,70670,255,255,255,153,153,153
Sprite,Foreground,Centre,"lyrics\0063.png",263.1033,0 F,0,69350,69550,0,1 S,1,69350,69550,0.11,0.12 MY,1,69350,69551,240,237.3183 C,0,69450,69550,51,51,51,255,255,255 P,0,69550,,A F,0,70470,70670,1,0 S,1,70470,70670,0.12,0.11 C,0,70570,70670,255,255,255,153,153,153
Sprite,Foreground,Centre,"lyrics\0075.png",282.1884,0 F,0,69350,69550,0,1 S,1,69350,69550,0.11,0.12 MY,1,69350,69551,240,237.4833 C,0,69450,69550,51,51,51,255,255,255 P,0,69550,,A F,0,70470,70670,1,0 S,1,70470,70670,0.12,0.11 C,0,70570,70670,255,255,255,153,153,153
Sprite,Foreground,Centre,"lyrics\006c.png",299.6234,0 F,0,69350,69550,0,1 S,1,69350,69550,0.11,0.12 MY,1,69350,69551,240,230.9383 C,0,69450,69550,51,51,51,255,255,255 P,0,69550,,A F,0,70470,70670,1,0 S,1,70470,70670,0.12,0.11 C,0,70570,70670,255,255,255,153,153,153
Sprite,Foreground,Centre,"lyrics\0074.png",313.1533,0 MY,1,69350,69549,240,235.3933 F,0,69350,69550,0,1 S,1,69350,69550,0.11,0.12 C,0,69450,69550,51,51,51,255,255,255 P,0,69550,,A F,0,70470,70670,1,0 S,1,70470,70670,0.12,0.11 C,0,70570,70670,255,255,255,153,153,153
Sprite,Foreground,Centre,"lyrics\0079.png",328.0583,0 F,0,69350,69550,0,1 S,1,69350,69550,0.11,0.12 MY,1,69350,69551,240,243.3133 C,0,69450,69550,51,51,51,255,255,255 P,0,69550,,A F,0,70470,70670,1,0 S,1,70470,70670,0.12,0.11 C,0,70570,70670,255,255,255,153,153,153
Sprite,Foreground,Centre,"lyrics\0062.png",359.5733,0 F,0,69350,69550,0,1 S,1,69350,69550,0.11,0.12 MY,1,69350,69550,240,231.0483 C,0,69450,69550,51,51,51,255,255,255 P,0,69550,,A F,0,70470,70670,1,0 S,1,70470,70670,0.12,0.11 C,0,70570,70670,255,255,255,153,153,153
Sprite,Foreground,Centre,"lyrics\0079.png",378.2183,0 F,0,69350,69550,0,1 S,1,69350,69550,0.11,0.12 MY,1,69350,69551,240,243.3133 C,0,69450,69550,51,51,51,255,255,255 P,0,69550,,A F,0,70470,70670,1,0 S,1,70470,70670,0.12,0.11 C,0,70570,70670,255,255,255,153,153,153
Sprite,Foreground,Centre,"lyrics\0041.png",410.8333,0 F,0,69350,69550,0,1 S,1,69350,69550,0.11,0.12 MY,1,69350,69551,240,231.9833 C,0,69450,69550,51,51,51,255,255,255 P,0,69550,,A F,0,70470,70670,1,0 S,1,70470,70670,0.12,0.11 C,0,70570,70670,255,255,255,153,153,153
Sprite,Foreground,Centre,"lyrics\004a.png",432.9983,0 F,0,69350,69550,0,1 S,1,69350,69550,0.11,0.12 MY,1,69350,69550,240,236.1633 C,0,69450,69550,51,51,51,255,255,255 P,0,69550,,A F,0,70470,70670,1,0 S,1,70470,70670,0.12,0.11 C,0,70570,70670,255,255,255,153,153,153
Sprite,Foreground,Centre,"lyrics\0054.png",457.6383,0 MY,1,69350,69549,240,231.9833 F,0,69350,69550,0,1 S,1,69350,69550,0.11,0.12 C,0,69450,69550,51,51,51,255,255,255 P,0,69550,,A F,0,70470,70670,1,0 S,1,70470,70670,0.12,0.11 C,0,70570,70670,255,255,255,153,153,153
Sprite,Foreground,Centre,"lyrics\glow\0044.png",187.67,0 F,0,69350,69550,0,1 S,1,69350,69550,0.11,0.12 MY,1,69350,69551,240,231.955 P,0,69350,70670,A C,0,69450,69550,51,51,51,255,255,255 P,0,69550,,A F,0,70470,70670,1,0 S,1,70470,70670,0.12,0.11 C,0,70570,70670,255,255,255,153,153,153
Sprite,Foreground,Centre,"lyrics\glow\0069.png",208.845,0 F,0,69350,69550,0,1 S,1,69350,69550,0.11,0.12 MY,1,69350,69551,240,232.725 P,0,69350,70670,A C,0,69450,69550,51,51,51,255,255,255 P,0,69550,,A F,0,70470,70670,1,0 S,1,70470,70670,0.12,0.11 C,0,70570,70670,255,255,255,153,153,153
Sprite,Foreground,Centre,"lyrics\glow\0066.png",220.945,0 F,0,69350,69550,0,1 S,1,69350,69550,0.11,0.12 MY,1,69350,69551,240,237.125 P,0,69350,70670,A C,0,69450,69550,51,51,51,255,255,255 P,0,69550,,A F,0,70470,70670,1,0 S,1,70470,70670,0.12,0.11 C,0,70570,70670,255,255,255,153,153,153
Sprite,Foreground,Centre,"lyrics\glow\0066.png",235.355,0 F,0,69350,69550,0,1 S,1,69350,69550,0.11,0.12 MY,1,69350,69550,240,237.125 P,0,69350,70670,A C,0,69450,69550,51,51,51,255,255,255 P,0,69550,,A F,0,70470,70670,1,0 S,1,70470,70670,0.12,0.11 C,0,70570,70670,255,255,255,153,153,153
Sprite,Foreground,Centre,"lyrics\glow\0069.png",249.105,0 MY,1,69350,69549,240,232.725 F,0,69350,69550,0,1 S,1,69350,69550,0.11,0.12 P,0,69350,70670,A C,0,69450,69550,51,51,51,255,255,255 P,0,69550,,A F,0,70470,70670,1,0 S,1,70470,70670,0.12,0.11 C,0,70570,70670,255,255,255,153,153,153
Sprite,Foreground,Centre,"lyrics\glow\0063.png",262.91,0 F,0,69350,69550,0,1 S,1,69350,69550,0.11,0.12 MY,1,69350,69550,240,237.29 P,0,69350,70670,A C,0,69450,69550,51,51,51,255,255,255 P,0,69550,,A F,0,70470,70670,1,0 S,1,70470,70670,0.12,0.11 C,0,70570,70670,255,255,255,153,153,153
Sprite,Foreground,Centre,"lyrics\glow\0075.png",282.16,0 F,0,69350,69550,0,1 S,1,69350,69550,0.11,0.12 MY,1,69350,69551,240,237.51 P,0,69350,70670,A C,0,69450,69550,51,51,51,255,255,255 P,0,69550,,A F,0,70470,70670,1,0 S,1,70470,70670,0.12,0.11 C,0,70570,70670,255,255,255,153,153,153
Sprite,Foreground,Centre,"lyrics\glow\006c.png",299.595,0 F,0,69350,69550,0,1 S,1,69350,69550,0.11,0.12 MY,1,69350,69550,240,230.91 P,0,69350,70670,A C,0,69450,69550,51,51,51,255,255,255 P,0,69550,,A F,0,70470,70670,1,0 S,1,70470,70670,0.12,0.11 C,0,70570,70670,255,255,255,153,153,153
Sprite,Foreground,Centre,"lyrics\glow\0074.png",313.015,0 F,0,69350,69550,0,1 S,1,69350,69550,0.11,0.12 MY,1,69350,69551,240,235.42 P,0,69350,70670,A C,0,69450,69550,51,51,51,255,255,255 P,0,69550,,A F,0,70470,70670,1,0 S,1,70470,70670,0.12,0.11 C,0,70570,70670,255,255,255,153,153,153
Sprite,Foreground,Centre,"lyrics\glow\0079.png",328.25,0 MY,1,69350,69549,240,243.56 F,0,69350,69550,0,1 S,1,69350,69550,0.11,0.12 P,0,69350,70670,A C,0,69450,69550,51,51,51,255,255,255 P,0,69550,,A F,0,70470,70670,1,0 S,1,70470,70670,0.12,0.11 C,0,70570,70670,255,255,255,153,153,153
Sprite,Foreground,Centre,"lyrics\glow\0062.png",359.655,0 MY,1,69350,69549,240,231.02 F,0,69350,69550,0,1 S,1,69350,69550,0.11,0.12 P,0,69350,70670,A C,0,69450,69550,51,51,51,255,255,255 P,0,69550,,A F,0,70470,70670,1,0 S,1,70470,70670,0.12,0.11 C,0,70570,70670,255,255,255,153,153,153
Sprite,Foreground,Centre,"lyrics\glow\0079.png",378.41,0 F,0,69350,69550,0,1 S,1,69350,69550,0.11,0.12 MY,1,69350,69550,240,243.56 P,0,69350,70670,A C,0,69450,69550,51,51,51,255,255,255 P,0,69550,,A F,0,70470,70670,1,0 S,1,70470,70670,0.12,0.11 C,0,70570,70670,255,255,255,153,153,153
Sprite,Foreground,Centre,"lyrics\glow\0041.png",410.915,0 F,0,69350,69550,0,1 S,1,69350,69550,0.11,0.12 MY,1,69350,69550,240,231.955 P,0,69350,70670,A C,0,69450,69550,51,51,51,255,255,255 P,0,69550,,A F,0,70470,70670,1,0 S,1,70470,70670,0.12,0.11 C,0,70570,70670,255,255,255,153,153,153
Sprite,Foreground,Centre,"lyrics\glow\004a.png",433.135,0 F,0,69350,69550,0,1 S,1,69350,69550,0.11,0.12 MY,1,69350,69550,240,236.245 P,0,69350,70670,A C,0,69450,69550,51,51,51,255,255,255 P,0,69550,,A F,0,70470,70670,1,0 S,1,70470,70670,0.12,0.11 C,0,70570,70670,255,255,255,153,153,153
Sprite,Foreground,Centre,"lyrics\glow\0054.png",457.445,0 F,0,69350,69550,0,1 S,1,69350,69550,0.11,0.12 MY,1,69350,69551,240,231.955 P,0,69350,70670,A C,0,69450,69550,51,51,51,255,255,255 P,0,69550,,A F,0,70470,70670,1,0 S,1,70470,70670,0.12,0.11 C,0,70570,70670,255,255,255,153,153,153
//Storyboard Layer 4 (Overlay)
//Storyboard Sound Samples

[TimingPoints]
178,375,4,2,1,75,1,0
11990,-125,4,2,1,75,0,0
37678,375,4,2,1,90,1,1
37678,-100,4,2,1,90,0,1
49678,-90.9090909090909,4,2,1,90,0,1
58678,-125,4,2,1,75,0,0
61303,-90.9090909090909,4,2,1,75,0,0
61678,-100,4,2,1,90,0,1
67678,-125,4,2,1,75,0,0
99178,375,4,2,1,90,1,1
99178,-100,4,2,1,90,0,1
111178,-90.9090909090909,4,2,1,90,0,1
120178,-125,4,2,1,75,0,0
122803,-90.9090909090909,4,2,1,75,0,0
123178,-100,4,2,1,90,0,1
129178,-100,4,2,1,75,0,0
129553,-100,4,2,1,90,0,1
135178,-100,4,2,1,80,0,0
140053,-111.111111111111,4,2,1,80,0,0
140803,-100,4,2,1,80,0,0
141553,-100,4,2,1,80,0,0
145678,375,4,2,1,60,1,0
145678,-142.857142857143,4,2,1,60,0,0
151678,-90.9090909090909,4,2,1,100,0,1
152990,-90.9090909090909,4,2,1,100,0,1
153928,-90.9090909090909,4,2,1,100,0,1
160678,-125,4,2,1,100,0,0
163303,-90.9090909090909,4,2,1,100,0,0
163678,-100,4,2,1,100,0,1
169678,-100,4,2,1,100,0,0
170053,-100,4,2,1,100,0,1
175678,-90.9090909090909,4,2,1,100,0,1
198178,375,4,2,1,100,1,0
198178,-90.9090909090909,4,2,1,100,0,0
200053,-90.9090909090909,4,2,1,50,0,0

[Colours]
Combo1 : 255,128,0
Combo2 : 0,0,255
Combo3 : 18,124,255
Combo4 : 255,0,128

[HitObjects]
256,192,10678,12,0,11803,0:0:0:0:
384,287,11990,6,0,P|429:208|437:96,1,200,6|0,0:0|0:0,0:0:0:0:
256,32,12553,1,8,0:0:0:0:
256,32,12740,1,0,0:0:0:0:
394,135,12928,2,0,P|390:184|367:228,1,100,0|0,3:0|0:0,0:0:0:0:
256,384,13303,5,8,0:0:0:0:
352,272,13490,1,2,0:0:0:0:
186,176,13678,2,0,P|136:179|92:202,1,100,0|0,3:0|0:0,0:0:0:0:
256,384,14053,5,8,0:0:0:0:
160,272,14240,1,2,0:0:0:0:
326,176,14428,2,0,P|375:179|419:202,1,100,0|0,3:0|0:0,0:0:0:0:
256,384,14803,1,8,0:0:0:0:
128,287,14990,6,0,P|83:208|75:96,1,200,2|0,0:0|0:0,0:0:0:0:
256,32,15553,1,8,0:0:0:0:
256,32,15740,1,0,0:0:0:0:
118,135,15928,2,0,P|122:184|145:228,1,100,0|0,3:0|0:0,0:0:0:0:
256,384,16303,5,8,0:0:0:0:
160,272,16490,1,2,0:0:0:0:
326,176,16678,2,0,P|376:179|420:202,1,100,0|0,3:0|0:0,0:0:0:0:
256,384,17053,5,8,0:0:0:0:
352,272,17240,1,2,0:0:0:0:
186,176,17428,1,0,3:0:0:0:
160,272,17615,1,2,0:0:0:0:
256,384,17803,1,8,0:0:0:0:
352,272,17990,6,0,P|388:189|385:76,1,200,2|0,0:0|0:0,0:0:0:0:
125,81,18553,1,8,0:0:0:0:
122,180,18740,1,0,0:0:0:0:
159,271,18928,1,0,3:0:0:0:
160,272,19303,5,8,0:0:0:0:
122,180,19490,1,2,0:0:0:0:
125,81,19678,1,0,3:0:0:0:
386,81,20053,5,8,0:0:0:0:
389,180,20241,1,2,0:0:0:0:
352,272,20428,1,0,3:0:0:0:
389,180,20615,1,2,0:0:0:0:
386,81,20803,1,8,0:0:0:0:
125,81,20990,6,0,P|122:180|160:272,1,200,2|0,0:0|0:0,0:0:0:0:
353,271,21553,1,8,0:0:0:0:
390,180,21741,1,0,0:0:0:0:
387,81,21928,1,0,3:0:0:0:
352,272,22303,5,8,0:0:0:0:
390,180,22490,1,2,0:0:0:0:
387,81,22678,1,0,3:0:0:0:
160,272,23053,5,8,0:0:0:0:
122,180,23240,1,2,0:0:0:0:
125,81,23428,1,0,3:0:0:0:
390,180,23615,1,2,0:0:0:0:
160,272,23803,1,8,0:0:0:0:
358,372,23990,6,0,B|395:302|329:271|397:168,1,200,6|0,0:0|0:0,0:0:0:0:
512,0,24553,2,0,P|484:61|473:93,1,100,8|0,0:0|0:0,0:0:0:0:
454,342,24928,2,0,P|426:281|415:249,1,100,0|0,3:0|0:0,0:0:0:0:
512,192,25303,1,8,0:0:0:0:
358,12,25490,6,0,B|395:82|329:113|397:216,1,200,2|0,0:0|0:0,0:0:0:0:
512,384,26053,2,0,P|484:323|473:291,1,100,8|0,0:0|0:0,0:0:0:0:
454,42,26428,2,0,P|426:103|415:135,1,100,0|0,3:0|0:0,0:0:0:0:
512,192,26803,1,8,0:0:0:0:
358,372,26990,6,0,B|282:348|307:280|186:255,1,200,2|0,0:0|0:0,0:0:0:0:
0,286,27553,1,8,0:0:0:0:
175,157,27740,1,0,0:0:0:0:
104,384,27928,2,0,P|104:336|117:279,1,100,0|0,3:0|0:0,0:0:0:0:
134,67,28303,5,8,0:0:0:0:
70,162,28490,1,2,0:0:0:0:
134,250,28678,2,0,P|180:250|236:237,1,100,0|0,3:0|0:0,0:0:0:0:
378,317,29053,5,8,0:0:0:0:
442,222,29240,1,2,0:0:0:0:
378,134,29428,2,0,P|331:134|275:146,1,100,0|0,3:0|0:0,0:0:0:0:
378,317,29803,1,8,0:0:0:0:
154,372,29990,6,0,B|117:302|183:271|115:168,1,200,2|0,0:0|0:0,0:0:0:0:
0,0,30553,2,0,P|28:61|39:93,1,100,8|0,0:0|0:0,0:0:0:0:
58,342,30928,1,0,3:0:0:0:
96,249,31115,1,2,0:0:0:0:
0,192,31303,1,8,0:0:0:0:
154,12,31490,6,0,B|117:82|183:113|115:216,1,200,2|0,0:0|0:0,0:0:0:0:
0,384,32053,2,0,P|28:323|39:291,1,100,8|0,0:0|0:0,0:0:0:0:
58,42,32428,2,0,P|86:103|97:135,1,100,0|0,3:0|0:0,0:0:0:0:
0,192,32803,1,8,0:0:0:0:
0,192,33178,5,0,3:0:0:0:
128,128,33365,1,2,0:0:0:0:
256,192,33553,1,8,0:0:0:0:
384,256,33740,1,2,0:0:0:0:
512,192,33928,1,0,3:0:0:0:
128,256,34303,1,8,0:0:0:0:
256,192,34490,1,2,0:0:0:0:
384,128,34678,5,0,3:0:0:0:
384,128,34865,1,0,0:0:0:0:
320,320,35053,1,8,0:0:0:0:
320,320,35240,1,0,0:0:0:0:
128,256,35428,1,0,3:0:0:0:
128,256,35615,1,0,0:0:0:0:
192,64,35803,1,8,0:0:0:0:
256,192,35990,1,2,0:0:0:0:
128,256,36178,1,4,0:0:0:0:
256,192,36365,12,0,37490,0:0:0:0:
64,320,37678,6,0,P|128:309|185:282,1,125,4|0,1:2|0:0,0:0:0:0:
448,320,38053,2,0,P|384:309|327:282,1,125,8|0,1:0|0:0,0:0:0:0:
96,192,38428,5,0,1:0:0:0:
256,384,38615,1,2,0:0:0:0:
416,192,38803,2,0,P|442:135|452:74,1,125,8|0,1:0|0:0,0:0:0:0:
59,73,39178,6,0,P|70:135|96:192,1,125,0|0,1:0|0:0,0:0:0:0:
256,256,39553,1,8,1:0:0:0:
416,192,39740,1,2,0:0:0:0:
452,73,39928,5,0,1:0:0:0:
256,0,40115,1,2,0:0:0:0:
60,73,40303,1,8,1:0:0:0:
96,192,40490,6,0,B|92:257|92:257|58:314,1,125,2|0,0:0|1:0,0:0:0:0:
256,384,40865,2,0,L|256:240,1,125,2|8,0:0|1:0,0:0:0:0:
416,192,41240,2,0,B|419:257|419:257|453:314,1,125,2|0,0:0|1:0,0:0:0:0:
368,384,41615,1,2,0:0:0:0:
144,384,41803,1,8,1:0:0:0:
96,192,41990,6,0,B|92:257|92:257|58:314,1,125,2|0,0:0|1:0,0:0:0:0:
256,384,42365,2,0,L|256:240,1,125,2|8,0:0|1:0,0:0:0:0:
416,192,42740,2,0,B|419:257|419:257|453:314,1,125,2|0,0:0|1:0,0:0:0:0:
368,384,43115,1,0,0:0:0:0:
144,384,43303,1,8,1:0:0:0:
448,64,43678,6,0,P|384:75|327:102,1,125,0|0,1:0|0:0,0:0:0:0:
64,64,44053,2,0,P|128:75|185:102,1,125,8|0,1:0|0:0,0:0:0:0:
416,192,44428,5,0,1:0:0:0:
256,0,44615,1,2,0:0:0:0:
96,192,44803,2,0,P|70:249|60:310,1,125,8|0,1:0|0:0,0:0:0:0:
452,310,45178,5,0,1:0:0:0:
415,191,45365,1,2,0:0:0:0:
256,128,45553,1,8,1:0:0:0:
96,192,45740,1,2,0:0:0:0:
60,311,45928,5,0,1:0:0:0:
256,384,46115,1,2,0:0:0:0:
452,311,46303,1,8,1:0:0:0:
416,192,46490,6,0,B|419:126|419:126|453:69,1,125,2|0,0:0|1:0,0:0:0:0:
256,0,46865,2,0,L|256:144,1,125,2|8,0:0|1:0,0:0:0:0:
96,192,47240,2,0,B|92:126|92:126|58:69,1,125,2|0,0:0|1:0,0:0:0:0:
144,0,47615,1,2,0:0:0:0:
368,0,47803,1,8,1:0:0:0:
416,192,47990,6,0,B|419:126|419:126|453:69,1,125,2|0,0:0|1:0,0:0:0:0:
256,0,48365,2,0,L|256:144,1,125,2|8,0:0|1:0,0:0:0:0:
96,192,48740,2,0,B|92:126|92:126|58:69,2,125,2|0|0,0:0|1:0|0:0,0:0:0:0:
256,384,49303,1,8,1:0:0:0:
256,384,49678,6,0,B|288:304|208:224|256:112,2,275.000008392334,4|8|0,1:2|1:0|1:0,0:0:0:0:
256,384,50802,1,8,1:0:0:0:
512,288,50990,6,0,P|422:130|207:105,1,412.500012588501,2|8,0:0|1:0,0:0:0:0:
160,320,51740,1,0,0:0:0:0:
0,192,51928,5,0,1:0:0:0:
512,192,52303,1,8,1:0:0:0:
464,384,52490,1,2,0:0:0:0:
424,242,52678,6,0,L|276:222,1,137.500004196167,0|0,1:0|0:0,0:0:0:0:
0,384,53053,2,0,L|148:364,1,137.500004196167,8|0,1:0|0:0,0:0:0:0:
512,384,53428,2,0,L|375:365,1,137.500004196167,0|0,1:0|0:0,0:0:0:0:
88,242,53803,1,8,1:0:0:0:
256,384,53990,6,0,P|348:295|330:153,1,275.000008392334,2|0,0:0|0:0,0:0:0:0:
137,19,54553,2,0,L|147:166,1,137.500004196167,8|0,1:0|0:0,0:0:0:0:
375,365,54928,2,0,L|365:218,1,137.500004196167,0|0,1:0|0:0,0:0:0:0:
256,0,55303,1,8,1:0:0:0:
256,0,55678,6,0,B|224:80|304:160|256:272,2,275.000008392334,0|8|0,1:0|1:0|1:0,0:0:0:0:
0,384,56802,1,8,1:0:0:0:
256,384,56990,6,0,P|164:295|181:153,2,275.000008392334,2|2|0,0:0|0:0|0:0,0:0:0:0:
333,225,57928,5,0,1:0:0:0:
349,94,58115,1,0,0:0:0:0:
255,0,58303,1,8,1:0:0:0:
163,94,58490,1,0,0:0:0:0:
179,225,58678,6,0,L|170:337,1,100,0|0,3:0|0:0,0:0:0:0:
341,324,59053,2,0,L|333:225,1,100,0|0,3:0|0:0,0:0:0:0:
201,281,59428,6,0,L|192:393,1,100,0|0,3:0|0:0,0:0:0:0:
319,380,59803,2,0,L|311:281,1,100,0|0,3:0|0:0,0:0:0:0:
128,176,60178,6,0,L|123:225,3,50,0|2|2|2,3:0|0:0|0:0|0:0,0:0:0:0:
389,225,60553,2,0,L|385:175,3,50,0|2|2|0,3:0|0:0|0:0|0:0,0:0:0:0:
512,112,60928,5,0,3:0:0:0:
0,112,61303,1,10,1:0:0:0:
256,192,61678,6,0,L|256:64,1,125,4|0,1:2|0:0,0:0:0:0:
199,268,62053,2,0,P|256:289|314:268,1,125,8|0,1:0|0:0,0:0:0:0:
142,343,62428,2,0,P|256:386|371:343,1,250,0|8,1:0|1:0,0:0:0:0:
400,256,62990,5,2,0:0:0:0:
112,256,63178,1,0,1:0:0:0:
199,116,63553,6,0,P|256:94|314:115,1,125,8|0,1:0|0:0,0:0:0:0:
142,40,63928,2,0,P|256:-2|371:40,1,250,0|8,1:0|1:0,0:0:0:0:
400,128,64490,5,2,0:0:0:0:
112,128,64678,1,0,1:0:0:0:
332,249,65053,6,0,P|353:191|332:133,1,125,8|0,1:0|0:0,0:0:0:0:
407,305,65428,2,0,P|450:191|407:76,1,250,0|8,1:0|1:0,0:0:0:0:
320,48,65990,5,2,0:0:0:0:
320,336,66178,1,0,1:0:0:0:
180,249,66553,6,0,P|158:191|179:133,1,125,8|0,1:0|0:0,0:0:0:0:
256,192,66928,1,0,1:0:0:0:
104,305,67115,2,0,P|61:191|104:76,1,250,2|0,0:0|0:0,0:0:0:0:
256,192,67678,5,0,3:0:0:0:
224,240,72178,6,0,L|208:288,3,50,0|2|2|2,3:2|0:0|0:0|0:0,0:0:0:0:
288,240,72553,2,0,L|304:288,3,50,8|2|2|2,0:0|0:0|0:0|0:0,0:0:0:0:
224,240,72928,6,0,L|208:288,1,50,0|2,3:0|0:0,0:0:0:0:
288,240,73115,2,0,L|304:288,1,50,0|2,0:0|0:0,0:0:0:0:
256,352,73303,1,8,0:0:0:0:
144,96,73490,6,0,P|99:175|91:287,1,200,6|0,0:0|0:0,0:0:0:0:
256,352,74053,1,8,0:0:0:0:
422,282,74240,1,0,0:0:0:0:
256,352,74428,1,0,3:0:0:0:
422,102,74803,5,8,0:0:0:0:
256,32,74990,1,2,0:0:0:0:
90,102,75178,2,0,P|94:151|117:195,1,100,0|0,3:0|0:0,0:0:0:0:
90,282,75459,1,2,0:0:0:0:
90,282,75553,5,8,0:0:0:0:
256,352,75740,1,2,0:0:0:0:
422,282,75928,1,0,3:0:0:0:
336,160,76115,1,2,0:0:0:0:
176,160,76303,1,8,0:0:0:0:
74,283,76490,6,0,P|119:204|127:92,1,200,2|0,0:0|0:0,0:0:0:0:
256,0,77053,1,8,0:0:0:0:
385,96,77240,1,0,0:0:0:0:
256,192,77428,2,0,P|260:241|283:285,1,100,0|0,3:0|0:0,0:0:0:0:
256,192,77803,2,0,P|252:143|229:99,1,100,8|0,0:0|0:0,0:0:0:0:
80,231,78178,6,0,P|84:280|107:324,1,100,0|0,3:0|0:0,0:0:0:0:
432,153,78553,2,0,P|428:104|405:60,1,100,8|0,0:0|0:0,0:0:0:0:
109,108,78928,5,0,3:0:0:0:
256,192,79115,1,2,0:0:0:0:
109,276,79303,1,8,0:0:0:0:
48,0,79490,6,0,P|12:83|15:196,1,200,2|0,0:0|0:0,0:0:0:0:
108,325,80053,2,0,P|89:279|90:229,1,100,8|0,0:0|0:0,0:0:0:0:
256,192,80428,1,0,3:0:0:0:
404,59,80803,6,0,P|422:105|421:155,1,100,8|0,0:0|0:0,0:0:0:0:
256,192,81178,1,0,3:0:0:0:
108,59,81553,5,8,0:0:0:0:
90,155,81740,1,2,0:0:0:0:
256,192,81928,1,0,3:0:0:0:
421,155,82115,1,2,0:0:0:0:
404,59,82302,1,8,0:0:0:0:
424,19,82396,1,2,0:0:0:0:
464,0,82490,6,0,P|500:83|497:196,1,200,2|0,0:0|0:0,0:0:0:0:
404,325,83053,2,0,P|423:279|422:229,1,100,8|0,0:0|0:0,0:0:0:0:
256,192,83428,1,0,3:0:0:0:
108,325,83803,6,0,P|90:279|91:229,1,100,8|0,0:0|0:0,0:0:0:0:
256,192,84178,1,0,3:0:0:0:
404,325,84553,5,8,0:0:0:0:
422,229,84740,1,2,0:0:0:0:
256,192,84928,1,0,3:0:0:0:
91,229,85115,1,2,0:0:0:0:
108,325,85302,1,8,0:0:0:0:
154,12,85490,6,0,B|117:82|183:113|115:216,1,200,6|0,0:0|0:0,0:0:0:0:
0,384,86053,1,8,0:0:0:0:
38,291,86240,1,2,0:0:0:0:
58,42,86428,1,0,3:0:0:0:
96,134,86615,1,2,0:0:0:0:
0,192,86803,1,8,0:0:0:0:
154,372,86990,6,0,B|117:302|183:271|115:168,1,200,2|0,0:0|0:0,0:0:0:0:
0,0,87553,1,8,0:0:0:0:
38,92,87740,1,2,0:0:0:0:
58,342,87928,1,0,3:0:0:0:
96,249,88115,1,2,0:0:0:0:
0,192,88303,1,8,0:0:0:0:
154,12,88490,6,0,B|230:36|205:104|326:129,1,200,2|0,0:0|0:0,0:0:0:0:
512,98,89053,1,8,0:0:0:0:
337,227,89240,1,0,0:0:0:0:
408,0,89428,2,0,P|408:48|395:105,1,100,0|0,3:0|0:0,0:0:0:0:
378,317,89803,5,8,0:0:0:0:
442,222,89990,1,2,0:0:0:0:
378,134,90178,2,0,P|332:134|276:147,1,100,0|0,3:0|0:0,0:0:0:0:
134,67,90553,5,8,0:0:0:0:
70,162,90740,1,2,0:0:0:0:
134,250,90928,1,0,3:0:0:0:
389,204,91115,1,2,0:0:0:0:
134,67,91303,1,8,0:0:0:0:
357,12,91490,6,0,B|394:81|328:112|389:204,1,200,2|0,0:0|0:0,0:0:0:0:
512,384,92053,1,8,0:0:0:0:
473,291,92240,1,2,0:0:0:0:
454,42,92428,1,0,3:0:0:0:
416,135,92615,1,2,0:0:0:0:
512,192,92803,1,8,0:0:0:0:
358,372,92990,6,0,B|395:302|329:271|397:168,1,200,2|0,0:0|0:0,0:0:0:0:
512,0,93553,1,8,0:0:0:0:
473,92,93740,1,2,0:0:0:0:
454,342,93928,2,0,P|426:281|415:249,1,100,0|0,3:0|0:0,0:0:0:0:
512,192,94303,1,8,0:0:0:0:
512,192,94678,5,0,3:0:0:0:
384,288,94865,1,2,0:0:0:0:
256,192,95053,1,8,0:0:0:0:
128,96,95240,1,2,0:0:0:0:
0,192,95428,1,0,3:0:0:0:
384,96,95803,1,8,0:0:0:0:
256,192,95990,1,2,0:0:0:0:
128,288,96178,5,0,3:0:0:0:
128,96,96365,1,2,0:0:0:0:
384,96,96553,1,8,0:0:0:0:
384,288,96740,1,2,0:0:0:0:
153,268,96928,5,0,3:0:0:0:
153,115,97115,1,2,0:0:0:0:
358,115,97303,1,8,0:0:0:0:
358,268,97490,1,2,0:0:0:0:
256,192,97678,5,0,3:0:0:0:
256,192,97865,12,0,98990,3:0:0:0:
448,320,99178,6,0,P|384:309|327:282,1,125,4|0,1:2|0:0,0:0:0:0:
64,64,99553,2,0,P|128:75|185:102,1,125,8|0,1:0|0:0,0:0:0:0:
416,192,99928,5,0,1:0:0:0:
96,192,100115,1,2,0:0:0:0:
448,64,100303,2,0,P|384:75|327:102,1,125,8|0,1:0|0:0,0:0:0:0:
256,259,100678,5,0,1:0:0:0:
416,192,100865,1,2,0:0:0:0:
256,259,101053,1,8,1:0:0:0:
96,192,101240,1,2,0:0:0:0:
144,32,101428,5,0,1:0:0:0:
256,259,101615,1,2,0:0:0:0:
368,32,101803,1,8,1:0:0:0:
416,192,101990,6,0,B|420:257|420:257|454:314,1,125,2|0,0:0|1:0,0:0:0:0:
256,384,102365,2,0,L|256:240,1,125,2|8,0:0|1:0,0:0:0:0:
96,192,102740,2,0,B|93:257|93:257|59:314,2,125,2|0|2,0:0|1:0|0:0,0:0:0:0:
256,0,103303,1,8,1:0:0:0:
416,192,103490,6,0,B|420:257|420:257|454:314,1,125,2|0,0:0|1:0,0:0:0:0:
256,384,103865,2,0,L|256:240,1,125,2|8,0:0|1:0,0:0:0:0:
96,192,104240,2,0,B|93:257|93:257|59:314,2,125,2|0|0,0:0|1:0|0:0,0:0:0:0:
256,0,104803,1,8,1:0:0:0:
448,320,105178,6,0,P|384:309|327:282,1,125,0|0,1:0|0:0,0:0:0:0:
64,64,105553,2,0,P|128:75|185:102,1,125,8|0,1:0|0:0,0:0:0:0:
416,192,105928,5,0,1:0:0:0:
96,192,106115,1,2,0:0:0:0:
448,64,106303,2,0,P|384:75|327:102,1,125,8|0,1:0|0:0,0:0:0:0:
256,304,106678,5,0,1:0:0:0:
96,192,106865,1,2,0:0:0:0:
144,32,107053,1,8,1:0:0:0:
368,32,107240,1,2,0:0:0:0:
416,192,107428,5,0,1:0:0:0:
256,304,107615,1,2,0:0:0:0:
96,192,107803,1,8,1:0:0:0:
368,32,107990,6,0,B|364:97|364:97|330:154,1,125,2|0,0:0|1:0,0:0:0:0:
179,148,108365,1,2,0:0:0:0:
144,32,108552,1,8,1:0:0:0:
49,279,108740,6,0,B|114:275|114:275|171:241,1,125,2|0,0:0|1:0,0:0:0:0:
463,279,109115,2,0,B|398:275|398:275|341:241,1,125,2|8,0:0|1:0,0:0:0:0:
144,32,109490,6,0,B|148:97|148:97|182:154,1,125,2|0,0:0|1:0,0:0:0:0:
333,148,109865,1,2,0:0:0:0:
368,32,110052,1,8,1:0:0:0:
463,279,110240,6,0,B|398:275|398:275|341:241,1,125,2|0,0:0|1:0,0:0:0:0:
49,279,110615,1,2,0:0:0:0:
256,384,110803,1,8,1:0:0:0:
256,0,111178,5,4,1:2:0:0:
256,192,111365,12,8,112303,1:0:0:0:
0,96,112490,6,0,P|90:254|305:279,1,412.500012588501,2|8,0:0|1:0,0:0:0:0:
352,64,113240,1,2,0:0:0:0:
512,192,113428,5,0,1:0:0:0:
0,192,113803,1,8,1:0:0:0:
256,192,113990,1,2,0:0:0:0:
80,96,114178,6,0,L|216:66,1,137.500004196167,0|0,1:0|0:0,0:0:0:0:
432,288,114553,2,0,L|297:317,1,137.500004196167,8|0,1:0|0:0,0:0:0:0:
352,16,114928,2,0,L|381:150,1,137.500004196167,0|0,1:0|0:0,0:0:0:0:
160,368,115303,1,8,1:0:0:0:
31,317,115490,6,0,P|120:225|262:243,1,275.000008392334,2|0,0:0|0:0,0:0:0:0:
346,384,116053,2,0,L|376:248,1,137.500004196167,8|0,1:0|0:0,0:0:0:0:
166,0,116428,2,0,L|136:136,1,137.500004196167,0|0,1:0|0:0,0:0:0:0:
512,384,116803,1,8,1:0:0:0:
0,384,117178,5,0,1:0:0:0:
256,192,117365,12,8,118303,1:0:0:0:
48,130,118490,6,0,P|137:38|279:55,2,275.000008392334,2|2|0,0:0|0:0|0:0,0:0:0:0:
179,159,119428,5,0,1:0:0:0:
349,290,119615,1,0,0:0:0:0:
257,384,119803,1,8,1:0:0:0:
163,290,119990,1,0,0:0:0:0:
333,159,120178,6,0,L|342:47,1,100,0|0,3:0|0:0,0:0:0:0:
171,60,120553,2,0,L|179:159,1,100,0|0,3:0|0:0,0:0:0:0:
311,103,120928,6,0,L|320:-9,1,100,0|0,3:0|0:0,0:0:0:0:
193,4,121303,2,0,L|201:103,1,100,0|0,3:0|0:0,0:0:0:0:
381,223,121678,6,0,L|385:173,1,50,0|2,3:0|0:0,0:0:0:0:
333,159,121865,2,0,L|337:109,1,50,2|2,0:0|0:0,0:0:0:0:
168,109,122053,6,0,L|173:159,1,50,0|2,3:0|0:0,0:0:0:0:
120,173,122240,2,0,L|125:223,1,50,2|2,0:0|0:0,0:0:0:0:
0,384,122428,5,0,3:0:0:0:
512,384,122803,1,2,1:0:0:0:
256,192,123178,5,4,1:2:0:0:
256,192,123365,1,0,0:0:0:0:
144,128,123553,6,0,P|123:185|144:243,1,125,8|0,1:0|0:0,0:0:0:0:
351,309,123928,2,0,P|395:194|352:80,1,250,0|8,1:0|1:0,0:0:0:0:
256,192,124490,5,2,0:0:0:0:
256,192,124678,1,0,1:0:0:0:
256,192,124865,1,0,0:0:0:0:
222,67,125053,6,0,P|166:93|140:148,1,125,8|0,1:0|0:0,0:0:0:0:
241,342,125428,2,0,P|352:292|403:180,1,250,0|8,1:0|1:0,0:0:0:0:
256,192,125990,5,2,0:0:0:0:
256,192,126178,1,0,1:0:0:0:
256,192,126365,1,0,0:0:0:0:
320,80,126553,6,0,P|263:59|204:79,1,125,8|0,1:0|0:0,0:0:0:0:
138,287,126928,2,0,P|253:331|368:288,1,250,0|8,1:0|1:0,0:0:0:0:
256,192,127490,5,2,0:0:0:0:
256,192,127678,1,0,1:0:0:0:
256,192,127865,1,0,0:0:0:0:
380,158,128053,6,0,P|354:102|299:76,1,125,8|0,1:0|0:0,0:0:0:0:
105,177,128428,1,0,1:0:0:0:
105,177,128615,2,0,P|155:288|266:338,1,250,2|0,0:0|0:0,0:0:0:0:
256,192,129178,1,0,3:0:0:0:
245,46,129365,1,0,0:0:0:0:
400,128,129553,6,0,P|421:185|400:243,1,125,14|0,1:0|0:0,0:0:0:0:
129,308,129928,2,0,P|85:194|128:80,1,250,0|8,1:0|1:0,0:0:0:0:
256,192,130491,1,2,0:0:0:0:
256,192,130678,1,0,1:0:0:0:
256,192,130865,1,0,0:0:0:0:
403,248,131053,6,0,P|377:303|321:329,1,125,8|0,1:0|0:0,0:0:0:0:
83,184,131428,2,0,P|133:73|244:22,1,250,0|8,1:0|1:0,0:0:0:0:
256,192,131990,1,2,0:0:0:0:
256,192,132177,1,0,1:0:0:0:
256,192,132364,1,0,0:0:0:0:
320,336,132552,6,0,P|263:357|205:336,1,125,8|0,1:0|0:0,0:0:0:0:
139,65,132927,2,0,P|253:21|368:63,1,250,0|8,1:0|1:0,0:0:0:0:
256,192,133490,1,2,0:0:0:0:
256,192,133677,1,0,1:0:0:0:
256,192,133864,1,0,0:0:0:0:
320,336,134052,6,0,P|263:357|205:336,1,125,8|0,1:0|0:0,0:0:0:0:
139,65,134428,1,0,1:0:0:0:
139,65,134615,2,0,P|253:21|368:63,1,250,2|0,0:0|0:0,0:0:0:0:
304,240,135178,1,4,3:2:0:0:
304,240,135553,6,0,P|360:214|386:158,1,125,8|0,1:0|0:0,0:0:0:0:
45,165,135928,2,0,P|96:276|207:326,1,250,0|8,1:0|1:0,0:0:0:0:
288,384,136490,5,2,0:0:0:0:
272,256,136678,1,0,1:0:0:0:
256,128,136865,1,2,0:0:0:0:
209,240,137053,6,0,P|153:214|127:158,1,125,8|0,1:0|0:0,0:0:0:0:
467,164,137428,1,0,1:0:0:0:
400,256,137615,5,2,0:0:0:0:
256,128,137803,1,8,1:0:0:0:
112,256,137990,2,0,P|57:230|31:174,1,125,2|0,0:0|1:0,0:0:0:0:
112,128,138365,5,2,0:0:0:0:
256,256,138553,1,8,1:0:0:0:
400,128,138740,2,0,P|455:155|480:210,2,125,2|0|0,0:0|1:0|0:0,0:0:0:0:
288,0,139303,5,8,1:0:0:0:
272,128,139491,1,2,0:0:0:0:
256,256,139678,1,0,1:1:0:0:
240,384,139865,1,2,0:0:0:0:
415,252,140053,6,0,L|304:240,1,112.499996566773,8|0,1:0|0:0,0:0:0:0:
96,131,140428,2,0,L|208:144,1,112.499996566773,0|0,1:0|0:0,0:0:0:0:
193,363,140803,6,0,L|208:239,1,125,10|0,3:1|0:0,0:0:0:0:
316,19,141178,2,0,L|304:144,1,125,4|0,1:2|0:0,0:0:0:0:
208,240,141553,6,0,P|152:214|126:158,1,125,8|0,1:0|0:0,0:0:0:0:
467,165,141928,2,0,P|416:276|305:326,1,250,0|8,1:0|1:0,0:0:0:0:
224,384,142490,5,2,0:0:0:0:
240,256,142678,1,0,1:0:0:0:
256,128,142865,1,2,0:0:0:0:
303,240,143053,6,0,P|359:214|385:158,1,125,8|0,1:0|0:0,0:0:0:0:
45,164,143428,1,0,1:0:0:0:
112,256,143615,5,2,0:0:0:0:
256,128,143803,1,8,1:0:0:0:
400,256,143990,2,0,P|455:230|481:174,1,125,2|0,0:0|1:0,0:0:0:0:
400,128,144365,5,2,0:0:0:0:
256,256,144553,1,8,1:0:0:0:
112,128,144740,2,0,P|57:155|32:210,2,125,2|0|0,0:0|1:0|0:0,0:0:0:0:
224,0,145303,5,8,1:0:0:0:
240,128,145491,1,2,0:0:0:0:
256,256,145678,1,4,3:2:0:0:
256,192,145865,12,0,148678,3:2:0:0:
256,192,149053,5,0,3:2:0:0:
256,192,149428,1,0,3:2:0:0:
256,192,149803,1,0,3:2:0:0:
208,128,150178,5,0,3:2:0:0:
304,256,150365,1,2,0:0:0:0:
328,95,150553,5,0,3:2:0:0:
184,287,150740,1,2,0:0:0:0:
147,47,150928,5,0,3:2:0:0:
364,335,151115,1,2,0:0:0:0:
399,0,151303,5,8,1:0:0:0:
113,384,151678,5,4,1:2:0:0:
256,192,151865,12,8,152803,1:0:0:0:
256,192,152990,5,2,0:2:0:0:
256,192,153178,12,0,153928,1:0:0:0:
388,264,154303,5,8,1:0:0:0:
123,119,154490,1,2,0:0:0:0:
80,288,154678,6,0,L|216:318,1,137.500004196167,0|0,1:0|0:0,0:0:0:0:
432,96,155053,2,0,L|297:67,1,137.500004196167,8|0,1:0|0:0,0:0:0:0:
352,368,155428,2,0,L|381:234,1,137.500004196167,0|0,1:0|0:0,0:0:0:0:
160,16,155803,1,8,1:0:0:0:
31,67,155990,6,0,P|120:159|262:141,1,275.000008392334,2|0,0:0|0:0,0:0:0:0:
346,0,156553,2,0,L|376:136,1,137.500004196167,8|0,1:0|0:0,0:0:0:0:
166,384,156928,2,0,L|136:248,1,137.500004196167,0|0,1:0|0:0,0:0:0:0:
0,0,157303,5,8,1:0:0:0:
512,384,157678,1,0,1:0:0:0:
256,192,157865,12,8,158803,1:0:0:0:
48,254,158990,6,0,P|137:346|279:329,2,275.000008392334,2|2|0,0:0|0:0|0:0,0:0:0:0:
179,225,159928,5,0,1:0:0:0:
349,94,160115,1,0,0:0:0:0:
257,0,160303,1,8,1:0:0:0:
163,94,160490,1,0,0:0:0:0:
333,225,160678,6,0,L|342:337,1,100,0|0,3:0|0:0,0:0:0:0:
171,324,161053,2,0,L|179:225,1,100,0|0,3:0|0:0,0:0:0:0:
311,281,161428,6,0,L|320:393,1,100,0|0,3:0|0:0,0:0:0:0:
193,380,161803,2,0,L|201:281,1,100,0|0,3:0|0:0,0:0:0:0:
416,144,162178,6,0,L|425:264,1,100,0|0,3:0|0:0,0:0:0:0:
96,144,162553,2,0,L|87:264,1,100,0|0,3:0|0:0,0:0:0:0:
0,384,162928,5,0,3:0:0:0:
512,384,163303,1,2,1:0:0:0:
256,0,163678,1,4,1:2:0:0:
80,352,164053,5,8,1:0:0:0:
256,192,164240,1,2,0:0:0:0:
432,352,164428,2,0,P|474:238|432:123,1,250,0|8,1:0|1:0,0:0:0:0:
199,268,164990,6,0,P|256:289|314:268,1,125,2|0,0:0|1:0,0:0:0:0:
256,192,165365,1,0,0:0:0:0:
432,352,165553,5,8,1:0:0:0:
256,192,165740,1,2,0:0:0:0:
80,352,165928,2,0,P|38:238|80:123,1,250,0|8,1:0|1:0,0:0:0:0:
313,268,166490,6,0,P|256:289|198:268,1,125,2|0,0:0|1:0,0:0:0:0:
256,192,166865,1,0,0:0:0:0:
432,32,167053,5,8,1:0:0:0:
256,192,167240,1,2,0:0:0:0:
80,32,167428,2,0,P|38:146|80:261,1,250,0|8,1:0|1:0,0:0:0:0:
313,116,167990,6,0,P|256:95|198:116,1,125,2|0,0:0|1:0,0:0:0:0:
256,192,168365,1,0,0:0:0:0:
80,32,168553,5,8,1:0:0:0:
256,192,168740,1,2,0:0:0:0:
432,32,168928,1,0,1:0:0:0:
432,32,169115,2,0,P|474:146|432:261,1,250,2|0,0:0|0:0,0:0:0:0:
199,116,169677,6,0,P|256:95|314:116,1,125,0|0,3:0|0:0,0:0:0:0:
416,384,170053,5,14,1:0:0:0:
256,192,170240,1,2,0:0:0:0:
416,0,170428,2,0,P|458:114|416:229,1,250,0|8,1:0|1:0,0:0:0:0:
180,249,170990,6,0,P|159:192|180:134,1,125,2|0,0:0|1:0,0:0:0:0:
256,192,171365,1,0,0:0:0:0:
96,384,171553,5,8,1:0:0:0:
256,192,171740,1,2,0:0:0:0:
96,0,171928,2,0,P|54:114|96:229,1,250,0|8,1:0|1:0,0:0:0:0:
332,249,172490,6,0,P|353:192|332:134,1,125,2|0,0:0|1:0,0:0:0:0:
256,192,172865,1,0,0:0:0:0:
416,384,173053,5,8,1:0:0:0:
256,192,173240,1,2,0:0:0:0:
416,0,173428,2,0,P|458:114|416:229,1,250,0|8,1:0|1:0,0:0:0:0:
180,249,173990,6,0,P|159:192|180:134,1,125,2|0,0:0|1:0,0:0:0:0:
256,192,174365,1,0,0:0:0:0:
96,384,174553,5,8,1:0:0:0:
256,192,174740,1,2,0:0:0:0:
96,0,174928,1,0,1:0:0:0:
96,0,175115,2,0,P|54:114|96:229,1,250,2|0,0:0|0:0,0:0:0:0:
313,116,175678,6,0,P|250:92|186:116,1,137.500004196167,4|0,1:2|0:0,0:0:0:0:
186,267,176053,2,0,P|249:291|313:268,1,137.500004196167,8|0,1:0|0:0,0:0:0:0:
397,171,176428,6,0,P|358:89|275:49,1,137.500004196167,0|0,1:0|0:0,0:0:0:0:
114,212,176804,2,0,P|153:294|236:334,1,137.500004196167,8|0,1:0|0:0,0:0:0:0:
332,249,177178,6,0,P|355:186|332:122,1,137.500004196167,0|0,1:0|0:0,0:0:0:0:
180,122,177553,2,0,P|156:185|180:249,1,137.500004196167,8|0,1:0|0:0,0:0:0:0:
276,333,177929,6,0,P|358:294|398:211,1,137.500004196167,0|0,1:0|0:0,0:0:0:0:
235,50,178303,2,0,P|153:89|113:172,1,137.500004196167,8|0,1:0|0:0,0:0:0:0:
301,146,178678,5,0,1:0:0:0:
210,237,178865,1,2,0:0:0:0:
400,190,179053,5,8,1:0:0:0:
111,192,179240,1,2,0:0:0:0:
369,322,179428,5,0,1:0:0:0:
320,368,179521,1,2,0:0:0:0:
256,384,179615,1,2,0:0:0:0:
192,368,179709,1,2,0:0:0:0:
143,322,179803,1,8,1:0:0:0:
256,203,179990,1,2,0:0:0:0:
101,8,180178,6,0,L|143:62,1,68.7500020980836,0|2,1:0|0:0,0:0:0:0:
256,272,180365,2,0,L|256:192,1,68.7500020980836,2|2,0:0|0:0,0:0:0:0:
411,8,180553,6,0,P|449:65|445:130,1,137.500004196167,8|0,1:0|0:0,0:0:0:0:
101,376,180928,2,0,P|62:318|66:253,1,137.500004196167,0|0,1:0|0:0,0:0:0:0:
256,192,181303,1,8,1:0:0:0:
256,192,181678,5,4,1:2:0:0:
256,192,181865,12,8,182803,1:0:0:0:
256,192,182990,5,2,0:2:0:0:
256,192,183178,12,0,184490,0:0:0:0:
416,192,184678,5,0,1:0:0:0:
416,192,184865,1,2,0:0:0:0:
96,192,185053,5,8,1:0:0:0:
96,192,185240,1,2,0:0:0:0:
144,352,185427,5,0,1:0:0:0:
256,80,185614,1,2,0:0:0:0:
368,352,185802,1,8,1:0:0:0:
416,192,185989,6,0,B|420:123|420:123|456:63,1,137.500004196167,2|0,0:0|1:0,0:0:0:0:
96,192,186365,2,0,B|91:260|91:260|55:320,1,137.500004196167,2|8,0:0|1:0,0:0:0:0:
461,192,186740,6,0,B|466:280|466:280|512:357,1,137.500004196167,2|0,0:0|1:0,0:0:0:0:
50,192,187115,2,0,B|45:103|45:103|0:26,2,137.500004196167,2|8|2,0:0|1:0|0:0,0:0:0:0:
192,352,187678,6,0,B|103:357|103:357|26:403,1,137.500004196167,4|2,1:2|0:0,0:0:0:0:
416,256,188053,2,0,B|421:344|421:344|467:421,1,137.500004196167,8|2,1:0|0:0,0:0:0:0:
320,32,188428,2,0,B|408:26|408:26|485:-19,1,137.500004196167,0|0,1:0|0:0,0:0:0:0:
96,128,188803,2,0,B|90:39|90:39|44:-37,1,137.500004196167,8|2,1:0|0:0,0:0:0:0:
206,316,189178,6,0,B|138:320|138:320|78:355,1,137.500004196167,0|2,1:0|0:0,0:0:0:0:
380,241,189553,2,0,B|384:309|384:309|419:369,1,137.500004196167,8|2,1:0|0:0,0:0:0:0:
305,67,189928,2,0,B|373:63|373:63|433:28,1,137.500004196167,0|2,1:0|0:0,0:0:0:0:
132,142,190303,2,0,B|127:74|127:74|92:14,1,137.500004196167,8|2,1:0|0:0,0:0:0:0:
32,256,190678,6,0,B|91:291|91:291|160:295,1,137.500004196167,0|2,1:0|0:0,0:0:0:0:
480,256,191053,2,0,B|420:291|420:291|351:295,1,137.500004196167,8|0,1:0|0:0,0:0:0:0:
144,112,191428,5,0,1:0:0:0:
256,384,191615,1,2,0:0:0:0:
368,112,191803,1,8,1:0:0:0:
480,256,191990,6,0,B|420:291|420:291|351:295,1,137.500004196167,2|0,0:0|1:0,0:0:0:0:
32,256,192365,2,0,B|91:291|91:291|160:295,1,137.500004196167,2|8,0:0|1:0,0:0:0:0:
511,118,192741,6,0,B|443:78|443:78|365:73,1,137.500004196167,2|0,0:0|1:0,0:0:0:0:
0,118,193116,2,0,B|68:78|68:78|146:73,1,137.500004196167,2|8,0:0|1:0,0:0:0:0:
256,192,193490,1,2,0:0:0:0:
212,284,193678,5,4,1:2:0:0:
163,148,193865,1,2,0:0:0:0:
299,99,194053,1,8,1:0:0:0:
348,235,194240,1,2,0:0:0:0:
150,230,194428,5,0,1:0:0:0:
217,86,194615,1,2,0:0:0:0:
361,153,194803,1,8,1:0:0:0:
294,297,194990,1,2,0:0:0:0:
144,139,195178,5,0,1:0:0:0:
308,80,195365,1,2,0:0:0:0:
367,244,195553,1,8,1:0:0:0:
203,303,195740,1,2,0:0:0:0:
209,64,195928,5,0,1:0:0:0:
383,145,196115,1,2,0:0:0:0:
302,319,196303,1,8,1:0:0:0:
128,238,196490,1,2,0:0:0:0:
319,56,196678,5,0,1:0:0:0:
391,255,196865,1,2,0:0:0:0:
192,327,197053,1,8,1:0:0:0:
120,128,197240,1,2,0:0:0:0:
410,135,197428,5,0,1:0:0:0:
312,346,197615,1,2,0:0:0:0:
101,248,197803,1,8,1:0:0:0:
199,37,197990,1,2,0:0:0:0:
256,192,198178,5,4,1:2:0:0:
256,192,198365,12,2,200053,0:0:0:0:
