osu file format v14

[General]
AudioFilename: audio.mp3
AudioLeadIn: 0
PreviewTime: 99178
Countdown: 0
SampleSet: Soft
StackLeniency: 0.7
Mode: 0
LetterboxInBreaks: 0
EpilepsyWarning: 1
WidescreenStoryboard: 1

[Editor]
Bookmarks: 44053,170053
DistanceSpacing: 1
BeatDivisor: 4
GridSize: 16
TimelineZoom: 2

[Metadata]
Title:Freak the Freak Out (Nightcore Mix)
TitleUnicode:Freak the Freak Out (Nightcore Mix)
Artist:Victorious Cast feat. Victoria Justice
ArtistUnicode:Victorious Cast feat. Victoria Justice
Creator:AJT
Version:Sytho's Insane
Source:Victorious
Tags:english pop dance sped up ver. nickelodeon Sonnyc Chanmann Sytho -Ady
BeatmapID:4103552
BeatmapSetID:1962243

[Difficulty]
HPDrainRate:5
CircleSize:4
OverallDifficulty:8
ApproachRate:8.6
SliderMultiplier:1.8
SliderTickRate:2

[Events]
//Background and Video events
0,0,"wallhaven-q632vd.jpg",0,0
//Break Periods
2,146428,148019
//Storyboard Layer 0 (Background)
//Storyboard Layer 1 (Fail)
//Storyboard Layer 2 (Pass)
//Storyboard Layer 3 (Foreground)
Sprite,Foreground,Centre,"lyrics\0044.png",173.2883,0 F,0,69350,69550,0,1 S,1,69350,69550,0.11,0.12 MY,1,69350,69551,240,231.9833 C,0,69450,69550,51,51,51,255,255,255 P,0,69550,,A F,0,70470,70670,1,0 S,1,70470,70670,0.12,0.11 C,0,70570,70670,255,255,255,153,153,153
Sprite,Foreground,Centre,"lyrics\0069.png",194.5183,0 F,0,69350,69550,0,1 S,1,69350,69550,0.11,0.12 MY,1,69350,69551,240,232.6983 C,0,69450,69550,51,51,51,255,255,255 P,0,69550,,A F,0,70470,70670,1,0 S,1,70470,70670,0.12,0.11 C,0,70570,70670,255,255,255,153,153,153
Sprite,Foreground,Centre,"lyrics\0066.png",206.6733,0 MY,1,69350,69549,240,237.1533 F,0,69350,69550,0,1 S,1,69350,69550,0.11,0.12 C,0,69450,69550,51,51,51,255,255,255 P,0,69550,,A F,0,70470,70670,1,0 S,1,70470,70670,0.12,0.11 C,0,70570,70670,255,255,255,153,153,153
Sprite,Foreground,Centre,"lyrics\0066.png",221.0833,0 F,0,69350,69550,0,1 S,1,69350,69550,0.11,0.12 MY,1,69350,69551,240,237.1533 C,0,69450,69550,51,51,51,255,255,255 P,0,69550,,A F,0,70470,70670,1,0 S,1,70470,70670,0.12,0.11 C,0,70570,70670,255,255,255,153,153,153
Sprite,Foreground,Centre,"lyrics\0069.png",234.7783,0 F,0,69350,69550,0,1 S,1,69350,69550,0.11,0.12 MY,1,69350,69551,240,232.6983 C,0,69450,69550,51,51,51,255,255,255 P,0,69550,,A F,0,70470,70670,1,0 S,1,70470,70670,0.12,0.11 C,0,70570,70670,255,255,255,153,153,153
Sprite,Foreground,Centre,"lyrics\0063.png",248.8033,0 F,0,69350,69550,0,1 S,1,69350,69550,0.11,0.12 MY,1,69350,69551,240,237.3183 C,0,69450,69550,51,51,51,255,255,255 P,0,69550,,A F,0,70470,70670,1,0 S,1,70470,70670,0.12,0.11 C,0,70570,70670,255,255,255,153,153,153
Sprite,Foreground,Centre,"lyrics\0075.png",267.8883,0 MY,1,69350,69549,240,237.4833 F,0,69350,69550,0,1 S,1,69350,69550,0.11,0.12 C,0,69450,69550,51,51,51,255,255,255 P,0,69550,,A F,0,70470,70670,1,0 S,1,70470,70670,0.12,0.11 C,0,70570,70670,255,255,255,153,153,153
Sprite,Foreground,Centre,"lyrics\006c.png",285.3233,0 F,0,69350,69550,0,1 S,1,69350,69550,0.11,0.12 MY,1,69350,69551,240,230.9383 C,0,69450,69550,51,51,51,255,255,255 P,0,69550,,A F,0,70470,70670,1,0 S,1,70470,70670,0.12,0.11 C,0,70570,70670,255,255,255,153,153,153
Sprite,Foreground,Centre,"lyrics\0074.png",298.8533,0 F,0,69350,69550,0,1 S,1,69350,69550,0.11,0.12 MY,1,69350,69550,240,235.3933 C,0,69450,69550,51,51,51,255,255,255 P,0,69550,,A F,0,70470,70670,1,0 S,1,70470,70670,0.12,0.11 C,0,70570,70670,255,255,255,153,153,153
Sprite,Foreground,Centre,"lyrics\0079.png",313.7583,0 F,0,69350,69550,0,1 S,1,69350,69550,0.11,0.12 MY,1,69350,69551,240,243.3133 C,0,69450,69550,51,51,51,255,255,255 P,0,69550,,A F,0,70470,70670,1,0 S,1,70470,70670,0.12,0.11 C,0,70570,70670,255,255,255,153,153,153
Sprite,Foreground,Centre,"lyrics\0062.png",345.2733,0 F,0,69350,69550,0,1 S,1,69350,69550,0.11,0.12 MY,1,69350,69551,240,231.0483 C,0,69450,69550,51,51,51,255,255,255 P,0,69550,,A F,0,70470,70670,1,0 S,1,70470,70670,0.12,0.11 C,0,70570,70670,255,255,255,153,153,153
Sprite,Foreground,Centre,"lyrics\0079.png",363.9183,0 F,0,69350,69550,0,1 S,1,69350,69550,0.11,0.12 MY,1,69350,69550,240,243.3133 C,0,69450,69550,51,51,51,255,255,255 P,0,69550,,A F,0,70470,70670,1,0 S,1,70470,70670,0.12,0.11 C,0,70570,70670,255,255,255,153,153,153
Sprite,Foreground,Centre,"lyrics\0053.png",396.5883,0 MY,1,69350,69549,240,231.9833 F,0,69350,69550,0,1 S,1,69350,69550,0.11,0.12 C,0,69450,69550,51,51,51,255,255,255 P,0,69550,,A F,0,70470,70670,1,0 S,1,70470,70670,0.12,0.11 C,0,70570,70670,255,255,255,153,153,153
Sprite,Foreground,Centre,"lyrics\0079.png",415.6183,0 MY,1,69350,69549,240,243.3133 F,0,69350,69550,0,1 S,1,69350,69550,0.11,0.12 C,0,69450,69550,51,51,51,255,255,255 P,0,69550,,A F,0,70470,70670,1,0 S,1,70470,70670,0.12,0.11 C,0,70570,70670,255,255,255,153,153,153
Sprite,Foreground,Centre,"lyrics\0074.png",435.1433,0 F,0,69350,69550,0,1 S,1,69350,69550,0.11,0.12 MY,1,69350,69550,240,235.3933 C,0,69450,69550,51,51,51,255,255,255 P,0,69550,,A F,0,70470,70670,1,0 S,1,70470,70670,0.12,0.11 C,0,70570,70670,255,255,255,153,153,153
Sprite,Foreground,Centre,"lyrics\0068.png",452.4133,0 MY,1,69350,69549,240,230.9933 F,0,69350,69550,0,1 S,1,69350,69550,0.11,0.12 C,0,69450,69550,51,51,51,255,255,255 P,0,69550,,A F,0,70470,70670,1,0 S,1,70470,70670,0.12,0.11 C,0,70570,70670,255,255,255,153,153,153
Sprite,Foreground,Centre,"lyrics\006f.png",473.3133,0 F,0,69350,69550,0,1 S,1,69350,69550,0.11,0.12 MY,1,69350,69551,240,237.3183 C,0,69450,69550,51,51,51,255,255,255 P,0,69550,,A F,0,70470,70670,1,0 S,1,70470,70670,0.12,0.11 C,0,70570,70670,255,255,255,153,153,153
Sprite,Foreground,Centre,"lyrics\glow\0044.png",173.37,0 F,0,69350,69550,0,1 S,1,69350,69550,0.11,0.12 MY,1,69350,69551,240,231.955 P,0,69350,70670,A C,0,69450,69550,51,51,51,255,255,255 P,0,69550,,A F,0,70470,70670,1,0 S,1,70470,70670,0.12,0.11 C,0,70570,70670,255,255,255,153,153,153
Sprite,Foreground,Centre,"lyrics\glow\0069.png",194.545,0 F,0,69350,69550,0,1 S,1,69350,69550,0.11,0.12 MY,1,69350,69551,240,232.725 P,0,69350,70670,A C,0,69450,69550,51,51,51,255,255,255 P,0,69550,,A F,0,70470,70670,1,0 S,1,70470,70670,0.12,0.11 C,0,70570,70670,255,255,255,153,153,153
Sprite,Foreground,Centre,"lyrics\glow\0066.png",206.645,0 F,0,69350,69550,0,1 S,1,69350,69550,0.11,0.12 MY,1,69350,69551,240,237.125 P,0,69350,70670,A C,0,69450,69550,51,51,51,255,255,255 P,0,69550,,A F,0,70470,70670,1,0 S,1,70470,70670,0.12,0.11 C,0,70570,70670,255,255,255,153,153,153
Sprite,Foreground,Centre,"lyrics\glow\0066.png",221.055,0 F,0,69350,69550,0,1 S,1,69350,69550,0.11,0.12 MY,1,69350,69550,240,237.125 P,0,69350,70670,A C,0,69450,69550,51,51,51,255,255,255 P,0,69550,,A F,0,70470,70670,1,0 S,1,70470,70670,0.12,0.11 C,0,70570,70670,255,255,255,153,153,153
Sprite,Foreground,Centre,"lyrics\glow\0069.png",234.805,0 MY,1,69350,69549,240,232.725 F,0,69350,69550,0,1 S,1,69350,69550,0.11,0.12 P,0,69350,70670,A C,0,69450,69550,51,51,51,255,255,255 P,0,69550,,A F,0,70470,70670,1,0 S,1,70470,70670,0.12,0.11 C,0,70570,70670,255,255,255,153,153,153
Sprite,Foreground,Centre,"lyrics\glow\0063.png",248.61,0 F,0,69350,69550,0,1 S,1,69350,69550,0.11,0.12 MY,1,69350,69550,240,237.29 P,0,69350,70670,A C,0,69450,69550,51,51,51,255,255,255 P,0,69550,,A F,0,70470,70670,1,0 S,1,70470,70670,0.12,0.11 C,0,70570,70670,255,255,255,153,153,153
Sprite,Foreground,Centre,"lyrics\glow\0075.png",267.86,0 F,0,69350,69550,0,1 S,1,69350,69550,0.11,0.12 MY,1,69350,69551,240,237.51 P,0,69350,70670,A C,0,69450,69550,51,51,51,255,255,255 P,0,69550,,A F,0,70470,70670,1,0 S,1,70470,70670,0.12,0.11 C,0,70570,70670,255,255,255,153,153,153
Sprite,Foreground,Centre,"lyrics\glow\006c.png",285.295,0 F,0,69350,69550,0,1 S,1,69350,69550,0.11,0.12 MY,1,69350,69550,240,230.91 P,0,69350,70670,A C,0,69450,69550,51,51,51,255,255,255 P,0,69550,,A F,0,70470,70670,1,0 S,1,70470,70670,0.12,0.11 C,0,70570,70670,255,255,255,153,153,153
Sprite,Foreground,Centre,"lyrics\glow\0074.png",298.715,0 F,0,69350,69550,0,1 S,1,69350,69550,0.11,0.12 MY,1,69350,69551,240,235.42 P,0,69350,70670,A C,0,69450,69550,51,51,51,255,255,255 P,0,69550,,A F,0,70470,70670,1,0 S,1,70470,70670,0.12,0.11 C,0,70570,70670,255,255,255,153,153,153
Sprite,Foreground,Centre,"lyrics\glow\0079.png",313.95,0 MY,1,69350,69549,240,243.56 F,0,69350,69550,0,1 S,1,69350,69550,0.11,0.12 P,0,69350,70670,A C,0,69450,69550,51,51,51,255,255,255 P,0,69550,,A F,0,70470,70670,1,0 S,1,70470,70670,0.12,0.11 C,0,70570,70670,255,255,255,153,153,153
Sprite,Foreground,Centre,"lyrics\glow\0062.png",345.355,0 MY,1,69350,69549,240,231.02 F,0,69350,69550,0,1 S,1,69350,69550,0.11,0.12 P,0,69350,70670,A C,0,69450,69550,51,51,51,255,255,255 P,0,69550,,A F,0,70470,70670,1,0 S,1,70470,70670,0.12,0.11 C,0,70570,70670,255,255,255,153,153,153
Sprite,Foreground,Centre,"lyrics\glow\0079.png",364.11,0 F,0,69350,69550,0,1 S,1,69350,69550,0.11,0.12 MY,1,69350,69550,240,243.56 P,0,69350,70670,A C,0,69450,69550,51,51,51,255,255,255 P,0,69550,,A F,0,70470,70670,1,0 S,1,70470,70670,0.12,0.11 C,0,70570,70670,255,255,255,153,153,153
Sprite,Foreground,Centre,"lyrics\glow\0053.png",396.505,0 F,0,69350,69550,0,1 S,1,69350,69550,0.11,0.12 MY,1,69350,69550,240,232.01 P,0,69350,70670,A C,0,69450,69550,51,51,51,255,255,255 P,0,69550,,A F,0,70470,70670,1,0 S,1,70470,70670,0.12,0.11 C,0,70570,70670,255,255,255,153,153,153
Sprite,Foreground,Centre,"lyrics\glow\0079.png",415.81,0 F,0,69350,69550,0,1 S,1,69350,69550,0.11,0.12 MY,1,69350,69550,240,243.56 P,0,69350,70670,A C,0,69450,69550,51,51,51,255,255,255 P,0,69550,,A F,0,70470,70670,1,0 S,1,70470,70670,0.12,0.11 C,0,70570,70670,255,255,255,153,153,153
Sprite,Foreground,Centre,"lyrics\glow\0074.png",435.005,0 F,0,69350,69550,0,1 S,1,69350,69550,0.11,0.12 MY,1,69350,69551,240,235.42 P,0,69350,70670,A C,0,69450,69550,51,51,51,255,255,255 P,0,69550,,A F,0,70470,70670,1,0 S,1,70470,70670,0.12,0.11 C,0,70570,70670,255,255,255,153,153,153
Sprite,Foreground,Centre,"lyrics\glow\0068.png",452.44,0 MY,1,69350,69549,240,230.91 F,0,69350,69550,0,1 S,1,69350,69550,0.11,0.12 P,0,69350,70670,A C,0,69450,69550,51,51,51,255,255,255 P,0,69550,,A F,0,70470,70670,1,0 S,1,70470,70670,0.12,0.11 C,0,70570,70670,255,255,255,153,153,153
Sprite,Foreground,Centre,"lyrics\glow\006f.png",473.285,0 F,0,69350,69550,0,1 S,1,69350,69550,0.11,0.12 MY,1,69350,69551,240,237.345 P,0,69350,70670,A C,0,69450,69550,51,51,51,255,255,255 P,0,69550,,A F,0,70470,70670,1,0 S,1,70470,70670,0.12,0.11 C,0,70570,70670,255,255,255,153,153,153
//Storyboard Layer 4 (Overlay)
//Storyboard Sound Samples

[TimingPoints]
178,375,4,2,1,75,1,0
11990,-125,4,2,1,75,0,0
37678,375,4,2,1,90,1,1
37678,-100,4,2,1,90,0,1
49678,-76.9230769230769,4,2,1,90,0,1
49959,-76.9230769230769,4,2,1,5,0,1
50053,-100,4,2,1,90,0,1
55678,-76.9230769230769,4,2,1,90,0,1
55959,-76.9230769230769,4,2,1,5,0,1
56053,-100,4,2,1,90,0,1
58678,-125,4,2,1,75,0,0
61303,-83.3333333333333,4,2,1,75,0,1
61678,-100,4,2,1,90,0,0
67678,-125,4,2,1,75,0,0
97678,-166.666666666667,4,2,1,75,0,0
99178,375,4,2,1,90,1,1
99178,-100,4,2,1,90,0,1
111178,-76.9230769230769,4,2,1,90,0,1
111459,-76.9230769230769,4,2,1,5,0,1
111553,-100,4,2,1,90,0,1
117178,-76.9230769230769,4,2,1,90,0,1
117459,-76.9230769230769,4,2,1,5,0,1
117553,-100,4,2,1,90,0,1
120178,-100,4,2,1,75,0,1
120553,-125,4,2,1,75,0,0
122803,-83.3333333333333,4,2,1,75,0,1
123178,-100,4,2,1,90,0,0
129178,-100,4,2,1,75,0,0
129553,-100,4,2,1,90,0,0
135178,-111.111111111111,4,2,1,80,0,0
140803,-90.9090909090908,4,2,1,80,0,0
141178,-111.111111111111,4,2,1,80,0,0
145678,375,4,2,1,80,1,0
145678,-111.111111111111,4,2,1,80,0,0
149053,-111.111111111111,4,2,1,60,0,0
151678,-100,4,2,1,100,0,1
157678,-76.9230769230769,4,2,1,100,0,1
157959,-76.9230769230769,4,2,1,5,0,1
158053,-100,4,2,1,100,0,1
160678,-100,4,2,1,100,0,0
161053,-125,4,2,1,100,0,0
163303,-83.3333333333333,4,2,1,100,0,1
163678,-100,4,2,1,100,0,0
198178,375,4,2,1,100,1,0
198178,-285.714285714284,4,2,1,100,0,0
200053,-285.714285714284,4,2,1,50,0,0
202678,-285.714285714284,4,2,1,5,0,0

[Colours]
Combo1 : 255,128,0
Combo2 : 0,0,255
Combo3 : 18,124,255
Combo4 : 255,0,128

[HitObjects]
435,245,11990,6,0,P|404:315|326:310,1,144,2|0,0:0|0:0,0:0:0:0:
158,258,12553,1,8,0:0:0:0:
187,336,12740,1,2,0:0:0:0:
158,258,12928,2,0,P|170:173|169:162,1,72,0|0,3:0|0:0,0:0:0:0:
238,275,13303,1,8,0:0:0:0:
105,327,13490,1,2,0:0:0:0:
266,355,13678,6,0,P|354:348|432:348,1,144,0|8,3:0|0:0,0:0:0:0:
359,235,14240,1,2,0:0:0:0:
238,275,14428,2,0,P|190:244|203:153,1,144,0|8,3:0|0:0,0:0:0:0:
300,27,14990,6,0,B|323:68|323:68|305:167,1,144,2|0,0:0|0:0,0:0:0:0:
112,73,15553,1,8,0:0:0:0:
226,87,15740,1,2,0:0:0:0:
90,100,15928,2,0,L|80:197,1,72,0|0,3:0|0:0,0:0:0:0:
194,274,16303,1,8,0:0:0:0:
164,188,16490,1,2,0:0:0:0:
82,329,16678,6,0,L|10:336,1,72,0|0,3:0|0:0,0:0:0:0:
194,274,17053,1,8,0:0:0:0:
83,175,17240,1,2,0:0:0:0:
254,207,17428,1,0,3:0:0:0:
114,258,17615,1,2,0:0:0:0:
174,101,17803,1,8,0:0:0:0:
282,288,17990,6,0,P|333:239|314:153,1,144,2|0,0:0|0:0,0:0:0:0:
249,75,18553,1,8,0:0:0:0:
254,207,18740,1,2,0:0:0:0:
328,61,18928,2,0,L|410:73,1,72,0|0,3:0|0:0,0:0:0:0:
460,298,19303,1,8,0:0:0:0:
355,268,19490,1,2,0:0:0:0:
481,181,19678,6,0,B|442:201|404:187|412:176|389:160|342:178,1,144,0|8,3:0|0:0,0:0:0:0:
269,78,20240,1,2,0:0:0:0:
349,96,20428,1,0,3:0:0:0:
204,133,20615,1,2,0:0:0:0:
354,88,20803,1,8,0:0:0:0:
162,60,20990,6,0,P|120:113|154:198,1,144,2|0,0:0|0:0,0:0:0:0:
221,221,21553,1,8,0:0:0:0:
205,133,21740,1,2,0:0:0:0:
150,272,21928,2,0,L|171:348,1,72,0|0,3:0|0:0,0:0:0:0:
325,221,22303,1,8,0:0:0:0:
299,306,22490,1,2,0:0:0:0:
330,210,22678,6,0,P|372:182|415:196,1,72,0|0,3:0|0:0,0:0:0:0:
475,288,23053,1,8,0:0:0:0:
393,268,23240,1,2,0:0:0:0:
483,279,23428,1,0,3:0:0:0:
397,351,23615,1,2,0:0:0:0:
392,184,23803,1,8,0:0:0:0:
287,339,23990,6,0,B|269:292|285:269|296:277|310:239|289:200,1,144,2|0,0:0|0:0,0:0:0:0:
199,162,24553,2,0,L|209:264,1,72,8|0,0:0|0:0,0:0:0:0:
276,116,24928,2,0,L|283:44,1,72,0|0,3:0|0:0,0:0:0:0:
494,149,25303,1,8,0:0:0:0:
494,149,25490,6,0,P|406:156|385:225,1,144,2|0,0:0|0:0,0:0:0:0:
378,297,26053,1,8,0:0:0:0:
464,224,26240,1,2,0:0:0:0:
511,352,26428,2,0,L|428:365,1,72,0|0,3:0|0:0,0:0:0:0:
307,372,26803,1,8,0:0:0:0:
307,372,26990,6,0,P|264:316|310:232,1,144,2|0,0:0|0:0,0:0:0:0:
360,193,27553,1,8,0:0:0:0:
360,193,27740,1,0,0:0:0:0:
266,92,27928,2,0,L|275:164,1,72,0|0,3:0|0:0,0:0:0:0:
329,23,28303,1,8,0:0:0:0:
377,114,28490,1,2,0:0:0:0:
464,3,28678,6,0,B|488:49|474:79|465:70|445:96|474:150,1,144,0|8,3:0|0:0,0:0:0:0:
498,222,29240,1,2,0:0:0:0:
377,114,29428,2,0,L|370:202,1,72,0|0,3:0|0:0,0:0:0:0:
426,263,29803,1,8,0:0:0:0:
283,274,29990,6,0,L|441:262,1,144,2|0,0:0|0:0,0:0:0:0:
475,71,30553,2,0,L|466:152,1,72,8|0,0:0|0:0,0:0:0:0:
353,113,30928,1,0,3:0:0:0:
353,113,31115,2,0,L|344:32,1,72,2|8,0:0|0:0,0:0:0:0:
260,205,31490,6,0,B|211:226|180:208|201:193|159:172|96:211,1,144,2|0,0:0|0:0,0:0:0:0:
233,128,32053,1,8,0:0:0:0:
233,128,32240,1,2,0:0:0:0:
99,33,32428,2,0,L|107:105,1,72,0|0,3:0|0:0,0:0:0:0:
26,257,32803,2,0,L|34:178,1,72,8|0,0:0|0:0,0:0:0:0:
206,342,33178,5,0,3:0:0:0:
127,292,33365,1,2,0:0:0:0:
205,249,33553,1,8,0:0:0:0:
133,383,33740,1,2,0:0:0:0:
118,206,33928,2,0,L|109:123,1,72,0|0,3:0|0:0,0:0:0:0:
125,302,34303,1,8,0:0:0:0:
204,157,34490,1,2,0:0:0:0:
289,300,34678,6,0,P|365:319|414:255,1,144,0|8,3:0|0:0,0:0:0:0:
394,83,35240,1,0,0:0:0:0:
340,238,35428,2,0,L|327:157,1,72,0|0,3:0|0:0,0:0:0:0:
200,31,35803,2,0,B|155:22|131:47|131:47|95:23|41:57,1,144,8|4,0:0|0:0,0:0:0:0:
89,187,36365,5,2,0:0:0:0:
89,187,36553,2,0,L|96:106,1,72,2|0,0:0|0:0,0:0:0:0:
234,170,36928,2,0,L|239:223,3,36,2|2|2|2,0:0|0:0|0:0|0:0,0:0:0:0:
225,226,37303,2,0,L|235:95,1,108,2|0,0:0|0:0,0:0:0:0:
311,86,37678,6,0,P|349:117|431:87,1,135,4|0,1:2|0:0,0:0:0:0:
425,94,38053,2,0,L|442:220,1,90,8|0,1:0|0:0,0:0:0:0:
246,347,38428,1,0,1:0:0:0:
302,183,38615,1,2,0:0:0:0:
446,320,38803,2,0,B|405:341|405:341|335:318,1,90,8|0,1:0|0:0,0:0:0:0:
168,210,39178,6,0,L|161:319,1,90,0|0,1:0|0:0,0:0:0:0:
53,135,39553,1,8,1:0:0:0:
204,88,39740,1,2,0:0:0:0:
38,222,39928,1,0,1:0:0:0:
111,47,40115,1,2,0:0:0:0:
258,197,40303,1,8,1:0:0:0:
25,224,40490,6,0,B|0:187|0:187|29:50,1,180,2|2,0:0|0:0,0:0:0:0:
258,197,41053,1,8,1:0:0:0:
194,258,41240,2,0,P|149:260|107:215,1,90,2|0,0:0|1:0,0:0:0:0:
158,95,41615,2,0,P|182:132|163:190,1,90,2|8,0:0|1:0,0:0:0:0:
63,339,41990,6,0,L|74:134,1,180,2|2,0:0|0:0,0:0:0:0:
146,347,42553,1,8,1:0:0:0:
178,172,42740,2,0,L|288:159,1,90,2|0,0:0|1:0,0:0:0:0:
311,372,43115,1,2,0:0:0:0:
412,239,43303,2,0,L|302:226,1,90,8|0,1:0|0:0,0:0:0:0:
436,15,43678,6,0,B|466:77|466:77|418:143,1,135,0|0,1:0|0:0,0:0:0:0:
427,130,44053,2,0,L|317:117,1,90,8|0,1:0|0:0,0:0:0:0:
76,76,44428,1,0,1:0:0:0:
251,156,44615,1,2,0:0:0:0:
68,266,44803,2,0,L|51:147,1,90,8|0,1:0|0:0,0:0:0:0:
183,29,45178,6,0,B|219:82|188:121|180:101|151:141|180:197,1,180,0|8,1:0|1:0,0:0:0:0:
245,366,45740,1,2,0:0:0:0:
331,187,45928,1,0,1:0:0:0:
429,379,46115,1,2,0:0:0:0:
263,267,46303,1,8,1:0:0:0:
457,287,46490,6,0,P|506:239|462:131,1,180,2|2,0:0|0:0,0:0:0:0:
348,67,47053,1,8,1:0:0:0:
263,267,47240,2,0,L|156:257,1,90,2|0,0:0|1:0,0:0:0:0:
162,90,47615,2,0,L|55:100,1,90,2|8,0:0|1:0,0:0:0:0:
42,334,47990,6,0,L|131:342,1,90,2|0,0:0|1:0,0:0:0:0:
64,101,48365,2,0,P|35:159|70:208,1,90,2|8,0:0|1:0,0:0:0:0:
140,343,48740,2,0,L|157:164,1,180,2|0,0:0|0:0,0:0:0:0:
274,372,49303,2,0,P|340:356|386:349,1,90,8|0,1:0|0:0,0:0:0:0:
237,74,49678,6,0,B|258:206|258:206|281:161,1,175.499991966248,4|0,1:2|0:0,0:0:0:0:
332,102,50053,2,0,P|393:108|452:109,1,90,8|0,1:0|0:0,0:0:0:0:
279,162,50428,1,0,1:0:0:0:
470,263,50615,1,2,0:0:0:0:
302,253,50803,1,8,1:0:0:0:
512,144,50990,1,2,0:0:0:0:
508,346,51178,6,0,B|439:352|439:352|404:321|404:321|329:329,1,180,0|8,1:0|1:0,0:0:0:0:
205,151,51740,1,2,0:0:0:0:
161,357,51928,2,0,L|272:364,1,90,0|0,1:0|0:0,0:0:0:0:
99,124,52303,1,8,1:0:0:0:
61,336,52490,1,2,0:0:0:0:
19,135,52678,6,0,P|49:64|96:60,1,90,0|0,1:0|0:0,0:0:0:0:
196,283,53053,2,0,P|166:354|119:358,1,90,8|0,1:0|0:0,0:0:0:0:
99,124,53428,2,0,L|198:111,1,90,0|0,1:0|0:0,0:0:0:0:
308,305,53803,1,8,1:0:0:0:
422,175,53990,6,0,B|364:177|341:142|341:142|304:174|246:155,1,180,2|0,0:0|0:0,0:0:0:0:
462,103,54553,2,0,P|507:184|443:255,1,180,8|0,1:0|1:0,0:0:0:0:
288,73,55115,1,0,0:0:0:0:
301,289,55303,2,0,L|390:283,1,90,8|0,1:0|0:0,0:0:0:0:
66,152,55678,6,0,L|48:360,1,175.499991966248,0|0,1:0|0:0,0:0:0:0:
63,338,56053,1,8,1:0:0:0:
176,112,56240,1,0,0:0:0:0:
276,357,56428,2,0,B|239:380|239:380|179:365,1,90,0|2,1:0|0:0,0:0:0:0:
343,191,56803,1,8,1:0:0:0:
173,102,56990,6,0,L|66:106,1,90,2|0,0:0|1:0,0:0:0:0:
106,334,57365,2,0,P|168:278|125:183,1,180,2|0,0:0|0:0,0:0:0:0:
23,19,57928,1,0,1:0:0:0:
90,254,58115,1,2,0:0:0:0:
219,101,58303,1,8,1:0:0:0:
4,141,58490,1,2,0:0:0:0:
238,129,58678,6,0,B|295:124|295:124|321:138|321:138|409:132,2,144,0|0|0,3:0|3:0|3:0,0:0:0:0:
147,368,59803,1,0,3:0:0:0:
87,311,60178,5,2,3:2:0:0:
87,311,60271,1,2,0:0:0:0:
87,311,60365,2,0,P|55:301|27:298,1,36,2|2,0:0|0:0,0:0:0:0:
198,304,60553,1,2,3:2:0:0:
198,304,60646,1,2,0:0:0:0:
198,304,60740,2,0,P|230:294|258:291,1,36,2|2,0:0|0:0,0:0:0:0:
38,222,60928,2,0,L|-20:229,1,36,2|2,3:2|0:0,0:0:0:0:
233,211,61115,2,0,L|291:218,1,36,2|2,0:0|0:0,0:0:0:0:
65,143,61303,6,0,B|115:140|134:103|134:103|158:136|206:134,1,161.999995056153,2|0,1:0|0:0,0:0:0:0:
216,133,61678,6,0,L|224:31,1,90,4|0,1:2|0:0,0:0:0:0:
472,68,62053,2,0,P|371:101|381:183,1,180,8|0,1:0|1:0,0:0:0:0:
412,344,62615,1,0,0:0:0:0:
442,140,62803,1,8,1:0:0:0:
330,315,62990,2,0,L|221:327,1,90,2|0,0:0|1:0,0:0:0:0:
139,104,63365,1,0,0:0:0:0:
5,278,63553,6,0,B|62:308|91:281|81:268|121:243|175:276,1,180,8|0,1:0|1:0,0:0:0:0:
44,122,64115,1,0,0:0:0:0:
131,343,64303,1,8,1:0:0:0:
231,148,64490,2,0,L|111:152,1,90,2|0,0:0|1:0,0:0:0:0:
269,23,64865,1,0,0:0:0:0:
413,209,65053,6,0,B|351:197|351:197|293:215|293:215|325:166,1,180,8|0,1:0|1:0,0:0:0:0:
490,158,65615,2,0,L|501:264,1,90,0|8,3:0|1:0,0:0:0:0:
278,293,65990,2,0,P|223:258|224:210,1,90,2|0,0:0|1:0,0:0:0:0:
182,42,66365,1,0,0:0:0:0:
93,232,66553,5,8,1:0:0:0:
175,82,66740,1,2,0:0:0:0:
144,320,66928,1,0,1:0:0:0:
56,123,67115,1,2,0:0:0:0:
298,123,67303,2,0,L|290:229,1,90,8|0,1:0|0:0,0:0:0:0:
425,374,67678,6,0,P|464:323|428:239,1,144,0|8,3:0|0:0,0:0:0:0:
368,220,68240,1,0,0:0:0:0:
333,295,68428,2,0,L|342:372,1,72,0|0,3:0|0:0,0:0:0:0:
260,248,68803,2,0,L|268:176,1,72,8|0,0:0|0:0,0:0:0:0:
202,26,69178,6,0,P|128:35|106:37,1,72,0|0,3:0|0:0,0:0:0:0:
8,105,69553,2,0,P|43:108|79:113,1,72,8|0,0:0|0:0,0:0:0:0:
231,144,69928,2,0,P|157:153|135:155,1,72,0|0,3:0|0:0,0:0:0:0:
37,223,70303,2,0,P|72:226|108:231,1,72,8|0,0:0|0:0,0:0:0:0:
284,210,70678,6,0,P|315:154|280:81,1,144,0|8,3:0|0:0,0:0:0:0:
179,56,71240,1,0,0:0:0:0:
179,56,71428,2,0,P|176:104|170:148,1,72,0|0,3:0|0:0,0:0:0:0:
297,229,71803,2,0,P|293:193|291:157,1,72,8|0,0:0|0:0,0:0:0:0:
187,337,72178,5,2,3:2:0:0:
166,316,72271,1,2,0:0:0:0:
139,304,72365,1,2,0:0:0:0:
110,305,72459,1,2,0:0:0:0:
84,319,72553,2,0,L|77:382,3,36,10|0|0|0,0:0|0:0|0:0|0:0,0:0:0:0:
89,230,72928,1,2,3:2:0:0:
87,214,73021,1,2,0:0:0:0:
85,199,73115,1,2,0:0:0:0:
83,184,73209,1,2,0:0:0:0:
81,169,73303,1,10,0:0:0:0:
79,154,73396,1,2,0:0:0:0:
77,139,73490,6,0,P|108:69|186:74,1,144,2|0,0:0|0:0,0:0:0:0:
332,123,74053,1,8,0:0:0:0:
303,45,74240,1,2,0:0:0:0:
332,123,74428,2,0,P|319:225|316:284,1,144,0|8,3:0|0:0,0:0:0:0:
233,196,74990,1,2,0:0:0:0:
397,288,75178,6,0,B|298:286|364:341|241:332,1,144,0|8,3:0|0:0,0:0:0:0:
127,241,75740,1,2,0:0:0:0:
95,321,75928,1,0,3:0:0:0:
57,182,76115,1,2,0:0:0:0:
95,335,76303,1,8,0:0:0:0:
137,149,76490,6,0,P|87:95|1:120,1,144,2|0,0:0|0:0,0:0:0:0:
137,149,77053,2,0,P|209:137|231:136,1,72,8|0,0:0|0:0,0:0:0:0:
293,69,77428,2,0,P|346:116|419:91,1,144,0|8,3:0|0:0,0:0:0:0:
365,33,77990,1,2,0:0:0:0:
289,181,78178,6,0,P|296:225|303:271,1,72,0|0,3:0|0:0,0:0:0:0:
477,225,78553,1,8,0:0:0:0:
477,225,78740,1,2,0:0:0:0:
412,283,78928,1,0,3:0:0:0:
475,340,79115,1,2,0:0:0:0:
397,201,79303,1,8,0:0:0:0:
365,353,79490,6,0,P|311:375|246:305,1,144,2|0,0:0|0:0,0:0:0:0:
295,205,80053,1,8,0:0:0:0:
320,288,80240,1,2,0:0:0:0:
290,193,80428,2,0,L|264:103,1,72,0|0,3:0|0:0,0:0:0:0:
52,86,80803,1,8,0:0:0:0:
157,116,80990,1,2,0:0:0:0:
43,189,81178,6,0,B|90:171|119:187|105:198|143:212|182:191,1,144,0|8,3:0|0:0,0:0:0:0:
243,306,81740,1,2,0:0:0:0:
162,281,81928,1,0,3:0:0:0:
308,251,82115,1,2,0:0:0:0:
158,296,82303,1,8,0:0:0:0:
349,326,82490,6,0,P|391:273|357:188,1,144,2|0,0:0|0:0,0:0:0:0:
291,163,83053,1,8,0:0:0:0:
307,251,83240,1,2,0:0:0:0:
362,112,83428,2,0,L|341:36,1,72,0|0,3:0|0:0,0:0:0:0:
187,163,83803,1,8,0:0:0:0:
213,78,83990,1,2,0:0:0:0:
182,174,84178,6,0,P|140:202|97:188,1,72,0|0,3:0|0:0,0:0:0:0:
37,96,84553,1,8,0:0:0:0:
119,116,84740,1,2,0:0:0:0:
29,105,84928,1,0,3:0:0:0:
115,33,85115,1,2,0:0:0:0:
120,200,85303,1,8,0:0:0:0:
225,45,85490,6,0,B|243:92|227:115|216:107|202:145|223:184,1,144,2|0,0:0|0:0,0:0:0:0:
314,267,86053,1,8,0:0:0:0:
296,147,86240,1,2,0:0:0:0:
251,327,86428,1,0,3:0:0:0:
251,327,86615,2,0,L|176:319,1,72,2|8,0:0|0:0,0:0:0:0:
18,235,86990,6,0,P|106:228|127:159,1,144,2|0,0:0|0:0,0:0:0:0:
136,69,87553,1,8,0:0:0:0:
55,165,87740,1,2,0:0:0:0:
1,32,87928,1,0,3:0:0:0:
1,32,88115,2,0,L|84:19,1,72,2|8,0:0|0:0,0:0:0:0:
230,178,88490,6,0,P|273:122|227:38,1,144,2|0,0:0|0:0,0:0:0:0:
141,148,89053,2,0,L|155:253,1,72,8|0,0:0|0:0,0:0:0:0:
303,303,89428,1,0,3:0:0:0:
211,337,89615,2,0,L|220:265,1,72,2|8,0:0|0:0,0:0:0:0:
251,61,89990,1,0,0:0:0:0:
317,136,90178,6,0,B|352:148|352:148|399:122,1,72,0|0,3:0|0:0,0:0:0:0:
305,4,90553,1,8,0:0:0:0:
305,4,90740,1,2,0:0:0:0:
234,149,90928,2,0,B|210:176|210:176|155:179,1,72,0|2,3:0|0:0,0:0:0:0:
9,98,91303,1,8,0:0:0:0:
172,102,91490,6,0,L|14:114,1,144,2|0,0:0|0:0,0:0:0:0:
37,313,92053,2,0,L|46:232,1,72,8|0,0:0|0:0,0:0:0:0:
159,271,92428,1,0,3:0:0:0:
159,271,92615,2,0,L|168:352,1,72,0|8,0:0|0:0,0:0:0:0:
253,177,92990,6,0,B|305:171|305:171|334:188|334:188|419:179,1,144,2|0,0:0|0:0,0:0:0:0:
286,258,93553,1,8,0:0:0:0:
286,258,93740,1,2,0:0:0:0:
405,279,93928,2,0,L|413:358,1,72,0|0,3:0|0:0,0:0:0:0:
388,171,94303,2,0,L|380:92,1,72,8|0,0:0|0:0,0:0:0:0:
139,48,94678,5,0,3:0:0:0:
162,134,94865,1,2,0:0:0:0:
226,75,95053,1,8,0:0:0:0:
80,107,95240,1,2,0:0:0:0:
242,159,95428,2,0,L|336:165,1,72,0|0,3:0|0:0,0:0:0:0:
125,225,95803,1,8,0:0:0:0:
164,126,95990,1,2,0:0:0:0:
329,242,96178,6,0,P|390:192|369:114,1,144,0|8,3:0|0:0,0:0:0:0:
239,236,96740,1,0,0:0:0:0:
239,236,96928,2,0,P|247:299|251:340,1,72,0|0,3:0|0:0,0:0:0:0:
161,80,97303,2,0,P|152:152|142:224,1,144,8|0,0:0|3:0,0:0:0:0:
256,192,97771,12,0,98990,0:0:0:0:
142,252,99178,6,0,P|157:172|162:108,1,135,4|0,1:2|0:0,0:0:0:0:
81,130,99553,2,0,P|75:174|66:218,1,90,8|0,1:0|0:0,0:0:0:0:
236,217,99928,1,0,1:0:0:0:
111,58,100115,1,2,0:0:0:0:
282,206,100303,2,0,P|325:182|331:124,1,90,8|0,1:0|0:0,0:0:0:0:
111,58,100678,6,0,P|182:47|252:31,1,135,0|0,1:0|0:0,0:0:0:0:
261,31,101053,1,8,1:0:0:0:
165,175,101240,1,2,0:0:0:0:
357,260,101428,1,0,1:0:0:0:
263,122,101615,1,2,0:0:0:0:
155,278,101803,1,8,1:0:0:0:
375,246,101990,6,0,P|435:235|475:230,1,90,2|0,0:0|1:0,0:0:0:0:
368,351,102365,2,0,P|308:340|268:335,1,90,2|8,0:0|1:0,0:0:0:0:
441,153,102740,2,0,P|460:267|474:342,1,180,2|2,0:0|0:0,0:0:0:0:
333,215,103303,1,8,1:0:0:0:
352,42,103490,6,0,P|434:69|435:162,1,180,2|2,0:0|0:0,0:0:0:0:
254,99,104053,1,8,1:0:0:0:
361,208,104240,2,0,P|364:154|371:101,1,90,2|0,0:0|1:0,0:0:0:0:
247,373,104615,1,2,0:0:0:0:
158,221,104803,2,0,P|202:218|247:213,1,90,8|0,1:0|0:0,0:0:0:0:
488,322,105178,6,0,P|424:373|361:333,1,135,0|0,1:0|0:0,0:0:0:0:
364,344,105553,2,0,P|356:294|343:236,1,90,8|0,1:0|0:0,0:0:0:0:
475,49,105928,1,0,1:0:0:0:
434,230,106115,1,2,0:0:0:0:
289,60,106303,2,0,B|320:31|320:31|393:46,1,90,8|0,1:0|0:0,0:0:0:0:
262,196,106678,6,0,P|187:185|112:183,1,135,0|0,1:0|0:0,0:0:0:0:
101,188,107053,1,8,1:0:0:0:
191,82,107240,1,2,0:0:0:0:
16,168,107428,1,0,1:0:0:0:
206,300,107615,1,2,0:0:0:0:
85,70,107803,1,8,1:0:0:0:
0,267,107990,6,0,P|70:278|113:289,1,90,2|0,0:0|1:0,0:0:0:0:
232,147,108365,2,0,P|188:156|144:163,1,90,2|8,0:0|1:0,0:0:0:0:
285,370,108740,2,0,P|326:332|292:219,1,180,2|2,0:0|0:0,0:0:0:0:
161,80,109303,1,8,1:0:0:0:
376,64,109490,6,0,P|368:132|364:186,1,90,2|0,0:0|1:0,0:0:0:0:
153,251,109865,2,0,P|148:206|143:161,1,90,2|8,0:0|1:0,0:0:0:0:
304,336,110240,2,0,P|358:366|411:338,1,90,2|0,0:0|1:0,0:0:0:0:
509,113,110615,1,2,0:0:0:0:
349,72,110803,2,0,P|354:116|358:161,1,90,8|0,1:0|0:0,0:0:0:0:
231,376,111178,6,0,B|199:320|231:280|238:300|276:257|213:178,1,175.499991966248,4|0,1:2|0:0,0:0:0:0:
223,192,111553,1,8,1:0:0:0:
89,31,111740,1,0,0:0:0:0:
6,228,111928,2,0,B|47:242|47:242|109:207,1,90,0|2,1:0|0:0,0:0:0:0:
260,76,112303,1,8,1:0:0:0:
36,138,112490,1,2,0:0:0:0:
299,151,112678,6,0,B|330:188|330:188|302:336,1,180,0|8,1:0|1:0,0:0:0:0:
149,174,113240,1,2,0:0:0:0:
402,254,113428,2,0,L|511:240,1,90,0|0,1:0|0:0,0:0:0:0:
313,49,113803,1,8,1:0:0:0:
237,217,113990,1,2,0:0:0:0:
422,33,114178,6,0,P|434:101|445:151,1,90,0|0,1:0|0:0,0:0:0:0:
163,156,114553,2,0,P|175:88|182:37,1,90,8|0,1:0|0:0,0:0:0:0:
358,179,114928,2,0,P|370:247|381:297,1,90,0|0,1:0|0:0,0:0:0:0:
261,96,115303,1,8,1:0:0:0:
115,282,115490,6,0,B|172:312|201:285|191:272|231:247|285:280,1,180,2|0,0:0|0:0,0:0:0:0:
156,206,116053,2,0,P|88:194|46:182,1,90,8|0,1:0|0:0,0:0:0:0:
240,346,116428,1,0,1:0:0:0:
140,108,116615,1,0,3:0:0:0:
21,310,116803,2,0,P|64:299|109:292,1,90,8|0,1:0|0:0,0:0:0:0:
395,287,117178,6,0,P|461:228|407:129,1,175.499991966248,0|0,1:0|0:0,0:0:0:0:
428,135,117553,1,8,1:0:0:0:
301,335,117740,1,0,0:0:0:0:
201,105,117928,2,0,P|193:60|189:15,1,90,0|2,1:0|0:0,0:0:0:0:
222,279,118303,1,8,1:0:0:0:
293,68,118490,6,0,P|347:77|420:79,1,90,2|0,0:0|1:0,0:0:0:0:
189,201,118865,2,0,P|135:210|62:212,1,90,2|8,0:0|1:0,0:0:0:0:
313,279,119240,1,2,0:0:0:0:
197,93,119428,1,0,1:0:0:0:
94,333,119615,1,2,0:0:0:0:
288,180,119803,1,8,1:0:0:0:
53,126,119990,1,2,0:0:0:0:
203,336,120178,5,0,3:0:0:0:
144,261,120365,1,2,0:0:0:0:
88,341,120553,2,0,P|40:333|-4:329,1,72,0|0,3:0|0:0,0:0:0:0:
212,342,120928,2,0,B|253:306|253:306|234:208,1,144,0|0,3:0|3:0,0:0:0:0:
193,43,121490,1,2,0:0:0:0:
40,160,121678,6,0,L|47:110,1,36,2|2,3:2|0:0,0:0:0:0:
51,50,121865,2,0,L|55:85,1,36,2|2,0:0|0:0,0:0:0:0:
121,202,122053,6,0,L|128:152,1,36,2|2,3:2|0:0,0:0:0:0:
144,50,122240,2,0,L|148:85,1,36,2|2,0:0|0:0,0:0:0:0:
234,238,122428,5,2,3:2:0:0:
252,254,122521,1,2,0:0:0:0:
276,259,122615,1,2,0:0:0:0:
301,258,122709,1,2,0:0:0:0:
324,249,122803,6,0,P|200:276|129:293,1,161.999995056153,2|0,1:0|0:0,0:0:0:0:
225,355,123178,6,0,P|281:341|338:329,1,90,4|0,1:2|0:0,0:0:0:0:
496,182,123553,2,0,P|495:74|407:55,1,180,8|0,1:0|1:0,0:0:0:0:
230,65,124115,1,2,0:0:0:0:
250,258,124303,1,8,1:0:0:0:
433,127,124490,2,0,P|367:123|323:118,1,90,2|0,0:0|1:0,0:0:0:0:
89,88,124865,1,0,0:0:0:0:
174,299,125053,6,0,B|145:246|166:206|179:216|206:187|176:130,1,180,8|0,1:0|1:0,0:0:0:0:
153,6,125615,1,2,0:0:0:0:
73,231,125803,1,8,1:0:0:0:
162,38,125990,2,0,P|243:27|281:22,1,90,2|0,0:0|1:0,0:0:0:0:
42,32,126365,1,0,0:0:0:0:
288,106,126553,6,0,P|331:59|318:3,1,90,8|0,1:0|0:0,0:0:0:0:
80,209,126928,2,0,P|37:162|50:106,1,90,0|0,1:0|0:0,0:0:0:0:
56,21,127303,1,8,1:0:0:0:
222,177,127490,2,0,P|215:250|211:293,1,90,2|0,0:0|1:0,0:0:0:0:
121,133,127865,1,0,0:0:0:0:
44,356,128053,5,8,1:0:0:0:
136,167,128240,1,2,0:0:0:0:
251,383,128428,1,0,1:0:0:0:
339,189,128615,2,0,P|323:131|262:110,1,90,2|8,0:0|1:0,0:0:0:0:
139,56,128990,1,2,0:0:0:0:
113,277,129178,1,0,3:0:0:0:
251,184,129365,1,0,3:0:0:0:
22,68,129553,6,0,B|-4:117|-4:117|31:267,1,180,14|0,1:0|1:0,0:0:0:0:
146,48,130115,1,2,0:0:0:0:
223,275,130303,1,8,1:0:0:0:
310,55,130490,2,0,P|371:43|419:32,1,90,2|0,0:0|1:0,0:0:0:0:
201,119,130865,1,0,0:0:0:0:
387,308,131053,6,0,P|439:236|383:158,1,180,8|0,1:0|1:0,0:0:0:0:
238,357,131615,2,0,P|185:351|159:307,1,90,2|8,0:0|1:0,0:0:0:0:
114,136,131990,1,2,0:0:0:0:
232,277,132178,2,0,L|246:163,1,90,0|0,1:0|0:0,0:0:0:0:
480,365,132553,6,0,B|435:374|400:334|400:334|364:370|313:351,1,180,8|0,1:0|1:0,0:0:0:0:
414,115,133115,1,2,0:0:0:0:
472,275,133303,1,8,1:0:0:0:
348,270,133490,2,0,L|362:156,1,90,2|0,0:0|1:0,0:0:0:0:
378,23,133865,1,0,0:0:0:0:
229,185,134053,5,8,1:0:0:0:
418,105,134240,1,2,0:0:0:0:
192,52,134428,1,0,1:0:0:0:
266,303,134615,2,0,P|301:350|356:348,1,90,2|8,0:0|1:0,0:0:0:0:
493,342,134990,1,2,0:0:0:0:
418,105,135178,6,0,L|408:239,1,121.499996292114,4|0,3:2|0:0,0:0:0:0:
409,243,135553,2,0,L|498:209,1,80.9999975280763,8|0,3:2|0:0,0:0:0:0:
428,24,135928,2,0,P|358:39|340:122,1,161.999995056153,0|8,3:2|3:2,0:0:0:0:
378,328,136490,6,0,P|322:317|272:311,1,80.9999975280763,2|0,0:0|3:2,0:0:0:0:
136,283,136865,1,2,0:0:0:0:
224,351,137053,2,0,B|211:313|211:313|232:263,1,80.9999975280763,8|0,3:2|0:0,0:0:0:0:
273,197,137428,1,0,3:2:0:0:
136,283,137615,2,0,P|72:276|37:275,1,80.9999975280763,2|8,0:0|3:2,0:0:0:0:
306,277,137990,6,0,P|354:230|335:145,1,161.999995056153,2|2,0:0|0:0,0:0:0:0:
201,67,138553,2,0,L|291:73,1,80.9999975280763,8|2,3:2|0:0,0:0:0:0:
169,225,138928,2,0,P|148:171|171:127,1,80.9999975280763,0|0,3:2|0:0,0:0:0:0:
205,53,139303,1,8,3:2:0:0:
310,155,139490,6,0,L|231:171,1,80.9999975280763,2|0,0:0|3:2,0:0:0:0:
389,86,139865,1,0,0:0:0:0:
378,233,140053,2,0,L|370:322,1,80.9999975280763,8|0,3:2|0:0,0:0:0:0:
306,150,140428,1,0,3:2:0:0:
475,245,140615,1,2,0:0:0:0:
286,381,140803,6,0,L|298:223,1,148.50000453186,10|0,3:1|0:0,0:0:0:0:
307,142,141178,5,4,3:2:0:0:
172,273,141365,1,2,0:0:0:0:
206,108,141553,2,0,L|214:214,1,80.9999975280763,8|0,3:2|0:0,0:0:0:0:
398,362,141928,2,0,P|453:323|423:224,1,161.999995056153,0|8,3:2|3:2,0:0:0:0:
308,140,142490,6,0,L|414:129,1,80.9999975280763,2|0,0:0|3:2,0:0:0:0:
231,20,142865,1,2,0:0:0:0:
202,210,143053,2,0,L|282:218,1,80.9999975280763,8|0,3:2|0:0,0:0:0:0:
70,284,143428,1,0,3:2:0:0:
135,122,143615,1,2,0:0:0:0:
94,320,143803,1,8,3:2:0:0:
24,110,143990,6,0,L|113:97,1,80.9999975280763,2|0,0:0|3:2,0:0:0:0:
258,107,144365,1,2,0:0:0:0:
118,203,144553,1,8,3:2:0:0:
175,40,144740,1,2,0:0:0:0:
282,204,144928,2,0,L|193:191,1,80.9999975280763,0|0,3:2|0:0,0:0:0:0:
346,94,145303,1,8,3:2:0:0:
346,308,145490,1,2,0:0:0:0:
258,107,145678,5,4,3:2:0:0:
256,192,148678,12,2,151115,0:0:0:0:
367,251,151303,6,0,L|351:137,1,80.9999975280763,8|0,1:0|0:0,0:0:0:0:
512,288,151678,6,0,B|445:299|445:299|413:333|413:333|328:345,1,180,4|8,1:2|1:0,0:0:0:0:
374,79,152240,1,2,0:0:0:0:
468,204,152428,2,0,L|474:85,1,90,0|0,1:0|0:0,0:0:0:0:
348,342,152803,1,8,1:0:0:0:
271,119,152990,1,2,0:0:0:0:
115,302,153178,6,0,L|226:280,1,90,0|0,1:0|0:0,0:0:0:0:
72,98,153553,1,8,1:0:0:0:
298,202,153740,2,0,P|355:142|316:50,1,180,2|0,0:0|0:0,0:0:0:0:
151,17,154303,1,8,1:0:0:0:
193,182,154490,1,2,0:0:0:0:
26,30,154678,6,0,P|35:95|44:156,1,90,0|0,1:0|0:0,0:0:0:0:
207,192,155053,2,0,P|216:127|225:66,1,90,8|0,1:0|0:0,0:0:0:0:
99,240,155428,2,0,P|90:305|81:366,1,90,0|0,1:0|0:0,0:0:0:0:
120,114,155803,1,8,1:0:0:0:
269,368,155990,6,0,P|335:289|270:208,1,180,2|2,0:0|0:0,0:0:0:0:
120,114,156553,1,8,1:0:0:0:
311,70,156740,1,2,0:0:0:0:
230,194,156928,1,0,1:0:0:0:
174,15,157115,1,2,0:0:0:0:
106,228,157303,2,0,L|7:216,1,90,8|0,1:0|0:0,0:0:0:0:
204,371,157678,6,0,B|270:361|270:361|292:328|292:328|408:310,1,175.499991966248,0|0,1:0|0:0,0:0:0:0:
379,332,158053,1,8,1:0:0:0:
293,78,158240,1,2,0:0:0:0:
214,282,158428,2,0,L|221:178,1,90,0|2,1:0|0:0,0:0:0:0:
232,13,158803,1,8,1:0:0:0:
470,100,158990,6,0,L|362:93,1,90,2|0,0:0|1:0,0:0:0:0:
375,333,159365,2,0,P|438:273|404:179,1,180,2|2,0:0|0:0,0:0:0:0:
256,48,159928,1,0,1:0:0:0:
353,243,160115,1,2,0:0:0:0:
280,28,160303,1,8,1:0:0:0:
227,263,160490,1,2,0:0:0:0:
184,24,160678,5,0,3:0:0:0:
205,124,160865,1,2,0:0:0:0:
160,8,161053,2,0,P|105:21|65:26,1,72,0|0,3:0|0:0,0:0:0:0:
30,188,161428,2,0,P|59:121|131:118,1,144,0|0,3:0|3:0,0:0:0:0:
318,213,161990,6,0,P|369:217|411:219,1,72,2|0,0:0|3:0,0:0:0:0:
272,145,162365,1,0,0:0:0:0:
383,63,162553,2,0,P|434:59|476:57,1,72,2|0,3:2|0:0,0:0:0:0:
434,290,162928,1,0,3:0:0:0:
432,299,163303,6,0,L|447:116,1,161.999995056153,2|0,1:0|0:0,0:0:0:0:
461,47,163678,6,0,P|416:50|372:53,1,90,4|0,1:2|0:0,0:0:0:0:
110,67,164053,2,0,P|72:142|136:212,1,180,8|0,1:0|1:0,0:0:0:0:
304,292,164615,1,2,0:0:0:0:
161,132,164803,1,8,1:0:0:0:
383,64,164990,2,0,P|377:121|371:177,1,90,2|0,0:0|1:0,0:0:0:0:
352,371,165365,1,0,0:0:0:0:
128,294,165553,6,0,B|186:281|186:281|211:237|211:237|305:217,1,180,8|0,1:0|1:0,0:0:0:0:
474,191,166115,1,2,0:0:0:0:
276,136,166303,1,8,1:0:0:0:
352,371,166490,2,0,P|363:295|371:249,1,90,2|0,0:0|1:0,0:0:0:0:
190,166,166865,1,0,0:0:0:0:
62,353,167053,6,0,B|17:315|17:315|45:183,1,180,8|0,1:0|1:0,0:0:0:0:
71,25,167615,1,2,0:0:0:0:
128,264,167803,1,8,1:0:0:0:
8,106,167990,2,0,L|117:114,1,90,2|0,0:0|1:0,0:0:0:0:
367,136,168365,1,0,0:0:0:0:
199,226,168553,5,8,1:0:0:0:
309,50,168740,1,2,0:0:0:0:
393,264,168928,1,0,1:0:0:0:
222,56,169115,2,0,P|213:123|207:167,1,90,2|8,0:0|1:0,0:0:0:0:
318,47,169490,1,0,0:0:0:0:
397,275,169678,2,0,P|375:338|331:354,1,90,0|0,3:0|0:0,0:0:0:0:
56,337,170053,6,0,B|24:285|49:245|59:261|85:221|47:158,1,180,14|0,1:0|1:0,0:0:0:0:
313,275,170615,1,2,0:0:0:0:
157,165,170803,1,8,1:0:0:0:
360,101,170990,2,0,L|462:107,1,90,2|0,0:0|1:0,0:0:0:0:
217,282,171365,1,0,0:0:0:0:
229,25,171553,6,0,B|258:68|258:68|233:224,1,180,8|0,1:0|1:0,0:0:0:0:
49,39,172115,1,2,0:0:0:0:
6,240,172303,1,8,1:0:0:0:
176,105,172490,2,0,L|69:117,1,90,2|0,0:0|1:0,0:0:0:0:
316,267,172865,1,0,0:0:0:0:
121,273,173053,6,0,P|146:199|253:209,1,180,8|0,1:0|1:0,0:0:0:0:
383,338,173615,1,2,0:0:0:0:
287,122,173803,1,8,1:0:0:0:
136,371,173990,2,0,P|77:363|27:357,1,90,2|0,0:0|1:0,0:0:0:0:
160,89,174365,1,0,0:0:0:0:
206,268,174553,5,8,1:0:0:0:
286,109,174740,1,2,0:0:0:0:
51,239,174928,1,2,1:2:0:0:
49,223,175021,1,0,3:0:0:0:
47,207,175115,1,2,3:2:0:0:
45,192,175209,1,0,3:0:0:0:
42,175,175303,2,0,P|37:142|32:104,1,45,8|0,1:0|3:0,0:0:0:0:
127,99,175490,2,0,P|132:66|137:28,1,45,0|0,3:0|3:0,0:0:0:0:
203,273,175678,5,4,1:2:0:0:
237,133,175865,1,2,0:0:0:0:
203,289,176053,2,0,L|318:275,1,90,8|0,1:0|0:0,0:0:0:0:
469,159,176428,2,0,B|409:140|409:140|340:162|340:162|365:115,1,180,0|8,1:0|1:0,0:0:0:0:
480,255,176990,6,0,L|489:351,1,90,2|0,0:0|1:0,0:0:0:0:
408,51,177365,1,2,0:0:0:0:
336,245,177553,2,0,P|285:233|263:178,1,90,8|0,1:0|0:0,0:0:0:0:
251,20,177928,2,0,L|265:131,1,90,0|0,1:0|0:0,0:0:0:0:
283,328,178303,1,8,1:0:0:0:
187,157,178490,1,2,0:0:0:0:
105,358,178678,6,0,L|0:346,1,90,0|2,1:0|0:0,0:0:0:0:
37,115,179053,1,8,1:0:0:0:
76,262,179240,1,2,0:0:0:0:
187,157,179428,1,2,1:2:0:0:
189,138,179521,1,2,0:0:0:0:
191,119,179615,1,2,0:0:0:0:
193,100,179709,1,2,0:0:0:0:
195,81,179803,1,10,1:2:0:0:
254,272,179990,1,2,0:0:0:0:
348,133,180178,5,2,1:2:0:0:
367,135,180272,1,2,0:0:0:0:
386,137,180366,1,2,0:0:0:0:
405,139,180460,1,2,0:0:0:0:
424,142,180553,2,0,L|437:291,1,135,8|0,1:0|0:0,0:0:0:0:
424,294,180928,2,0,L|321:283,1,90,0|0,1:0|0:0,0:0:0:0:
180,90,181303,2,0,L|77:101,1,90,8|0,1:0|0:0,0:0:0:0:
106,355,181678,6,0,P|173:303|125:198,1,180,4|8,1:2|1:0,0:0:0:0:
6,71,182240,1,2,0:0:0:0:
94,269,182428,1,0,1:0:0:0:
98,33,182615,1,2,0:0:0:0:
61,288,182803,1,8,1:0:0:0:
173,96,182990,6,0,P|213:71|310:167,1,180,2|0,0:0|0:0,0:0:0:0:
363,348,183553,2,0,L|463:361,1,90,8|0,1:0|0:0,0:0:0:0:
258,251,183928,1,0,1:0:0:0:
427,157,184115,1,2,0:0:0:0:
272,350,184303,1,8,1:0:0:0:
233,153,184490,1,2,0:0:0:0:
449,245,184678,6,0,L|335:258,1,90,0|0,1:0|0:0,0:0:0:0:
103,274,185053,2,0,P|68:230|84:172,1,90,8|0,1:0|0:0,0:0:0:0:
129,27,185428,1,0,1:0:0:0:
321,107,185615,1,2,0:0:0:0:
153,207,185803,1,8,1:0:0:0:
216,24,185990,6,0,P|225:108|229:152,1,90,2|0,0:0|1:0,0:0:0:0:
294,313,186365,2,0,P|298:268|303:223,1,90,2|8,0:0|1:0,0:0:0:0:
29,333,186740,2,0,B|71:355|113:316|113:316|135:358|185:357,1,180,2|2,0:0|0:0,0:0:0:0:
394,190,187303,1,8,1:0:0:0:
209,137,187490,1,2,0:0:0:0:
285,349,187678,6,0,P|350:361|405:265,1,180,4|8,1:2|1:0,0:0:0:0:
286,98,188240,1,2,0:0:0:0:
210,294,188428,2,0,L|89:301,1,90,0|0,1:0|0:0,0:0:0:0:
203,91,188803,1,8,1:0:0:0:
326,274,188990,1,2,0:0:0:0:
376,68,189178,6,0,L|389:196,1,90,0|0,1:0|0:0,0:0:0:0:
197,275,189553,2,0,L|206:185,1,90,8|0,1:0|0:0,0:0:0:0:
377,328,189928,1,0,1:0:0:0:
294,167,190115,1,0,0:0:0:0:
234,357,190303,2,0,P|189:364|144:369,1,90,8|0,1:0|0:0,0:0:0:0:
374,246,190678,6,0,B|390:205|390:205|371:143,1,90,0|0,1:0|0:0,0:0:0:0:
137,166,191053,2,0,B|121:207|121:207|140:269,1,90,8|0,1:0|0:0,0:0:0:0:
329,73,191428,1,0,1:0:0:0:
211,91,191615,1,2,0:0:0:0:
298,206,191803,1,8,1:0:0:0:
218,12,191990,6,0,P|139:45|153:149,1,180,2|2,0:0|0:0,0:0:0:0:
246,324,192553,1,8,1:0:0:0:
211,91,192740,2,0,L|307:99,1,90,2|0,0:0|1:0,0:0:0:0:
42,270,193115,1,2,0:0:0:0:
130,37,193303,1,8,1:0:0:0:
283,207,193490,1,2,0:0:0:0:
37,185,193678,6,0,B|7:145|7:145|46:11,1,180,4|8,1:2|1:0,0:0:0:0:
164,250,194240,1,2,0:0:0:0:
306,95,194428,2,0,L|296:-2,1,90,0|0,1:0|0:0,0:0:0:0:
354,261,194803,2,0,L|344:358,1,90,8|0,1:0|0:0,0:0:0:0:
225,128,195178,6,0,P|179:115|126:107,1,90,0|0,1:0|0:0,0:0:0:0:
422,193,195553,2,0,P|466:185|509:173,1,90,8|0,1:0|0:0,0:0:0:0:
208,258,195928,1,0,1:0:0:0:
291,72,196115,1,2,0:0:0:0:
356,271,196303,1,8,1:0:0:0:
214,102,196490,1,2,0:0:0:0:
436,103,196678,6,0,B|365:116|365:116|345:153|345:153|256:171,1,180,0|8,1:0|1:0,0:0:0:0:
46,202,197240,1,2,0:0:0:0:
250,263,197428,1,0,1:0:0:0:
149,100,197615,1,2,0:0:0:0:
34,345,197803,1,8,1:0:0:0:
156,140,197990,1,2,0:0:0:0:
265,351,198178,6,0,B|331:411|445:320|373:244|373:244|381:289|341:323,1,314.999990386963,4|2,1:2|0:0,0:0:0:0:
256,192,200146,12,0,202678,0:0:0:0:
