osu file format v14

[General]
AudioFilename: audio.mp3
AudioLeadIn: 0
PreviewTime: 99178
Countdown: 0
SampleSet: Soft
StackLeniency: 0.4
Mode: 0
LetterboxInBreaks: 0
EpilepsyWarning: 1
WidescreenStoryboard: 1

[Editor]
Bookmarks: 11990,23990,37678,58115,61678,67678,73490,99178,119615,123178,135178,151678,160678,163678,175678,198178
DistanceSpacing: 1
BeatDivisor: 4
GridSize: 4
TimelineZoom: 2

[Metadata]
Title:Freak the Freak Out (Nightcore Mix)
TitleUnicode:Freak the Freak Out (Nightcore Mix)
Artist:Victorious Cast feat. Victoria Justice
ArtistUnicode:Victorious Cast feat. Victoria Justice
Creator:AJT
Version:Hard
Source:Victorious
Tags:english pop dance sped up ver. nickelodeon Sonnyc Chanmann Sytho -Ady
BeatmapID:4090764
BeatmapSetID:1962243

[Difficulty]
HPDrainRate:5
CircleSize:4
OverallDifficulty:6
ApproachRate:8
SliderMultiplier:1.6
SliderTickRate:1

[Events]
//Background and Video events
0,0,"wallhaven-q632vd.jpg",0,0
//Break Periods
2,67878,72740
2,135378,144928
//Storyboard Layer 0 (Background)
//Storyboard Layer 1 (Fail)
//Storyboard Layer 2 (Pass)
//Storyboard Layer 3 (Foreground)
Sprite,Foreground,Centre,"lyrics\0044.png",123.8433,0 F,0,69350,69550,0,1 S,1,69350,69550,0.11,0.12 MY,1,69350,69551,240,231.9833 C,0,69450,69550,51,51,51,255,255,255 P,0,69550,,A F,0,70470,70670,1,0 S,1,70470,70670,0.12,0.11 C,0,70570,70670,255,255,255,153,153,153
Sprite,Foreground,Centre,"lyrics\0069.png",145.0733,0 F,0,69350,69550,0,1 S,1,69350,69550,0.11,0.12 MY,1,69350,69551,240,232.6983 C,0,69450,69550,51,51,51,255,255,255 P,0,69550,,A F,0,70470,70670,1,0 S,1,70470,70670,0.12,0.11 C,0,70570,70670,255,255,255,153,153,153
Sprite,Foreground,Centre,"lyrics\0066.png",157.2283,0 F,0,69350,69550,0,1 S,1,69350,69550,0.11,0.12 MY,1,69350,69551,240,237.1533 C,0,69450,69550,51,51,51,255,255,255 P,0,69550,,A F,0,70470,70670,1,0 S,1,70470,70670,0.12,0.11 C,0,70570,70670,255,255,255,153,153,153
Sprite,Foreground,Centre,"lyrics\0066.png",171.6383,0 MY,1,69350,69549,240,237.1533 F,0,69350,69550,0,1 S,1,69350,69550,0.11,0.12 C,0,69450,69550,51,51,51,255,255,255 P,0,69550,,A F,0,70470,70670,1,0 S,1,70470,70670,0.12,0.11 C,0,70570,70670,255,255,255,153,153,153
Sprite,Foreground,Centre,"lyrics\0069.png",185.3333,0 F,0,69350,69550,0,1 S,1,69350,69550,0.11,0.12 MY,1,69350,69551,240,232.6983 C,0,69450,69550,51,51,51,255,255,255 P,0,69550,,A F,0,70470,70670,1,0 S,1,70470,70670,0.12,0.11 C,0,70570,70670,255,255,255,153,153,153
Sprite,Foreground,Centre,"lyrics\0063.png",199.3583,0 F,0,69350,69550,0,1 S,1,69350,69550,0.11,0.12 MY,1,69350,69550,240,237.3183 C,0,69450,69550,51,51,51,255,255,255 P,0,69550,,A F,0,70470,70670,1,0 S,1,70470,70670,0.12,0.11 C,0,70570,70670,255,255,255,153,153,153
Sprite,Foreground,Centre,"lyrics\0075.png",218.4433,0 F,0,69350,69550,0,1 S,1,69350,69550,0.11,0.12 MY,1,69350,69551,240,237.4833 C,0,69450,69550,51,51,51,255,255,255 P,0,69550,,A F,0,70470,70670,1,0 S,1,70470,70670,0.12,0.11 C,0,70570,70670,255,255,255,153,153,153
Sprite,Foreground,Centre,"lyrics\006c.png",235.8783,0 F,0,69350,69550,0,1 S,1,69350,69550,0.11,0.12 MY,1,69350,69551,240,230.9383 C,0,69450,69550,51,51,51,255,255,255 P,0,69550,,A F,0,70470,70670,1,0 S,1,70470,70670,0.12,0.11 C,0,70570,70670,255,255,255,153,153,153
Sprite,Foreground,Centre,"lyrics\0074.png",249.4084,0 F,0,69350,69550,0,1 S,1,69350,69550,0.11,0.12 MY,1,69350,69550,240,235.3933 C,0,69450,69550,51,51,51,255,255,255 P,0,69550,,A F,0,70470,70670,1,0 S,1,70470,70670,0.12,0.11 C,0,70570,70670,255,255,255,153,153,153
Sprite,Foreground,Centre,"lyrics\0079.png",264.3134,0 MY,1,69350,69549,240,243.3133 F,0,69350,69550,0,1 S,1,69350,69550,0.11,0.12 C,0,69450,69550,51,51,51,255,255,255 P,0,69550,,A F,0,70470,70670,1,0 S,1,70470,70670,0.12,0.11 C,0,70570,70670,255,255,255,153,153,153
Sprite,Foreground,Centre,"lyrics\0062.png",295.8283,0 MY,1,69350,69549,240,231.0483 F,0,69350,69550,0,1 S,1,69350,69550,0.11,0.12 C,0,69450,69550,51,51,51,255,255,255 P,0,69550,,A F,0,70470,70670,1,0 S,1,70470,70670,0.12,0.11 C,0,70570,70670,255,255,255,153,153,153
Sprite,Foreground,Centre,"lyrics\0079.png",314.4733,0 F,0,69350,69550,0,1 S,1,69350,69550,0.11,0.12 MY,1,69350,69550,240,243.3133 C,0,69450,69550,51,51,51,255,255,255 P,0,69550,,A F,0,70470,70670,1,0 S,1,70470,70670,0.12,0.11 C,0,70570,70670,255,255,255,153,153,153
Sprite,Foreground,Centre,"lyrics\0043.png",350.6633,0 MY,1,69350,69549,240,231.9833 F,0,69350,69550,0,1 S,1,69350,69550,0.11,0.12 C,0,69450,69550,51,51,51,255,255,255 P,0,69550,,A F,0,70470,70670,1,0 S,1,70470,70670,0.12,0.11 C,0,70570,70670,255,255,255,153,153,153
Sprite,Foreground,Centre,"lyrics\0068.png",373.5983,0 F,0,69350,69550,0,1 S,1,69350,69550,0.11,0.12 MY,1,69350,69551,240,230.9933 C,0,69450,69550,51,51,51,255,255,255 P,0,69550,,A F,0,70470,70670,1,0 S,1,70470,70670,0.12,0.11 C,0,70570,70670,255,255,255,153,153,153
Sprite,Foreground,Centre,"lyrics\0061.png",395.7083,0 F,0,69350,69550,0,1 S,1,69350,69550,0.11,0.12 MY,1,69350,69550,240,237.3733 C,0,69450,69550,51,51,51,255,255,255 P,0,69550,,A F,0,70470,70670,1,0 S,1,70470,70670,0.12,0.11 C,0,70570,70670,255,255,255,153,153,153
Sprite,Foreground,Centre,"lyrics\006e.png",418.3683,0 F,0,69350,69550,0,1 S,1,69350,69550,0.11,0.12 MY,1,69350,69551,240,237.3733 C,0,69450,69550,51,51,51,255,255,255 P,0,69550,,A F,0,70470,70670,1,0 S,1,70470,70670,0.12,0.11 C,0,70570,70670,255,255,255,153,153,153
Sprite,Foreground,Centre,"lyrics\006d.png",447.2433,0 MY,1,69350,69549,240,237.3733 F,0,69350,69550,0,1 S,1,69350,69550,0.11,0.12 C,0,69450,69550,51,51,51,255,255,255 P,0,69550,,A F,0,70470,70670,1,0 S,1,70470,70670,0.12,0.11 C,0,70570,70670,255,255,255,153,153,153
Sprite,Foreground,Centre,"lyrics\0061.png",475.6783,0 F,0,69350,69550,0,1 S,1,69350,69550,0.11,0.12 MY,1,69350,69550,240,237.3733 C,0,69450,69550,51,51,51,255,255,255 P,0,69550,,A F,0,70470,70670,1,0 S,1,70470,70670,0.12,0.11 C,0,70570,70670,255,255,255,153,153,153
Sprite,Foreground,Centre,"lyrics\006e.png",498.3383,0 F,0,69350,69550,0,1 S,1,69350,69550,0.11,0.12 MY,1,69350,69550,240,237.3733 C,0,69450,69550,51,51,51,255,255,255 P,0,69550,,A F,0,70470,70670,1,0 S,1,70470,70670,0.12,0.11 C,0,70570,70670,255,255,255,153,153,153
Sprite,Foreground,Centre,"lyrics\006e.png",521.3284,0 F,0,69350,69550,0,1 S,1,69350,69550,0.11,0.12 MY,1,69350,69551,240,237.3733 C,0,69450,69550,51,51,51,255,255,255 P,0,69550,,A F,0,70470,70670,1,0 S,1,70470,70670,0.12,0.11 C,0,70570,70670,255,255,255,153,153,153
Sprite,Foreground,Centre,"lyrics\glow\0044.png",123.925,0 F,0,69350,69550,0,1 S,1,69350,69550,0.11,0.12 MY,1,69350,69551,240,231.955 P,0,69350,70670,A C,0,69450,69550,51,51,51,255,255,255 P,0,69550,,A F,0,70470,70670,1,0 S,1,70470,70670,0.12,0.11 C,0,70570,70670,255,255,255,153,153,153
Sprite,Foreground,Centre,"lyrics\glow\0069.png",145.1,0 F,0,69350,69550,0,1 S,1,69350,69550,0.11,0.12 MY,1,69350,69551,240,232.725 P,0,69350,70670,A C,0,69450,69550,51,51,51,255,255,255 P,0,69550,,A F,0,70470,70670,1,0 S,1,70470,70670,0.12,0.11 C,0,70570,70670,255,255,255,153,153,153
Sprite,Foreground,Centre,"lyrics\glow\0066.png",157.2,0 F,0,69350,69550,0,1 S,1,69350,69550,0.11,0.12 MY,1,69350,69551,240,237.125 P,0,69350,70670,A C,0,69450,69550,51,51,51,255,255,255 P,0,69550,,A F,0,70470,70670,1,0 S,1,70470,70670,0.12,0.11 C,0,70570,70670,255,255,255,153,153,153
Sprite,Foreground,Centre,"lyrics\glow\0066.png",171.61,0 F,0,69350,69550,0,1 S,1,69350,69550,0.11,0.12 MY,1,69350,69550,240,237.125 P,0,69350,70670,A C,0,69450,69550,51,51,51,255,255,255 P,0,69550,,A F,0,70470,70670,1,0 S,1,70470,70670,0.12,0.11 C,0,70570,70670,255,255,255,153,153,153
Sprite,Foreground,Centre,"lyrics\glow\0069.png",185.36,0 MY,1,69350,69549,240,232.725 F,0,69350,69550,0,1 S,1,69350,69550,0.11,0.12 P,0,69350,70670,A C,0,69450,69550,51,51,51,255,255,255 P,0,69550,,A F,0,70470,70670,1,0 S,1,70470,70670,0.12,0.11 C,0,70570,70670,255,255,255,153,153,153
Sprite,Foreground,Centre,"lyrics\glow\0063.png",199.165,0 F,0,69350,69550,0,1 S,1,69350,69550,0.11,0.12 MY,1,69350,69550,240,237.29 P,0,69350,70670,A C,0,69450,69550,51,51,51,255,255,255 P,0,69550,,A F,0,70470,70670,1,0 S,1,70470,70670,0.12,0.11 C,0,70570,70670,255,255,255,153,153,153
Sprite,Foreground,Centre,"lyrics\glow\0075.png",218.415,0 F,0,69350,69550,0,1 S,1,69350,69550,0.11,0.12 MY,1,69350,69551,240,237.51 P,0,69350,70670,A C,0,69450,69550,51,51,51,255,255,255 P,0,69550,,A F,0,70470,70670,1,0 S,1,70470,70670,0.12,0.11 C,0,70570,70670,255,255,255,153,153,153
Sprite,Foreground,Centre,"lyrics\glow\006c.png",235.85,0 F,0,69350,69550,0,1 S,1,69350,69550,0.11,0.12 MY,1,69350,69550,240,230.91 P,0,69350,70670,A C,0,69450,69550,51,51,51,255,255,255 P,0,69550,,A F,0,70470,70670,1,0 S,1,70470,70670,0.12,0.11 C,0,70570,70670,255,255,255,153,153,153
Sprite,Foreground,Centre,"lyrics\glow\0074.png",249.27,0 F,0,69350,69550,0,1 S,1,69350,69550,0.11,0.12 MY,1,69350,69551,240,235.42 P,0,69350,70670,A C,0,69450,69550,51,51,51,255,255,255 P,0,69550,,A F,0,70470,70670,1,0 S,1,70470,70670,0.12,0.11 C,0,70570,70670,255,255,255,153,153,153
Sprite,Foreground,Centre,"lyrics\glow\0079.png",264.505,0 MY,1,69350,69549,240,243.56 F,0,69350,69550,0,1 S,1,69350,69550,0.11,0.12 P,0,69350,70670,A C,0,69450,69550,51,51,51,255,255,255 P,0,69550,,A F,0,70470,70670,1,0 S,1,70470,70670,0.12,0.11 C,0,70570,70670,255,255,255,153,153,153
Sprite,Foreground,Centre,"lyrics\glow\0062.png",295.91,0 MY,1,69350,69549,240,231.02 F,0,69350,69550,0,1 S,1,69350,69550,0.11,0.12 P,0,69350,70670,A C,0,69450,69550,51,51,51,255,255,255 P,0,69550,,A F,0,70470,70670,1,0 S,1,70470,70670,0.12,0.11 C,0,70570,70670,255,255,255,153,153,153
Sprite,Foreground,Centre,"lyrics\glow\0079.png",314.665,0 F,0,69350,69550,0,1 S,1,69350,69550,0.11,0.12 MY,1,69350,69550,240,243.56 P,0,69350,70670,A C,0,69450,69550,51,51,51,255,255,255 P,0,69550,,A F,0,70470,70670,1,0 S,1,70470,70670,0.12,0.11 C,0,70570,70670,255,255,255,153,153,153
Sprite,Foreground,Centre,"lyrics\glow\0043.png",350.415,0 F,0,69350,69550,0,1 S,1,69350,69550,0.11,0.12 MY,1,69350,69550,240,232.01 P,0,69350,70670,A C,0,69450,69550,51,51,51,255,255,255 P,0,69550,,A F,0,70470,70670,1,0 S,1,70470,70670,0.12,0.11 C,0,70570,70670,255,255,255,153,153,153
Sprite,Foreground,Centre,"lyrics\glow\0068.png",373.625,0 F,0,69350,69550,0,1 S,1,69350,69550,0.11,0.12 MY,1,69350,69550,240,230.91 P,0,69350,70670,A C,0,69450,69550,51,51,51,255,255,255 P,0,69550,,A F,0,70470,70670,1,0 S,1,70470,70670,0.12,0.11 C,0,70570,70670,255,255,255,153,153,153
Sprite,Foreground,Centre,"lyrics\glow\0061.png",395.625,0 F,0,69350,69550,0,1 S,1,69350,69550,0.11,0.12 MY,1,69350,69551,240,237.4 P,0,69350,70670,A C,0,69450,69550,51,51,51,255,255,255 P,0,69550,,A F,0,70470,70670,1,0 S,1,70470,70670,0.12,0.11 C,0,70570,70670,255,255,255,153,153,153
Sprite,Foreground,Centre,"lyrics\glow\006e.png",418.3401,0 MY,1,69350,69549,240,237.345 F,0,69350,69550,0,1 S,1,69350,69550,0.11,0.12 P,0,69350,70670,A C,0,69450,69550,51,51,51,255,255,255 P,0,69550,,A F,0,70470,70670,1,0 S,1,70470,70670,0.12,0.11 C,0,70570,70670,255,255,255,153,153,153
Sprite,Foreground,Centre,"lyrics\glow\006d.png",447.215,0 F,0,69350,69550,0,1 S,1,69350,69550,0.11,0.12 MY,1,69350,69551,240,237.345 P,0,69350,70670,A C,0,69450,69550,51,51,51,255,255,255 P,0,69550,,A F,0,70470,70670,1,0 S,1,70470,70670,0.12,0.11 C,0,70570,70670,255,255,255,153,153,153
Sprite,Foreground,Centre,"lyrics\glow\0061.png",475.595,0 F,0,69350,69550,0,1 S,1,69350,69550,0.11,0.12 MY,1,69350,69551,240,237.4 P,0,69350,70670,A C,0,69450,69550,51,51,51,255,255,255 P,0,69550,,A F,0,70470,70670,1,0 S,1,70470,70670,0.12,0.11 C,0,70570,70670,255,255,255,153,153,153
Sprite,Foreground,Centre,"lyrics\glow\006e.png",498.3101,0 F,0,69350,69550,0,1 S,1,69350,69550,0.11,0.12 MY,1,69350,69551,240,237.345 P,0,69350,70670,A C,0,69450,69550,51,51,51,255,255,255 P,0,69550,,A F,0,70470,70670,1,0 S,1,70470,70670,0.12,0.11 C,0,70570,70670,255,255,255,153,153,153
Sprite,Foreground,Centre,"lyrics\glow\006e.png",521.3,0 MY,1,69350,69549,240,237.345 F,0,69350,69550,0,1 S,1,69350,69550,0.11,0.12 P,0,69350,70670,A C,0,69450,69550,51,51,51,255,255,255 P,0,69550,,A F,0,70470,70670,1,0 S,1,70470,70670,0.12,0.11 C,0,70570,70670,255,255,255,153,153,153
//Storyboard Layer 4 (Overlay)
//Storyboard Sound Samples

[TimingPoints]
178,375,4,2,1,75,1,0
35803,-83.3333333333333,4,2,1,75,0,0
37678,375,4,2,1,90,1,0
37678,-90.9090909090909,4,2,1,90,0,0
58115,-111.111111111111,4,2,1,90,0,0
58678,-111.111111111111,4,2,1,75,0,0
61303,-90.9090909090909,4,2,1,75,0,0
61678,-90.9090909090909,4,2,1,90,0,0
67678,-111.111111111111,4,2,1,75,0,0
73490,-100,4,2,1,75,0,0
97303,-83.3333333333333,4,2,1,75,0,0
99178,375,4,2,1,90,1,0
99178,-90.9090909090909,4,2,1,90,0,0
119615,-111.111111111111,4,2,1,90,0,0
120178,-111.111111111111,4,2,1,75,0,0
122803,-90.9090909090909,4,2,1,75,0,0
123178,-90.9090909090909,4,2,1,90,0,0
129178,-90.9090909090909,4,2,1,75,0,0
129553,-90.9090909090909,4,2,1,90,0,0
135178,-90.9090909090909,4,2,1,80,0,0
145678,375,4,2,1,80,1,0
145678,-90.9090909090909,4,2,1,80,0,0
149053,-90.9090909090909,4,2,1,60,0,0
151678,-90.9090909090909,4,2,1,100,0,0
160678,-111.111111111111,4,2,1,100,0,0
163678,-90.9090909090909,4,2,1,100,0,0
198178,375,4,2,1,100,1,0
202678,-90.9090909090909,4,2,1,5,0,0

[Colours]
Combo1 : 255,128,0
Combo2 : 0,0,255
Combo3 : 18,124,255
Combo4 : 255,0,128

[HitObjects]
216,112,11990,6,0,B|208:150|216:192,1,80,2|4,0:0|1:2,0:0:0:0:
296,192,12365,1,0,0:0:0:0:
296,192,12553,2,0,B|303:153|296:112,2,80,8|2|0,0:0|0:0|3:0,0:0:0:0:
320,352,13303,5,8,0:0:0:0:
400,344,13490,1,2,0:0:0:0:
352,280,13678,1,0,3:0:0:0:
192,352,14053,1,8,0:0:0:0:
112,344,14241,1,2,0:0:0:0:
160,280,14428,1,0,3:0:0:0:
327,119,14990,6,0,B|256:56|184:120,1,160,2|0,0:0|0:0,0:0:0:0:
216,192,15553,2,0,B|257:199|296:192,2,80,8|2|0,0:0|0:0|3:0,0:0:0:0:
104,88,16303,5,8,0:0:0:0:
180,65,16490,1,2,0:0:0:0:
257,42,16678,1,0,3:0:0:0:
408,146,17053,1,8,0:0:0:0:
332,169,17240,1,2,0:0:0:0:
256,192,17428,1,0,3:0:0:0:
312,248,17615,6,0,B|309:287|296:326,1,80,2|8,0:0|0:0,0:0:0:0:
215,326,17990,2,0,B|203:287|200:248,1,80,2|0,0:0|3:0,0:0:0:0:
256,192,18365,1,2,0:0:0:0:
256,192,18553,2,0,L|256:112,2,80,8|2|0,0:0|0:0|3:0,0:0:0:0:
176,104,19303,5,8,0:0:0:0:
162,28,19490,1,2,0:0:0:0:
176,104,19678,1,0,3:0:0:0:
336,104,20053,1,8,0:0:0:0:
350,28,20240,1,2,0:0:0:0:
336,104,20428,1,0,3:0:0:0:
256,120,20615,6,0,L|256:200,1,80,2|8,0:0|0:0,0:0:0:0:
184,264,20990,2,0,B|256:328|328:264,1,160,2|0,0:0|0:0,0:0:0:0:
296,192,21553,2,0,B|254:184|216:192,2,80,8|2|0,0:0|0:0|3:0,0:0:0:0:
408,152,22303,5,8,0:0:0:0:
400,72,22490,1,2,0:0:0:0:
320,80,22678,1,0,3:0:0:0:
176,208,23053,1,8,0:0:0:0:
184,288,23240,1,2,0:0:0:0:
264,280,23428,2,0,L|256:192,2,80,0|2|8,3:0|0:0|0:0,0:0:0:0:
328,352,23990,6,0,B|416:382|472:292,1,160,2|0,0:0|0:0,0:0:0:0:
504,231,24553,2,0,B|494:187|459:159,1,80,8|0,0:0|0:0,0:0:0:0:
384,175,24928,1,0,3:0:0:0:
384,175,25303,5,8,0:0:0:0:
315,215,25490,2,0,B|228:244|178:163,1,160,2|0,0:0|0:0,0:0:0:0:
200,86,26053,1,8,0:0:0:0:
279,86,26240,1,2,0:0:0:0:
337,141,26428,1,0,3:0:0:0:
337,141,26803,5,8,0:0:0:0:
314,215,26990,2,0,B|276:264|245:271,1,80,2|0,0:0|3:0,0:0:0:0:
177,246,27365,1,2,0:0:0:0:
230,186,27553,1,8,0:0:0:0:
161,145,27740,1,2,0:0:0:0:
214,85,27928,1,0,3:0:0:0:
214,85,28303,5,8,0:0:0:0:
149,37,28490,1,2,0:0:0:0:
75,67,28678,1,0,3:0:0:0:
298,85,29053,1,8,0:0:0:0:
363,37,29240,1,2,0:0:0:0:
437,67,29428,1,0,3:0:0:0:
437,67,29803,5,8,0:0:0:0:
377,121,29990,2,0,B|380:207|401:303,1,160,2|0,0:0|0:0,0:0:0:0:
332,329,30553,1,8,0:0:0:0:
256,304,30740,1,2,0:0:0:0:
180,329,30928,1,0,3:0:0:0:
256,384,31115,5,2,0:0:0:0:
256,304,31303,1,8,0:0:0:0:
200,248,31490,2,0,B|112:256|18:224,1,160,2|0,0:0|0:0,0:0:0:0:
32,152,32053,1,8,0:0:0:0:
97,107,32240,1,2,0:0:0:0:
160,152,32428,2,0,B|204:155|239:143,1,80,0|0,3:0|0:0,0:0:0:0:
317,128,32803,1,8,0:0:0:0:
440,312,33178,5,0,3:0:0:0:
363,288,33365,1,2,0:0:0:0:
363,208,33553,1,8,0:0:0:0:
440,183,33740,1,2,0:0:0:0:
487,248,33928,1,0,3:0:0:0:
264,352,34303,5,8,0:0:0:0:
264,352,34490,1,2,0:0:0:0:
176,336,34678,5,0,3:0:0:0:
328,280,35053,1,8,0:0:0:0:
160,192,35428,1,0,3:0:0:0:
376,72,35803,2,0,B|284:91|284:91|192:0,1,191.999994140625,8|4,0:0|0:0,0:0:0:0:
218,225,37678,6,0,P|191:285|112:248,1,132.00000402832,4|0,1:2|0:0,0:0:0:0:
110,263,38053,2,0,L|120:176,1,88.000002685547,8|0,1:0|0:0,0:0:0:0:
60,111,38428,1,0,1:0:0:0:
135,66,38615,1,2,0:0:0:0:
194,130,38803,1,8,1:0:0:0:
194,130,39178,6,0,P|220:94|286:109,1,88.000002685547,0|0,1:0|0:0,0:0:0:0:
338,140,39553,2,0,P|364:176|430:161,1,88.000002685547,8|0,1:0|0:0,0:0:0:0:
475,127,39928,1,0,1:0:0:0:
426,47,40115,1,2,0:0:0:0:
338,57,40303,1,8,1:0:0:0:
394,123,40490,5,2,0:0:0:0:
256,8,40865,1,2,0:0:0:0:
118,123,41240,1,2,0:0:0:0:
256,236,41615,1,2,0:0:0:0:
393,123,41990,6,0,P|430:146|464:175,1,88.000002685547,2|0,0:0|1:0,0:0:0:0:
307,142,42365,1,2,0:0:0:0:
173,19,42740,6,0,P|135:41|102:70,1,88.000002685547,2|0,0:0|1:0,0:0:0:0:
246,65,43115,2,0,B|290:55|330:23,2,88.000002685547,2|8|0,0:0|1:0|0:0,0:0:0:0:
173,19,43678,6,0,P|156:62|208:141,1,132.00000402832,0|0,1:0|0:0,0:0:0:0:
183,167,44053,2,0,P|230:160|293:157,1,88.000002685547,8|0,1:0|0:0,0:0:0:0:
350,229,44428,1,0,1:0:0:0:
224,257,44615,1,2,0:0:0:0:
304,350,44803,1,8,1:0:0:0:
304,350,45178,6,0,P|349:361|405:316,1,88.000002685547,0|0,1:0|0:0,0:0:0:0:
378,256,45553,2,0,P|337:245|297:262,1,88.000002685547,8|0,1:0|0:0,0:0:0:0:
226,316,45928,1,0,1:0:0:0:
175,244,46115,1,2,0:0:0:0:
114,308,46303,1,8,1:0:0:0:
65,232,46490,6,0,P|74:147|75:126,1,88.000002685547,2|0,0:0|1:0,0:0:0:0:
145,239,46865,2,0,P|148:195|154:151,1,88.000002685547,2|8,0:0|1:0,0:0:0:0:
120,81,47240,1,2,0:0:0:0:
120,81,47615,1,2,0:0:0:0:
205,269,47990,6,0,P|289:260|310:259,1,88.000002685547,2|0,0:0|1:0,0:0:0:0:
219,363,48365,2,0,P|262:359|306:353,1,88.000002685547,2|8,0:0|1:0,0:0:0:0:
363,297,48740,1,2,0:0:0:0:
363,297,49115,1,2,0:0:0:0:
424,232,49303,5,8,1:0:0:0:
424,232,49678,2,0,P|464:96|256:136,1,440.000013427735,4|0,1:2|0:0,0:0:0:0:
343,195,50803,1,8,1:0:0:0:
255,253,50990,2,0,P|90:336|88:152,1,440.000013427735,2|0,0:0|1:0,0:0:0:0:
258,163,52490,5,2,0:0:0:0:
209,84,52678,2,0,B|146:46|72:72,1,132.00000402832,0|0,1:0|0:0,0:0:0:0:
62,81,53053,2,0,B|44:128|68:170,1,88.000002685547,8|0,1:0|0:0,0:0:0:0:
166,182,53428,2,0,B|184:229|160:271,1,88.000002685547,0|0,1:0|0:0,0:0:0:0:
110,345,53803,1,8,1:0:0:0:
219,358,53990,2,0,B|321:365|298:296|412:291,1,176.000005371094,2|0,0:0|0:0,0:0:0:0:
454,362,54553,2,0,B|459:306|474:170,1,176.000005371094,8|0,1:0|1:0,0:0:0:0:
397,203,55115,1,0,0:0:0:0:
409,119,55303,5,8,1:0:0:0:
409,119,55678,2,0,B|370:60|272:68|198:150|313:233|239:315|141:323|102:264,1,440.000013427735,0|0,1:0|0:0,0:0:0:0:
56,192,56803,1,8,1:0:0:0:
102,119,56990,2,0,B|141:60|239:68|313:150|198:233|272:315|370:323|409:264,1,440.000013427735,2|0,0:0|1:0,0:0:0:0:
473,212,58115,5,0,0:0:0:0:
473,212,58303,1,8,1:0:0:0:
473,212,58678,2,0,B|322:219,2,143.999995605469,0|0|0,3:0|3:0|3:0,0:0:0:0:
473,212,59803,5,0,3:0:0:0:
452,285,59990,1,2,0:0:0:0:
275,292,60365,5,2,0:0:0:0:
254,365,60552,1,0,3:0:0:0:
64,345,60928,5,0,3:0:0:0:
241,326,61303,5,2,1:0:0:0:
241,326,61396,1,2,0:0:0:0:
241,326,61490,2,0,L|283:339,2,44.0000013427735,2|2|4,0:0|0:0|1:2,0:0:0:0:
358,202,62053,6,0,B|398:216|445:207,1,88.000002685547,8|0,1:0|0:0,0:0:0:0:
437,312,62428,2,0,B|397:298|350:307,2,88.000002685547,0|2|8,1:0|0:0|1:0,0:0:0:0:
445,207,62990,2,0,B|398:216|358:202,1,88.000002685547,2|0,0:0|1:0,0:0:0:0:
154,202,63553,6,0,B|114:216|67:207,1,88.000002685547,8|0,1:0|0:0,0:0:0:0:
75,312,63928,2,0,B|115:298|162:307,2,88.000002685547,0|2|8,1:0|0:0|1:0,0:0:0:0:
67,207,64490,2,0,B|114:216|154:202,1,88.000002685547,2|0,0:0|1:0,0:0:0:0:
312,102,65053,6,0,B|298:62|307:14,1,88.000002685547,8|0,1:0|0:0,0:0:0:0:
205,15,65428,2,0,B|214:62|200:102,2,88.000002685547,0|2|8,1:0|0:0|1:0,0:0:0:0:
307,15,65990,2,0,B|299:61|313:101,1,88.000002685547,2|0,0:0|1:0,0:0:0:0:
173,296,66553,6,0,B|181:340|174:383,1,88.000002685547,8|0,1:0|0:0,0:0:0:0:
259,355,66928,1,0,1:0:0:0:
345,375,67115,2,0,B|334:329|342:286,1,88.000002685547,2|8,0:0|1:0,0:0:0:0:
259,253,67490,1,2,0:0:0:0:
259,253,67678,1,0,3:0:0:0:
216,120,73490,6,0,B|152:192|215:263,1,160,2|0,0:0|0:0,0:0:0:0:
296,264,74053,2,0,B|320:240|330:182,1,80,8|0,0:0|0:0,0:0:0:0:
296,120,74428,1,0,3:0:0:0:
408,240,74803,2,0,B|432:216|442:158,1,80,8|0,0:0|0:0,0:0:0:0:
408,96,75178,1,0,3:0:0:0:
256,192,75553,2,0,B|232:168|221:110,1,80,8|0,0:0|0:0,0:0:0:0:
296,88,75928,2,0,B|327:119|328:159,1,80,0|2,3:0|0:0,0:0:0:0:
296,336,76490,6,0,B|258:349|216:336,1,80,2|0,0:0|3:0,0:0:0:0:
256,264,76865,1,2,0:0:0:0:
216,192,77053,2,0,B|254:179|296:192,2,80,8|2|0,0:0|0:0|3:0,0:0:0:0:
64,272,77803,5,8,0:0:0:0:
136,296,77990,1,2,0:0:0:0:
64,304,78178,1,0,3:0:0:0:
64,112,78553,1,8,0:0:0:0:
136,88,78740,1,2,0:0:0:0:
64,80,78928,1,0,3:0:0:0:
328,152,79490,6,0,B|340:192|327:230,1,80,2|0,0:0|3:0,0:0:0:0:
256,192,79865,1,2,0:0:0:0:
184,230,80053,2,0,B|171:192|184:152,1,80,8|0,0:0|0:0,0:0:0:0:
200,72,80428,1,0,3:0:0:0:
328,152,80803,5,8,0:0:0:0:
368,80,80990,2,0,B|402:58|444:61,1,80,2|0,0:0|3:0,0:0:0:0:
184,40,81553,1,8,0:0:0:0:
144,112,81740,2,0,B|109:133|67:130,2,80,2|0|2,0:0|3:0|0:0,0:0:0:0:
185,241,82490,6,0,B|256:304|328:240,1,160,2|0,0:0|0:0,0:0:0:0:
256,192,83053,2,0,B|262:153|256:96,2,80,8|2|0,0:0|0:0|3:0,0:0:0:0:
185,325,83803,5,8,0:0:0:0:
117,368,83990,1,2,0:0:0:0:
51,322,84178,1,0,3:0:0:0:
327,325,84553,1,8,0:0:0:0:
395,368,84740,1,2,0:0:0:0:
461,322,84928,2,0,B|455:283|461:226,1,80,0|2,3:0|0:0,0:0:0:0:
384,262,85303,1,8,0:0:0:0:
384,262,85490,6,0,B|373:219|357:175,1,80,2|4,0:0|3:2,0:0:0:0:
356,105,85865,1,2,0:0:0:0:
298,49,86053,1,8,0:0:0:0:
219,34,86240,1,2,0:0:0:0:
145,67,86428,1,0,3:0:0:0:
145,67,86615,6,0,B|136:109|168:143,1,80,2|8,0:0|0:0,0:0:0:0:
165,224,86990,2,0,B|79:200|18:266,1,160,2|0,0:0|0:0,0:0:0:0:
32,344,87553,1,8,0:0:0:0:
107,368,87740,1,2,0:0:0:0:
183,342,87928,1,0,3:0:0:0:
231,273,88115,1,2,0:0:0:0:
231,273,88303,5,8,0:0:0:0:
301,311,88490,2,0,B|387:335|448:269,1,160,2|0,0:0|0:0,0:0:0:0:
461,191,89053,1,8,0:0:0:0:
382,204,89240,1,2,0:0:0:0:
320,152,89428,1,0,3:0:0:0:
300,74,89615,1,2,0:0:0:0:
300,74,89803,5,8,0:0:0:0:
377,92,89990,1,2,0:0:0:0:
320,152,90178,1,0,3:0:0:0:
212,310,90553,1,8,0:0:0:0:
135,292,90740,1,2,0:0:0:0:
192,232,90928,2,0,B|151:210|121:183,1,80,0|0,3:0|0:0,0:0:0:0:
169,119,91303,5,8,0:0:0:0:
110,61,91490,2,0,B|21:68|14:168,1,160,2|0,0:0|0:0,0:0:0:0:
24,248,92053,1,8,0:0:0:0:
81,303,92240,1,2,0:0:0:0:
159,286,92428,1,0,3:0:0:0:
106,226,92615,5,2,0:0:0:0:
81,303,92803,1,8,0:0:0:0:
134,362,92990,2,0,B|231:379|243:268,1,160,2|0,0:0|0:0,0:0:0:0:
193,211,93553,1,8,0:0:0:0:
239,145,93740,1,2,0:0:0:0:
196,77,93928,2,0,B|162:72|91:62,1,80,0|0,3:0|0:0,0:0:0:0:
49,109,94303,1,8,0:0:0:0:
328,13,94678,5,0,3:0:0:0:
405,37,94865,1,2,0:0:0:0:
405,117,95053,1,8,0:0:0:0:
328,142,95240,1,2,0:0:0:0:
281,77,95428,1,0,3:0:0:0:
96,183,95803,5,8,0:0:0:0:
96,183,95990,1,2,0:0:0:0:
112,272,96178,5,0,3:0:0:0:
168,120,96553,1,8,0:0:0:0:
256,288,96928,1,0,3:0:0:0:
348,131,97303,2,0,B|440:112|440:112|532:203,1,191.999994140625,8|2,0:0|0:0,0:0:0:0:
118,362,99178,6,0,B|186:345|182:395|257:374,1,132.00000402832,4|0,1:2|0:0,0:0:0:0:
265,348,99553,2,0,L|274:260,1,88.000002685547,8|0,1:0|0:0,0:0:0:0:
233,181,99928,1,0,1:0:0:0:
170,242,100115,1,2,0:0:0:0:
101,186,100303,1,8,1:0:0:0:
101,186,100678,6,0,P|82:230|110:271,1,88.000002685547,0|0,1:0|0:0,0:0:0:0:
194,171,101053,2,0,P|222:210|272:206,1,88.000002685547,8|0,1:0|0:0,0:0:0:0:
240,95,101428,1,0,1:0:0:0:
153,99,101615,1,2,0:0:0:0:
192,21,101803,1,8,1:0:0:0:
153,99,101990,5,2,0:0:0:0:
328,83,102365,1,2,0:0:0:0:
155,244,102740,1,2,0:0:0:0:
347,229,103115,1,2,0:0:0:0:
155,244,103490,6,0,P|150:300|170:356,1,88.000002685547,2|0,0:0|1:0,0:0:0:0:
241,280,103865,1,2,0:0:0:0:
370,130,104240,6,0,P|375:186|355:242,1,88.000002685547,2|0,0:0|1:0,0:0:0:0:
278,211,104615,2,0,P|273:155|293:99,2,88.000002685547,2|8|0,0:0|1:0|0:0,0:0:0:0:
367,248,105178,6,0,P|436:249|461:188,1,132.00000402832,0|0,1:0|0:0,0:0:0:0:
500,165,105553,2,0,P|474:107|422:98,1,88.000002685547,8|0,1:0|0:0,0:0:0:0:
382,159,105928,1,0,1:0:0:0:
322,54,106115,1,2,0:0:0:0:
253,153,106303,1,8,1:0:0:0:
253,153,106678,6,0,P|207:152|152:148,1,88.000002685547,0|0,1:0|0:0,0:0:0:0:
179,236,107053,2,0,P|135:235|91:232,1,88.000002685547,8|0,1:0|0:0,0:0:0:0:
65,316,107428,1,0,1:0:0:0:
141,359,107615,1,2,0:0:0:0:
226,337,107803,1,8,1:0:0:0:
264,258,107990,6,0,P|309:262|371:262,1,88.000002685547,2|0,0:0|1:0,0:0:0:0:
359,168,108365,2,0,P|315:167|271:163,1,88.000002685547,2|8,0:0|1:0,0:0:0:0:
433,217,108740,1,2,0:0:0:0:
195,207,109115,1,2,0:0:0:0:
397,72,109490,6,0,P|353:68|309:67,1,88.000002685547,2|0,0:0|1:0,0:0:0:0:
302,162,109865,2,0,P|345:162|389:166,1,88.000002685547,2|8,0:0|1:0,0:0:0:0:
467,129,110240,1,2,0:0:0:0:
230,112,110615,1,2,0:0:0:0:
156,51,110803,5,8,1:0:0:0:
156,51,111178,2,0,B|132:155|29:186|29:186|77:289|113:312|113:312|168:298|196:346,1,440.000013427735,4|0,1:2|0:0,0:0:0:0:
256,279,112303,1,8,1:0:0:0:
319,341,112490,2,0,B|343:297|398:311|398:311|434:288|482:185|482:185|379:154|355:50,1,440.000013427735,2|0,0:0|1:0,0:0:0:0:
127,95,113990,5,2,0:0:0:0:
217,119,114178,2,0,B|233:183|192:260,1,132.00000402832,0|0,1:0|0:0,0:0:0:0:
182,274,114553,2,0,B|219:301|286:308,1,88.000002685547,8|0,1:0|0:0,0:0:0:0:
322,375,114928,2,0,B|359:348|426:341,1,88.000002685547,0|0,1:0|0:0,0:0:0:0:
495,333,115303,1,8,1:0:0:0:
459,257,115490,2,0,B|414:232|413:184,1,88.000002685547,2|0,0:0|1:0,0:0:0:0:
485,130,115865,1,0,0:0:0:0:
485,130,116053,2,0,B|417:190|302:171,1,176.000005371094,8|0,1:0|1:0,0:0:0:0:
266,100,116615,1,0,0:0:0:0:
180,124,116803,5,8,1:0:0:0:
180,124,117178,2,0,P|62:270|180:260,1,440.000013427735,0|0,1:0|0:0,0:0:0:0:
256,192,118303,1,8,1:0:0:0:
332,124,118490,2,0,P|450:270|332:260,1,440.000013427735,2|0,0:0|1:0,0:0:0:0:
400,192,119615,5,0,0:0:0:0:
400,192,119803,1,8,1:0:0:0:
400,192,120178,2,0,B|421:343,2,143.999995605469,0|0|0,3:0|3:0|3:0,0:0:0:0:
400,192,121303,5,0,3:0:0:0:
322,203,121490,1,2,0:0:0:0:
104,267,121865,5,2,0:0:0:0:
182,256,122052,1,0,3:0:0:0:
361,176,122428,5,0,3:0:0:0:
145,284,122803,1,2,1:0:0:0:
145,284,122896,1,2,0:0:0:0:
145,284,122990,2,0,P|150:310|158:333,2,44.0000013427735,2|2|4,0:0|0:0|1:2,0:0:0:0:
377,253,123553,6,0,B|420:255|464:248,1,88.000002685547,8|0,1:0|0:0,0:0:0:0:
463,157,123928,2,0,B|420:155|376:162,1,88.000002685547,0|2,1:0|0:0,0:0:0:0:
376,252,124303,1,8,1:0:0:0:
376,252,124490,2,0,B|419:254|463:247,1,88.000002685547,2|0,0:0|1:0,0:0:0:0:
135,253,125053,2,0,B|92:255|48:248,1,88.000002685547,8|0,1:0|0:0,0:0:0:0:
49,157,125428,2,0,B|92:155|136:162,1,88.000002685547,0|2,1:0|0:0,0:0:0:0:
135,252,125803,1,8,1:0:0:0:
135,252,125990,2,0,B|92:254|48:247,1,88.000002685547,2|0,0:0|1:0,0:0:0:0:
324,138,126553,6,0,B|322:95|329:51,1,88.000002685547,8|0,1:0|0:0,0:0:0:0:
416,58,126928,2,0,B|418:101|411:145,1,88.000002685547,0|2,1:0|0:0,0:0:0:0:
324,138,127303,1,8,1:0:0:0:
324,138,127490,2,0,B|322:95|329:51,1,88.000002685547,2|0,0:0|1:0,0:0:0:0:
188,246,128053,6,0,B|190:289|183:333,1,88.000002685547,8|0,1:0|0:0,0:0:0:0:
98,358,128428,1,0,1:0:0:0:
18,321,128615,2,0,B|16:278|23:234,1,88.000002685547,2|8,0:0|1:0,0:0:0:0:
109,214,128990,1,2,0:0:0:0:
109,214,129178,1,0,3:0:0:0:
271,281,129553,6,0,B|296:282|323:278,2,44.0000013427735,14|0|0,1:0|0:0|0:0,0:0:0:0:
362,190,129928,2,0,B|406:183|449:185,1,88.000002685547,0|2,1:0|0:0,0:0:0:0:
358,276,130303,1,8,1:0:0:0:
358,276,130490,2,0,B|314:283|271:281,1,88.000002685547,2|0,0:0|1:0,0:0:0:0:
241,103,131053,2,0,B|198:101|154:108,1,88.000002685547,8|0,1:0|0:0,0:0:0:0:
150,194,131428,2,0,B|106:201|63:199,1,88.000002685547,0|2,1:0|0:0,0:0:0:0:
154,108,131803,1,8,1:0:0:0:
154,108,131990,2,0,B|198:101|241:103,1,88.000002685547,2|0,0:0|1:0,0:0:0:0:
371,270,132553,6,0,B|378:226|376:183,1,88.000002685547,8|0,1:0|0:0,0:0:0:0:
481,194,132928,2,0,B|474:238|476:281,1,88.000002685547,0|2,1:0|0:0,0:0:0:0:
371,270,133303,1,8,1:0:0:0:
371,270,133490,2,0,B|378:226|376:183,1,88.000002685547,2|0,0:0|1:0,0:0:0:0:
141,114,134053,6,0,B|134:158|136:201,1,88.000002685547,8|0,1:0|0:0,0:0:0:0:
138,297,134428,1,0,1:0:0:0:
46,349,134615,2,0,B|53:305|51:262,1,88.000002685547,2|8,0:0|1:0,0:0:0:0:
11,187,134990,1,2,0:0:0:0:
11,187,135178,1,4,3:2:0:0:
256,192,145678,12,8,151303,1:0:0:0:
98,110,151678,6,0,P|110:295|338:347,1,440.000013427735,4|0,1:2|0:0,0:0:0:0:
327,263,152803,1,8,1:0:0:0:
414,274,152990,2,0,P|402:89|174:37,1,440.000013427735,2|0,0:0|1:0,0:0:0:0:
35,201,154490,5,2,0:0:0:0:
64,301,154678,2,0,B|135:280|131:198,1,132.00000402832,0|0,1:0|0:0,0:0:0:0:
141,177,155053,2,0,B|181:207|238:216,1,88.000002685547,8|0,1:0|0:0,0:0:0:0:
210,307,155428,2,0,B|250:337|307:346,1,88.000002685547,0|0,1:0|0:0,0:0:0:0:
370,307,155803,1,8,1:0:0:0:
449,343,155990,2,0,B|512:269|479:170,1,176.000005371094,2|0,0:0|0:0,0:0:0:0:
488,89,156553,2,0,B|414:26|315:59,1,176.000005371094,8|0,1:0|1:0,0:0:0:0:
256,108,157115,1,0,0:0:0:0:
188,56,157303,5,8,1:0:0:0:
188,56,157678,2,0,B|137:90|135:170|200:211|255:192|255:192|313:173|377:220|370:296|322:329,1,440.000013427735,0|0,1:0|0:0,0:0:0:0:
256,276,158803,1,8,1:0:0:0:
190,329,158990,2,0,B|142:296|135:220|199:173|257:192|257:192|312:211|377:170|375:90|324:56,1,440.000013427735,2|0,0:0|1:0,0:0:0:0:
256,108,160115,5,0,0:0:0:0:
256,108,160303,1,8,1:0:0:0:
256,108,160678,2,0,B|102:118,2,143.999995605469,0|0|0,3:0|3:0|3:0,0:0:0:0:
256,108,161803,5,0,3:0:0:0:
255,189,161990,1,2,0:0:0:0:
94,171,162365,5,2,0:0:0:0:
150,227,162552,1,0,3:0:0:0:
39,308,162928,5,0,3:0:0:0:
235,142,163303,5,2,1:0:0:0:
235,142,163396,1,2,0:0:0:0:
235,142,163490,2,0,L|270:147,2,35.9999989013672,2|2|4,0:0|0:0|1:2,0:0:0:0:
365,380,164053,6,0,B|371:335|370:292,1,88.000002685547,8|0,1:0|0:0,0:0:0:0:
458,298,164428,1,0,1:0:0:0:
463,210,164615,1,2,0:0:0:0:
375,204,164803,1,8,1:0:0:0:
371,293,164990,2,0,B|372:336|365:380,1,88.000002685547,2|0,0:0|1:0,0:0:0:0:
146,380,165553,6,0,B|139:335|140:292,1,88.000002685547,8|0,1:0|0:0,0:0:0:0:
54,298,165928,1,0,1:0:0:0:
49,210,166115,1,2,0:0:0:0:
137,204,166303,1,8,1:0:0:0:
141,293,166490,2,0,B|139:336|146:380,1,88.000002685547,2|0,0:0|1:0,0:0:0:0:
145,121,167053,6,0,B|101:113|58:115,1,88.000002685547,8|0,1:0|0:0,0:0:0:0:
59,26,167428,1,0,1:0:0:0:
146,31,167615,1,2,0:0:0:0:
59,26,167803,1,8,1:0:0:0:
57,115,167990,2,0,B|100:113|143:120,1,88.000002685547,2|0,0:0|1:0,0:0:0:0:
368,264,168553,6,0,B|411:271|454:269,1,88.000002685547,8|0,1:0|0:0,0:0:0:0:
451,357,168928,1,0,1:0:0:0:
354,352,169115,2,0,B|309:344|266:345,1,88.000002685547,2|8,0:0|1:0,0:0:0:0:
273,248,169490,1,2,0:0:0:0:
273,248,169678,1,0,3:0:0:0:
388,48,170053,5,14,1:0:0:0:
388,48,170146,1,2,0:0:0:0:
388,48,170240,1,2,0:0:0:0:
384,137,170428,1,0,1:0:0:0:
471,142,170615,1,2,0:0:0:0:
476,54,170802,1,8,1:0:0:0:
388,48,170990,2,0,B|341:47|292:41,1,88.000002685547,2|0,0:0|1:0,0:0:0:0:
300,342,171553,6,0,B|341:337|388:336,1,88.000002685547,8|0,1:0|0:0,0:0:0:0:
384,247,171928,1,0,1:0:0:0:
471,242,172115,1,2,0:0:0:0:
476,330,172302,1,8,1:0:0:0:
388,336,172490,2,0,B|341:337|292:343,1,88.000002685547,2|0,0:0|1:0,0:0:0:0:
19,377,173053,6,0,B|26:333|24:290,1,88.000002685547,8|0,1:0|0:0,0:0:0:0:
126,293,173428,1,0,1:0:0:0:
119,380,173615,1,2,0:0:0:0:
126,293,173803,1,8,1:0:0:0:
24,290,173990,2,0,B|25:333|18:376,1,88.000002685547,2|0,0:0|1:0,0:0:0:0:
19,7,174553,6,0,B|26:50|24:93,1,88.000002685547,8|0,1:0|0:0,0:0:0:0:
122,85,174928,1,0,1:0:0:0:
82,164,175115,2,0,P|139:274|280:248,1,264.000008056641,2|4,0:0|1:2,0:0:0:0:
339,218,175865,5,2,0:0:0:0:
422,245,176053,2,0,L|420:342,1,88.000002685547,8|0,1:0|0:0,0:0:0:0:
346,381,176428,2,0,L|170:377,1,176.000005371094,0|8,1:0|1:0,0:0:0:0:
108,313,176990,5,2,0:0:0:0:
108,313,177365,1,0,0:0:0:0:
170,377,177553,2,0,L|260:334,1,88.000002685547,8|0,1:0|0:0,0:0:0:0:
318,268,177928,2,0,L|154:201,1,176.000005371094,0|8,1:0|1:0,0:0:0:0:
73,172,178490,5,2,0:0:0:0:
73,172,178865,1,0,0:0:0:0:
154,201,179053,2,0,L|150:306,1,88.000002685547,8|0,1:0|0:0,0:0:0:0:
241,288,179428,2,0,L|85:370,1,176.000005371094,0|8,1:0|1:0,0:0:0:0:
45,291,179990,5,2,0:0:0:0:
45,291,180365,1,0,0:0:0:0:
85,370,180553,2,0,L|198:369,1,88.000002685547,8|0,1:0|0:0,0:0:0:0:
242,314,180928,2,0,L|377:312,1,132.00000402832,0|0,1:0|0:0,0:0:0:0:
405,343,181303,5,8,1:0:0:0:
492,190,181678,2,0,P|407:71|125:70,1,440.000013427735,4|0,1:2|0:0,0:0:0:0:
71,126,182803,1,8,1:0:0:0:
20,194,182990,2,0,P|105:313|387:314,1,440.000013427735,2|0,0:0|1:0,0:0:0:0:
441,258,184115,1,0,0:0:0:0:
441,258,184303,1,8,1:0:0:0:
387,188,184490,5,2,0:0:0:0:
387,188,184865,1,0,0:0:0:0:
329,254,185053,2,0,L|360:357,1,88.000002685547,8|0,1:0|0:0,0:0:0:0:
271,367,185428,2,0,L|92:363,1,176.000005371094,0|8,1:0|1:0,0:0:0:0:
51,278,185990,6,0,P|27:222|42:196,1,88.000002685547,2|0,0:0|1:0,0:0:0:0:
124,139,186365,2,0,P|184:146|199:172,1,88.000002685547,2|8,0:0|1:0,0:0:0:0:
207,271,186740,2,0,P|170:319|140:319,1,88.000002685547,2|0,0:0|1:0,0:0:0:0:
50,277,187115,2,0,P|53:161|153:126,1,220.000006713867,2|0,0:0|0:0,0:0:0:0:
170,94,187678,6,0,L|277:120,1,88.000002685547,4|2,1:2|0:0,0:0:0:0:
330,68,188053,1,8,1:0:0:0:
349,159,188240,2,0,P|337:250|397:326,1,176.000005371094,2|0,0:0|0:0,0:0:0:0:
456,269,188803,1,8,1:0:0:0:
382,316,188990,2,0,P|296:332|206:369,1,176.000005371094,2|0,0:0|0:0,0:0:0:0:
186,280,189553,1,8,1:0:0:0:
214,365,189740,2,0,P|300:349|390:312,1,176.000005371094,2|0,0:0|0:0,0:0:0:0:
420,236,190303,1,8,1:0:0:0:
343,193,190490,5,2,0:0:0:0:
343,193,190865,1,0,0:0:0:0:
426,148,191053,2,0,L|445:61,1,88.000002685547,8|0,1:0|0:0,0:0:0:0:
359,41,191428,2,0,L|158:78,1,176.000005371094,0|8,1:0|1:0,0:0:0:0:
83,52,191990,6,0,P|79:120|116:144,1,88.000002685547,2|0,0:0|1:0,0:0:0:0:
24,216,192365,2,0,P|80:253|120:233,1,88.000002685547,2|8,0:0|1:0,0:0:0:0:
136,349,192740,2,0,P|196:318|199:274,1,88.000002685547,2|0,0:0|1:0,0:0:0:0:
307,318,193115,2,0,P|311:250|182:163,1,220.000006713867,2|0,0:0|0:0,0:0:0:0:
178,199,193678,6,0,L|76:208,1,88.000002685547,4|2,1:2|0:0,0:0:0:0:
31,272,194053,1,8,1:0:0:0:
112,305,194240,1,0,0:0:0:0:
42,359,194428,2,0,L|217:343,1,176.000005371094,0|8,1:0|1:0,0:0:0:0:
304,338,194990,5,2,0:0:0:0:
304,338,195365,1,0,0:0:0:0:
217,343,195553,2,0,L|234:251,1,88.000002685547,8|0,1:0|0:0,0:0:0:0:
321,251,195928,2,0,L|436:108,1,176.000005371094,0|8,1:0|1:0,0:0:0:0:
417,28,196490,5,2,0:0:0:0:
417,28,196865,1,0,0:0:0:0:
431,113,197053,2,0,L|341:123,1,88.000002685547,8|0,1:0|0:0,0:0:0:0:
291,51,197428,2,0,L|111:31,1,176.000005371094,0|8,1:0|1:0,0:0:0:0:
61,100,197990,1,2,0:0:0:0:
61,100,198178,1,4,1:2:0:0:
256,192,198271,12,0,202678,0:0:0:0:
