osu file format v14

[General]
AudioFilename: audio.mp3
AudioLeadIn: 0
PreviewTime: 99178
Countdown: 0
SampleSet: Soft
StackLeniency: 0.7
Mode: 0
LetterboxInBreaks: 0
EpilepsyWarning: 1
WidescreenStoryboard: 1

[Editor]
DistanceSpacing: 0.95
BeatDivisor: 4
GridSize: 16
TimelineZoom: 2

[Metadata]
Title:Freak the Freak Out (Nightcore Mix)
TitleUnicode:Freak the Freak Out (Nightcore Mix)
Artist:Victorious Cast feat. Victoria Justice
ArtistUnicode:Victorious Cast feat. Victoria Justice
Creator:AJT
Version:Easy
Source:Victorious
Tags:english pop dance sped up ver. nickelodeon Sonnyc Chanmann Sytho -Ady
BeatmapID:4206294
BeatmapSetID:1962243

[Difficulty]
HPDrainRate:2
CircleSize:3
OverallDifficulty:2
ApproachRate:4
SliderMultiplier:1.1
SliderTickRate:1

[Events]
//Background and Video events
0,0,"wallhaven-q632vd.jpg",0,0
//Break Periods
2,58878,60358
2,67878,72170
2,135378,139483
2,183940,184670
//Storyboard Layer 0 (Background)
//Storyboard Layer 1 (Fail)
//Storyboard Layer 2 (Pass)
//Storyboard Layer 3 (Foreground)
Sprite,Foreground,Centre,"lyrics\0044.png",187.5883,0 MY,1,69350,69549,240,231.9833 F,0,69350,69550,0,1 S,1,69350,69550,0.11,0.12 C,0,69450,69550,51,51,51,255,255,255 P,0,69550,,A F,0,70470,70670,1,0 S,1,70470,70670,0.12,0.11 C,0,70570,70670,255,255,255,153,153,153
Sprite,Foreground,Centre,"lyrics\0069.png",208.8183,0 F,0,69350,69550,0,1 S,1,69350,69550,0.11,0.12 MY,1,69350,69551,240,232.6983 C,0,69450,69550,51,51,51,255,255,255 P,0,69550,,A F,0,70470,70670,1,0 S,1,70470,70670,0.12,0.11 C,0,70570,70670,255,255,255,153,153,153
Sprite,Foreground,Centre,"lyrics\0066.png",220.9733,0 F,0,69350,69550,0,1 S,1,69350,69550,0.11,0.12 MY,1,69350,69551,240,237.1533 C,0,69450,69550,51,51,51,255,255,255 P,0,69550,,A F,0,70470,70670,1,0 S,1,70470,70670,0.12,0.11 C,0,70570,70670,255,255,255,153,153,153
Sprite,Foreground,Centre,"lyrics\0066.png",235.3833,0 F,0,69350,69550,0,1 S,1,69350,69550,0.11,0.12 MY,1,69350,69551,240,237.1533 C,0,69450,69550,51,51,51,255,255,255 P,0,69550,,A F,0,70470,70670,1,0 S,1,70470,70670,0.12,0.11 C,0,70570,70670,255,255,255,153,153,153
Sprite,Foreground,Centre,"lyrics\0069.png",249.0783,0 MY,1,69350,69549,240,232.6983 F,0,69350,69550,0,1 S,1,69350,69550,0.11,0.12 C,0,69450,69550,51,51,51,255,255,255 P,0,69550,,A F,0,70470,70670,1,0 S,1,70470,70670,0.12,0.11 C,0,70570,70670,255,255,255,153,153,153
Sprite,Foreground,Centre,"lyrics\0063.png",263.1033,0 F,0,69350,69550,0,1 S,1,69350,69550,0.11,0.12 MY,1,69350,69551,240,237.3183 C,0,69450,69550,51,51,51,255,255,255 P,0,69550,,A F,0,70470,70670,1,0 S,1,70470,70670,0.12,0.11 C,0,70570,70670,255,255,255,153,153,153
Sprite,Foreground,Centre,"lyrics\0075.png",282.1884,0 F,0,69350,69550,0,1 S,1,69350,69550,0.11,0.12 MY,1,69350,69551,240,237.4833 C,0,69450,69550,51,51,51,255,255,255 P,0,69550,,A F,0,70470,70670,1,0 S,1,70470,70670,0.12,0.11 C,0,70570,70670,255,255,255,153,153,153
Sprite,Foreground,Centre,"lyrics\006c.png",299.6234,0 F,0,69350,69550,0,1 S,1,69350,69550,0.11,0.12 MY,1,69350,69551,240,230.9383 C,0,69450,69550,51,51,51,255,255,255 P,0,69550,,A F,0,70470,70670,1,0 S,1,70470,70670,0.12,0.11 C,0,70570,70670,255,255,255,153,153,153
Sprite,Foreground,Centre,"lyrics\0074.png",313.1533,0 MY,1,69350,69549,240,235.3933 F,0,69350,69550,0,1 S,1,69350,69550,0.11,0.12 C,0,69450,69550,51,51,51,255,255,255 P,0,69550,,A F,0,70470,70670,1,0 S,1,70470,70670,0.12,0.11 C,0,70570,70670,255,255,255,153,153,153
Sprite,Foreground,Centre,"lyrics\0079.png",328.0583,0 F,0,69350,69550,0,1 S,1,69350,69550,0.11,0.12 MY,1,69350,69551,240,243.3133 C,0,69450,69550,51,51,51,255,255,255 P,0,69550,,A F,0,70470,70670,1,0 S,1,70470,70670,0.12,0.11 C,0,70570,70670,255,255,255,153,153,153
Sprite,Foreground,Centre,"lyrics\0062.png",359.5733,0 F,0,69350,69550,0,1 S,1,69350,69550,0.11,0.12 MY,1,69350,69550,240,231.0483 C,0,69450,69550,51,51,51,255,255,255 P,0,69550,,A F,0,70470,70670,1,0 S,1,70470,70670,0.12,0.11 C,0,70570,70670,255,255,255,153,153,153
Sprite,Foreground,Centre,"lyrics\0079.png",378.2183,0 F,0,69350,69550,0,1 S,1,69350,69550,0.11,0.12 MY,1,69350,69551,240,243.3133 C,0,69450,69550,51,51,51,255,255,255 P,0,69550,,A F,0,70470,70670,1,0 S,1,70470,70670,0.12,0.11 C,0,70570,70670,255,255,255,153,153,153
Sprite,Foreground,Centre,"lyrics\0041.png",410.8333,0 F,0,69350,69550,0,1 S,1,69350,69550,0.11,0.12 MY,1,69350,69551,240,231.9833 C,0,69450,69550,51,51,51,255,255,255 P,0,69550,,A F,0,70470,70670,1,0 S,1,70470,70670,0.12,0.11 C,0,70570,70670,255,255,255,153,153,153
Sprite,Foreground,Centre,"lyrics\004a.png",432.9983,0 F,0,69350,69550,0,1 S,1,69350,69550,0.11,0.12 MY,1,69350,69550,240,236.1633 C,0,69450,69550,51,51,51,255,255,255 P,0,69550,,A F,0,70470,70670,1,0 S,1,70470,70670,0.12,0.11 C,0,70570,70670,255,255,255,153,153,153
Sprite,Foreground,Centre,"lyrics\0054.png",457.6383,0 MY,1,69350,69549,240,231.9833 F,0,69350,69550,0,1 S,1,69350,69550,0.11,0.12 C,0,69450,69550,51,51,51,255,255,255 P,0,69550,,A F,0,70470,70670,1,0 S,1,70470,70670,0.12,0.11 C,0,70570,70670,255,255,255,153,153,153
Sprite,Foreground,Centre,"lyrics\glow\0044.png",187.67,0 F,0,69350,69550,0,1 S,1,69350,69550,0.11,0.12 MY,1,69350,69551,240,231.955 P,0,69350,70670,A C,0,69450,69550,51,51,51,255,255,255 P,0,69550,,A F,0,70470,70670,1,0 S,1,70470,70670,0.12,0.11 C,0,70570,70670,255,255,255,153,153,153
Sprite,Foreground,Centre,"lyrics\glow\0069.png",208.845,0 F,0,69350,69550,0,1 S,1,69350,69550,0.11,0.12 MY,1,69350,69551,240,232.725 P,0,69350,70670,A C,0,69450,69550,51,51,51,255,255,255 P,0,69550,,A F,0,70470,70670,1,0 S,1,70470,70670,0.12,0.11 C,0,70570,70670,255,255,255,153,153,153
Sprite,Foreground,Centre,"lyrics\glow\0066.png",220.945,0 F,0,69350,69550,0,1 S,1,69350,69550,0.11,0.12 MY,1,69350,69551,240,237.125 P,0,69350,70670,A C,0,69450,69550,51,51,51,255,255,255 P,0,69550,,A F,0,70470,70670,1,0 S,1,70470,70670,0.12,0.11 C,0,70570,70670,255,255,255,153,153,153
Sprite,Foreground,Centre,"lyrics\glow\0066.png",235.355,0 F,0,69350,69550,0,1 S,1,69350,69550,0.11,0.12 MY,1,69350,69550,240,237.125 P,0,69350,70670,A C,0,69450,69550,51,51,51,255,255,255 P,0,69550,,A F,0,70470,70670,1,0 S,1,70470,70670,0.12,0.11 C,0,70570,70670,255,255,255,153,153,153
Sprite,Foreground,Centre,"lyrics\glow\0069.png",249.105,0 MY,1,69350,69549,240,232.725 F,0,69350,69550,0,1 S,1,69350,69550,0.11,0.12 P,0,69350,70670,A C,0,69450,69550,51,51,51,255,255,255 P,0,69550,,A F,0,70470,70670,1,0 S,1,70470,70670,0.12,0.11 C,0,70570,70670,255,255,255,153,153,153
Sprite,Foreground,Centre,"lyrics\glow\0063.png",262.91,0 F,0,69350,69550,0,1 S,1,69350,69550,0.11,0.12 MY,1,69350,69550,240,237.29 P,0,69350,70670,A C,0,69450,69550,51,51,51,255,255,255 P,0,69550,,A F,0,70470,70670,1,0 S,1,70470,70670,0.12,0.11 C,0,70570,70670,255,255,255,153,153,153
Sprite,Foreground,Centre,"lyrics\glow\0075.png",282.16,0 F,0,69350,69550,0,1 S,1,69350,69550,0.11,0.12 MY,1,69350,69551,240,237.51 P,0,69350,70670,A C,0,69450,69550,51,51,51,255,255,255 P,0,69550,,A F,0,70470,70670,1,0 S,1,70470,70670,0.12,0.11 C,0,70570,70670,255,255,255,153,153,153
Sprite,Foreground,Centre,"lyrics\glow\006c.png",299.595,0 F,0,69350,69550,0,1 S,1,69350,69550,0.11,0.12 MY,1,69350,69550,240,230.91 P,0,69350,70670,A C,0,69450,69550,51,51,51,255,255,255 P,0,69550,,A F,0,70470,70670,1,0 S,1,70470,70670,0.12,0.11 C,0,70570,70670,255,255,255,153,153,153
Sprite,Foreground,Centre,"lyrics\glow\0074.png",313.015,0 F,0,69350,69550,0,1 S,1,69350,69550,0.11,0.12 MY,1,69350,69551,240,235.42 P,0,69350,70670,A C,0,69450,69550,51,51,51,255,255,255 P,0,69550,,A F,0,70470,70670,1,0 S,1,70470,70670,0.12,0.11 C,0,70570,70670,255,255,255,153,153,153
Sprite,Foreground,Centre,"lyrics\glow\0079.png",328.25,0 MY,1,69350,69549,240,243.56 F,0,69350,69550,0,1 S,1,69350,69550,0.11,0.12 P,0,69350,70670,A C,0,69450,69550,51,51,51,255,255,255 P,0,69550,,A F,0,70470,70670,1,0 S,1,70470,70670,0.12,0.11 C,0,70570,70670,255,255,255,153,153,153
Sprite,Foreground,Centre,"lyrics\glow\0062.png",359.655,0 MY,1,69350,69549,240,231.02 F,0,69350,69550,0,1 S,1,69350,69550,0.11,0.12 P,0,69350,70670,A C,0,69450,69550,51,51,51,255,255,255 P,0,69550,,A F,0,70470,70670,1,0 S,1,70470,70670,0.12,0.11 C,0,70570,70670,255,255,255,153,153,153
Sprite,Foreground,Centre,"lyrics\glow\0079.png",378.41,0 F,0,69350,69550,0,1 S,1,69350,69550,0.11,0.12 MY,1,69350,69550,240,243.56 P,0,69350,70670,A C,0,69450,69550,51,51,51,255,255,255 P,0,69550,,A F,0,70470,70670,1,0 S,1,70470,70670,0.12,0.11 C,0,70570,70670,255,255,255,153,153,153
Sprite,Foreground,Centre,"lyrics\glow\0041.png",410.915,0 F,0,69350,69550,0,1 S,1,69350,69550,0.11,0.12 MY,1,69350,69550,240,231.955 P,0,69350,70670,A C,0,69450,69550,51,51,51,255,255,255 P,0,69550,,A F,0,70470,70670,1,0 S,1,70470,70670,0.12,0.11 C,0,70570,70670,255,255,255,153,153,153
Sprite,Foreground,Centre,"lyrics\glow\004a.png",433.135,0 F,0,69350,69550,0,1 S,1,69350,69550,0.11,0.12 MY,1,69350,69550,240,236.245 P,0,69350,70670,A C,0,69450,69550,51,51,51,255,255,255 P,0,69550,,A F,0,70470,70670,1,0 S,1,70470,70670,0.12,0.11 C,0,70570,70670,255,255,255,153,153,153
Sprite,Foreground,Centre,"lyrics\glow\0054.png",457.445,0 F,0,69350,69550,0,1 S,1,69350,69550,0.11,0.12 MY,1,69350,69551,240,231.955 P,0,69350,70670,A C,0,69450,69550,51,51,51,255,255,255 P,0,69550,,A F,0,70470,70670,1,0 S,1,70470,70670,0.12,0.11 C,0,70570,70670,255,255,255,153,153,153
//Storyboard Layer 4 (Overlay)
//Storyboard Sound Samples

[TimingPoints]
178,375,4,2,1,75,1,0
11990,-100,4,2,1,75,0,0
37678,375,4,2,1,90,1,1
37678,-90.9090909090909,4,2,1,90,0,1
49678,-90.9090909090909,4,2,1,90,0,1
58678,-100,4,2,1,75,0,0
61303,-100,4,2,1,75,0,0
61678,-90.9090909090909,4,2,1,90,0,1
67678,-100,4,2,1,75,0,0
99178,375,4,2,1,90,1,1
99178,-90.9090909090909,4,2,1,90,0,1
111178,-90.9090909090909,4,2,1,90,0,1
120178,-100,4,2,1,75,0,0
122803,-100,4,2,1,75,0,0
123178,-90.9090909090909,4,2,1,90,0,1
129178,-100,4,2,1,75,0,0
129553,-90.9090909090909,4,2,1,90,0,1
135178,-100,4,2,1,80,0,0
140053,-100,4,2,1,80,0,0
140803,-100,4,2,1,80,0,0
141553,-100,4,2,1,80,0,0
145678,375,4,2,1,60,1,0
145678,-100,4,2,1,60,0,0
151678,-90.9090909090909,4,2,1,100,0,1
152990,-90.9090909090909,4,2,1,100,0,1
153928,-90.9090909090909,4,2,1,100,0,1
160678,-100,4,2,1,100,0,0
163303,-100,4,2,1,100,0,0
163678,-90.9090909090909,4,2,1,100,0,1
169678,-100,4,2,1,100,0,0
170053,-90.9090909090909,4,2,1,100,0,1
175678,-90.9090909090909,4,2,1,100,0,1
198178,375,4,2,1,100,1,0
198178,-100,4,2,1,100,0,0
200053,-100,4,2,1,50,0,0

[Colours]
Combo1 : 255,128,0
Combo2 : 0,0,255
Combo3 : 18,124,255
Combo4 : 255,0,128

[HitObjects]
80,64,11990,6,0,P|73:167|123:203,1,165,6|8,0:0|0:0,0:0:0:0:
224,197,12928,1,0,3:0:0:0:
316,257,13303,2,0,L|328:380,1,110,8|0,0:0|3:0,0:0:0:0:
435,354,14053,2,0,L|423:231,1,110,8|0,0:0|3:0,0:0:0:0:
436,80,14990,6,0,B|362:61|345:114|274:97,1,165,2|8,0:0|0:0,0:0:0:0:
194,22,15928,1,0,3:0:0:0:
119,102,16303,2,0,L|131:225,1,110,8|0,0:0|3:0,0:0:0:0:
25,247,17053,2,0,L|37:370,1,110,8|0,0:0|3:0,0:0:0:0:
142,381,17803,1,8,0:0:0:0:
243,338,18178,6,0,L|231:215,2,110,0|8|0,3:0|0:0|3:0,0:0:0:0:
352,328,19303,1,8,0:0:0:0:
352,328,19678,1,0,3:0:0:0:
465,316,20053,1,8,0:0:0:0:
465,316,20428,1,0,3:0:0:0:
359,189,20990,6,0,B|285:207|268:154|197:171,1,165,2|8,0:0|0:0,0:0:0:0:
88,185,21928,1,0,3:0:0:0:
95,75,22303,2,0,L|218:63,1,110,8|0,0:0|3:0,0:0:0:0:
307,24,23053,1,8,0:0:0:0:
397,87,23428,1,0,3:0:0:0:
301,221,23990,6,0,P|294:324|344:360,1,165,6|8,0:0|0:0,0:0:0:0:
403,270,24928,1,0,3:0:0:0:
387,161,25303,1,8,0:0:0:0:
430,60,25678,6,0,P|373:55|318:73,1,110,0|8,3:0|0:0,0:0:0:0:
234,136,26428,1,0,3:0:0:0:
196,32,26803,1,8,0:0:0:0:
106,98,27179,2,0,P|53:113|0:108,2,110,0|8|0,3:0|0:0|3:0,0:0:0:0:
196,32,28303,1,8,0:0:0:0:
196,32,28678,1,0,3:0:0:0:
234,136,29053,1,8,0:0:0:0:
234,136,29428,1,0,3:0:0:0:
191,295,29990,6,0,P|112:306|17:315,1,165,2|8,0:0|0:0,0:0:0:0:
6,206,30928,1,0,3:0:0:0:
157,141,31490,2,0,P|235:152|330:161,1,165,2|8,0:0|0:0,0:0:0:0:
342,52,32428,1,0,3:0:0:0:
342,52,32803,1,8,0:0:0:0:
424,125,33178,6,0,L|435:240,1,110,0|8,3:0|0:0,0:0:0:0:
326,253,33928,2,0,L|315:138,1,110,0|8,3:0|0:0,0:0:0:0:
206,155,34678,1,0,3:0:0:0:
214,264,35053,1,8,0:0:0:0:
104,277,35428,1,0,3:0:0:0:
90,167,35803,1,8,0:0:0:0:
512,0,37678,6,0,P|507:61|484:138,1,121.000003692627,4|8,1:2|1:0,0:0:0:0:
385,174,38428,1,0,1:0:0:0:
275,123,38803,1,8,1:0:0:0:
177,195,39178,2,0,P|181:256|204:333,1,121.000003692627,0|8,1:0|1:0,0:0:0:0:
304,369,39928,1,0,1:0:0:0:
414,318,40303,1,8,1:0:0:0:
402,197,40678,6,0,B|308:127|234:190|159:120,3,242.000007385254,0|0|0|0,1:0|1:0|1:0|1:0,0:0:0:0:
118,24,43303,1,8,1:0:0:0:
0,0,43678,6,0,P|4:61|27:138,1,121.000003692627,0|8,1:0|1:0,0:0:0:0:
127,174,44428,1,0,1:0:0:0:
237,123,44803,1,8,1:0:0:0:
335,195,45178,1,0,1:0:0:0:
315,313,45553,1,8,1:0:0:0:
208,369,45928,1,0,1:0:0:0:
98,318,46303,1,8,1:0:0:0:
110,197,46678,6,0,B|203:127|277:190|352:120,3,242.000007385254,0|0|0|0,1:0|1:0|1:0|1:0,0:0:0:0:
311,13,49303,1,8,1:0:0:0:
201,64,49678,1,4,1:2:0:0:
256,192,49865,12,2,51740,0:0:0:0:
335,189,52678,6,0,P|330:127|307:50,1,121.000003692627,0|8,1:0|1:0,0:0:0:0:
208,15,53428,1,0,1:0:0:0:
49,102,53990,2,0,P|54:180|83:278,1,181.500005538941,2|8,0:0|1:0,0:0:0:0:
176,357,54928,1,0,1:0:0:0:
249,260,55303,1,8,1:0:0:0:
198,150,55678,1,0,1:0:0:0:
256,192,55865,12,0,58678,3:0:0:0:
258,154,61678,5,4,1:2:0:0:
382,171,62053,1,8,1:0:0:0:
382,171,62428,2,0,P|365:49|251:48,1,242.000007385254,0|0,1:0|1:0,0:0:0:0:
258,154,63553,1,8,1:0:0:0:
138,137,63928,2,0,P|155:259|269:260,1,242.000007385254,0|0,1:0|1:0,0:0:0:0:
258,154,65053,1,8,1:0:0:0:
382,171,65428,2,0,P|365:49|251:48,1,242.000007385254,0|0,1:0|1:0,0:0:0:0:
258,154,66553,1,8,1:0:0:0:
250,274,66928,2,0,B|141:288|150:181|22:187,1,242.000007385254,0|0,1:0|3:0,0:0:0:0:
432,320,73490,6,0,P|439:217|389:181,1,165,6|8,0:0|0:0,0:0:0:0:
288,187,74428,1,0,3:0:0:0:
196,127,74803,1,8,0:0:0:0:
185,17,75178,1,0,3:0:0:0:
77,30,75553,2,0,P|71:85|89:153,1,110,8|0,0:0|3:0,0:0:0:0:
76,304,76490,6,0,B|150:323|167:270|238:287,1,165,2|8,0:0|0:0,0:0:0:0:
318,362,77428,1,0,3:0:0:0:
393,282,77803,1,8,0:0:0:0:
382,172,78178,1,0,3:0:0:0:
487,137,78553,2,0,L|475:14,1,110,8|0,0:0|3:0,0:0:0:0:
370,3,79303,1,8,0:0:0:0:
269,46,79678,6,0,L|281:169,2,110,0|8|0,3:0|0:0|3:0,0:0:0:0:
168,1,80803,1,8,0:0:0:0:
61,28,81178,1,0,3:0:0:0:
21,130,81553,1,8,0:0:0:0:
83,222,81928,1,0,3:0:0:0:
212,120,82490,6,0,B|286:138|303:85|374:102,1,165,2|8,0:0|0:0,0:0:0:0:
424,199,83428,1,0,3:0:0:0:
417,309,83803,2,0,L|294:321,1,110,8|0,0:0|3:0,0:0:0:0:
205,360,84553,1,8,0:0:0:0:
115,297,84928,1,0,3:0:0:0:
211,163,85490,6,0,P|218:60|168:24,1,165,6|8,0:0|0:0,0:0:0:0:
109,114,86428,1,0,3:0:0:0:
58,211,86803,1,8,0:0:0:0:
81,318,87178,6,0,P|138:323|193:305,1,110,0|8,3:0|0:0,0:0:0:0:
286,369,87928,1,0,3:0:0:0:
286,369,88303,1,8,0:0:0:0:
381,313,88678,2,0,P|386:256|368:201,1,110,0|8,3:0|0:0,0:0:0:0:
260,211,89428,1,0,3:0:0:0:
158,184,89803,1,8,0:0:0:0:
158,184,90178,1,0,3:0:0:0:
157,78,90553,1,8,0:0:0:0:
157,78,90928,1,0,3:0:0:0:
321,89,91490,6,0,P|400:78|495:69,1,165,2|8,0:0|0:0,0:0:0:0:
506,178,92428,1,0,3:0:0:0:
355,243,92990,2,0,P|277:232|182:223,1,165,2|8,0:0|0:0,0:0:0:0:
170,332,93928,1,0,3:0:0:0:
170,332,94303,1,8,0:0:0:0:
88,259,94678,6,0,L|77:144,1,110,0|8,3:0|0:0,0:0:0:0:
186,131,95428,2,0,L|197:246,1,110,0|8,3:0|0:0,0:0:0:0:
306,229,96178,1,0,3:0:0:0:
298,120,96553,1,8,0:0:0:0:
408,107,96928,1,0,3:0:0:0:
422,217,97303,1,8,0:0:0:0:
0,384,99178,6,0,P|4:322|27:245,1,121.000003692627,4|8,1:2|1:0,0:0:0:0:
127,210,99928,1,0,1:0:0:0:
237,261,100303,1,8,1:0:0:0:
335,189,100678,2,0,P|330:127|307:50,1,121.000003692627,0|8,1:0|1:0,0:0:0:0:
208,15,101428,1,0,1:0:0:0:
98,66,101803,1,8,1:0:0:0:
110,187,102178,6,0,B|203:256|277:193|352:263,3,242.000007385254,0|0|0|0,1:0|1:0|1:0|1:0,0:0:0:0:
394,360,104803,1,8,1:0:0:0:
512,384,105178,6,0,P|507:322|484:245,1,121.000003692627,0|8,1:0|1:0,0:0:0:0:
385,210,105928,1,0,1:0:0:0:
275,261,106303,1,8,1:0:0:0:
177,189,106678,1,0,1:0:0:0:
196,70,107053,1,8,1:0:0:0:
304,15,107428,1,0,1:0:0:0:
414,66,107803,1,8,1:0:0:0:
402,187,108178,6,0,B|308:256|234:193|159:263,3,242.000007385254,0|0|0|0,1:0|1:0|1:0|1:0,0:0:0:0:
201,371,110803,1,8,1:0:0:0:
82,344,111178,1,4,1:2:0:0:
256,192,111365,12,2,113240,0:0:0:0:
177,195,114178,6,0,P|181:256|204:333,1,121.000003692627,0|8,1:0|1:0,0:0:0:0:
304,369,114928,1,0,1:0:0:0:
463,282,115490,2,0,P|457:203|428:105,1,181.500005538941,2|8,0:0|1:0,0:0:0:0:
336,27,116428,1,0,1:0:0:0:
263,124,116803,1,8,1:0:0:0:
314,234,117178,1,0,1:0:0:0:
256,192,117365,12,0,120178,3:0:0:0:
254,230,123178,5,4,1:2:0:0:
130,213,123553,1,8,1:0:0:0:
130,213,123928,2,0,P|147:335|261:336,1,242.000007385254,0|0,1:0|1:0,0:0:0:0:
254,230,125053,1,8,1:0:0:0:
374,247,125428,2,0,P|357:125|243:124,1,242.000007385254,0|0,1:0|1:0,0:0:0:0:
254,230,126553,1,8,1:0:0:0:
130,213,126928,2,0,P|147:335|261:336,1,242.000007385254,0|0,1:0|1:0,0:0:0:0:
254,230,128053,1,8,1:0:0:0:
254,230,128428,2,0,P|336:164|248:100,1,242.000007385254,0|0,1:0|3:0,0:0:0:0:
136,131,129553,5,14,1:0:0:0:
12,148,129927,2,0,P|29:26|143:25,1,242.000007385254,0|0,1:0|1:0,0:0:0:0:
136,131,131052,1,8,1:0:0:0:
256,114,131427,2,0,P|239:236|125:237,1,242.000007385254,0|0,1:0|1:0,0:0:0:0:
136,131,132552,1,8,1:0:0:0:
12,148,132927,2,0,P|29:26|143:25,1,242.000007385254,0|0,1:0|1:0,0:0:0:0:
136,131,134052,1,8,1:0:0:0:
145,251,134428,2,0,B|253:265|245:158|373:164,1,242.000007385254,0|0,1:0|3:0,0:0:0:0:
94,245,140803,5,10,3:1:0:0:
94,245,141178,2,0,L|77:128,1,110,4|8,1:2|1:0,0:0:0:0:
161,64,141928,2,0,L|278:47,1,110,0|8,1:0|1:0,0:0:0:0:
356,115,142678,2,0,L|373:232,1,110,0|8,1:0|1:0,0:0:0:0:
289,296,143428,2,0,L|172:313,1,110,0|8,1:0|1:0,0:0:0:0:
94,245,144178,5,0,1:0:0:0:
78,136,144553,1,8,1:0:0:0:
161,64,144928,1,0,1:0:0:0:
269,48,145303,1,8,1:0:0:0:
356,115,145678,1,4,3:2:0:0:
256,192,145865,12,0,149803,3:2:0:0:
256,192,151303,5,8,1:0:0:0:
256,192,151678,1,4,1:2:0:0:
256,192,151865,12,2,153740,0:0:0:0:
335,195,154678,6,0,P|330:256|307:333,1,121.000003692627,0|8,1:0|1:0,0:0:0:0:
208,369,155428,1,0,1:0:0:0:
49,282,155990,2,0,P|54:203|83:105,1,181.500005538941,2|8,0:0|1:0,0:0:0:0:
176,27,156928,1,0,1:0:0:0:
249,124,157303,1,8,1:0:0:0:
198,234,157678,1,0,1:0:0:0:
256,192,157865,12,0,160678,3:0:0:0:
258,230,163678,5,4,1:2:0:0:
382,213,164053,1,8,1:0:0:0:
382,213,164428,2,0,P|365:335|251:336,1,242.000007385254,0|0,1:0|1:0,0:0:0:0:
258,230,165553,1,8,1:0:0:0:
138,247,165928,2,0,P|155:125|269:124,1,242.000007385254,0|0,1:0|1:0,0:0:0:0:
258,230,167053,1,8,1:0:0:0:
382,213,167428,2,0,P|365:335|251:336,1,242.000007385254,0|0,1:0|1:0,0:0:0:0:
258,230,168553,1,8,1:0:0:0:
258,230,168928,2,0,P|176:164|264:100,1,242.000007385254,0|0,1:0|3:0,0:0:0:0:
376,131,170053,5,14,1:0:0:0:
500,148,170427,2,0,P|483:26|369:25,1,242.000007385254,0|0,1:0|1:0,0:0:0:0:
376,131,171552,1,8,1:0:0:0:
256,114,171927,2,0,P|273:236|387:237,1,242.000007385254,0|0,1:0|1:0,0:0:0:0:
376,131,173052,1,8,1:0:0:0:
500,148,173427,2,0,P|483:26|369:25,1,242.000007385254,0|0,1:0|1:0,0:0:0:0:
376,131,174552,1,8,1:0:0:0:
272,81,174927,2,0,B|153:58|154:167|36:142,1,242.000007385254,0|4,1:0|1:2,0:0:0:0:
256,192,175865,12,8,179803,1:0:0:0:
256,192,181303,5,8,1:0:0:0:
256,192,181678,1,4,1:2:0:0:
256,192,181865,12,2,183740,0:0:0:0:
512,384,185990,6,0,P|507:322|484:245,1,121.000003692627,2|2,0:0|0:0,0:0:0:0:
398,189,186740,2,0,P|336:193|259:216,1,121.000003692627,2|2,0:0|0:0,0:0:0:0:
160,185,187490,6,0,P|155:123|118:-7,1,181.500005538941,6|8,0:0|1:0,0:0:0:0:
3,9,188428,1,0,1:0:0:0:
3,9,188803,1,8,1:0:0:0:
9,129,189178,1,0,1:0:0:0:
82,225,189553,2,0,P|143:220|220:197,1,121.000003692627,8|0,1:0|1:0,0:0:0:0:
314,165,190303,5,8,1:0:0:0:
308,285,190678,1,0,1:0:0:0:
428,294,191053,1,8,1:0:0:0:
437,173,191428,1,0,1:0:0:0:
263,118,191990,5,2,0:1:0:0:
229,1,192365,1,2,0:1:0:0:
114,39,192740,1,2,0:1:0:0:
148,154,193115,1,2,0:1:0:0:
1,260,193678,5,4,1:2:0:0:
256,192,193865,12,4,198178,1:2:0:0:
