osu file format v14

[General]
AudioFilename: audio.mp3
AudioLeadIn: 0
PreviewTime: 34919
Countdown: 0
SampleSet: Soft
StackLeniency: 0
Mode: 0
LetterboxInBreaks: 0
WidescreenStoryboard: 1

[Editor]
Bookmarks: 272,6122,11973,17824,20749,23675,35376,47078
DistanceSpacing: 1.4
BeatDivisor: 4
GridSize: 8
TimelineZoom: 2

[Metadata]
Title:Take a Hint feat. Victoria Justice & Elizabeth Gillies (Speed Up Ver.)
TitleUnicode:Take a Hint feat. Victoria Justice & Elizabeth Gillies (Speed Up Ver.)
Artist:Victorious Cast
ArtistUnicode:Victorious Cast
Creator:silento
Version:idk
Source:
Tags:Nickelodeon Original Soundtrack 2.0 More Music from the Hit TV Show Anime Nightcore English
BeatmapID:2085360
BeatmapSetID:996888

[Difficulty]
HPDrainRate:5
CircleSize:4
OverallDifficulty:8
ApproachRate:8
SliderMultiplier:1.8
SliderTickRate:1

[Events]
//Background and Video events
0,0,"bg.png",0,0
//Break Periods
//Storyboard Layer 0 (Background)
//Storyboard Layer 1 (Fail)
//Storyboard Layer 2 (Pass)
//Storyboard Layer 3 (Foreground)
//Storyboard Sound Samples

[TimingPoints]
272,365.673051724453,4,2,0,40,1,0
272,-200,4,2,0,40,0,0
6122,-100,4,2,0,70,0,0
11973,-100,4,2,0,55,0,0
20749,-44.4444444444445,4,2,0,50,0,0
21115,-50,4,2,0,46,0,0
21481,-57.1428571428571,4,2,0,42,0,0
21846,-66.6666666666667,4,2,0,38,0,0
22212,-80,4,2,0,34,0,0
22578,-100,4,2,0,26,0,0
22943,-133.333333333333,4,2,0,18,0,0
23309,-200,4,2,0,10,0,0
23675,-100,4,2,0,50,0,0
25137,-100,4,2,0,50,0,0
25320,-57.1428571428571,4,2,0,50,0,0
25503,-100,4,2,0,50,0,0
25686,-57.1428571428571,4,2,0,50,0,0
25869,-100,4,2,0,50,0,0
28063,-80,4,2,0,50,0,0
28245,-50,4,2,0,50,0,0
28428,-80,4,2,0,50,0,0
28611,-50,4,2,0,50,0,0
28795,-100,4,2,0,50,0,0
30988,-100,4,2,0,50,0,0
32451,-200,4,2,0,50,0,0
33913,-50,4,2,0,50,0,0
34279,-66.6666666666667,4,2,0,50,0,0
34645,-100,4,2,0,50,0,0
35010,-50,4,2,0,70,0,0
35193,-28.5714285714286,4,2,0,70,0,0
35376,-100,4,2,0,80,0,1
39764,-25,4,2,0,80,0,1
40130,-100,4,2,0,80,0,1
47078,-100,4,2,0,60,0,0

[HitObjects]
289,192,272,6,0,L|194:184,1,90,2|0,0:0|0:0,0:0:0:0:
388,148,820,1,0,0:0:0:0:
393,192,1003,1,0,0:0:0:0:
398,237,1186,1,0,0:0:0:0:
471,171,1369,1,0,0:0:0:0:
477,208,1551,1,0,0:0:0:0:
223,192,1734,6,0,L|318:184,1,90,2|0,0:0|0:0,0:0:0:0:
124,148,2282,1,0,0:0:0:0:
119,192,2465,1,0,0:0:0:0:
114,237,2648,1,0,0:0:0:0:
37,188,2831,1,4,0:0:0:0:
218,325,3197,6,0,P|251:343|299:319,1,90,2|0,0:0|0:0,0:0:0:0:
379,261,3745,1,0,0:0:0:0:
384,305,3928,1,0,0:0:0:0:
389,350,4111,1,0,0:0:0:0:
462,284,4294,1,0,0:0:0:0:
468,321,4476,1,0,0:0:0:0:
294,325,4660,6,0,P|261:343|213:319,1,90,2|0,0:0|0:0,0:0:0:0:
133,261,5208,1,0,0:0:0:0:
128,305,5391,1,0,0:0:0:0:
123,350,5574,1,0,0:0:0:0:
44,293,5757,1,4,0:0:0:0:
307,349,6122,6,0,P|308:247|322:181,1,135,0|0,1:3|0:0,0:0:0:0:
321,195,6488,1,8,0:0:0:0:
421,274,6671,1,8,0:0:0:0:
430,137,6854,5,0,1:3:0:0:
139,226,7036,2,0,P|137:193|153:156,1,45,8|0,0:0|0:0,0:0:0:0:
430,137,7219,5,0,0:0:0:0:
133,203,7402,2,0,P|135:180|145:160,1,45,8|0,0:0|0:0,0:0:0:0:
198,73,7585,6,0,P|96:74|30:88,1,135,0|0,1:3|0:0,0:0:0:0:
53,97,7951,1,8,0:0:0:0:
282,59,8133,1,8,0:0:0:0:
332,144,8316,1,0,1:3:0:0:
430,137,8499,1,8,0:0:0:0:
465,44,8682,1,4,0:0:0:0:
205,349,9048,6,0,P|204:247|190:181,1,135,0|0,1:3|0:0,0:0:0:0:
191,195,9414,1,8,0:0:0:0:
91,274,9597,1,8,0:0:0:0:
82,137,9780,5,0,1:3:0:0:
373,226,9962,2,0,P|375:193|359:156,1,45,8|0,0:0|0:0,0:0:0:0:
82,137,10145,5,0,0:0:0:0:
379,203,10328,2,0,P|376:180|366:160,1,45,8|0,0:0|0:0,0:0:0:0:
314,73,10511,6,0,P|416:74|482:88,1,135,0|0,1:3|0:0,0:0:0:0:
459,97,10877,1,8,0:0:0:0:
230,59,11059,1,8,0:0:0:0:
180,144,11242,1,0,1:3:0:0:
82,137,11425,1,8,0:0:0:0:
47,44,11607,1,8,0:0:0:0:
33,279,11973,5,0,1:2:0:0:
35,303,12156,1,0,0:3:0:0:
315,332,12339,5,8,0:0:0:0:
313,308,12522,1,0,0:3:0:0:
133,339,12704,5,0,1:3:0:0:
138,258,12887,1,0,0:3:0:0:
219,263,13070,1,8,0:0:0:0:
213,344,13253,1,0,0:3:0:0:
416,340,13436,5,0,1:3:0:0:
410,68,13619,1,0,0:3:0:0:
441,171,13801,2,0,L|357:164,1,45,8|0,0:0|0:0,0:0:0:0:
313,149,13984,2,0,L|229:142,1,45,8|0,0:0|0:0,0:0:0:0:
441,171,14167,6,0,L|486:175,1,45,0|0,0:3|0:0,0:0:0:0:
369,241,14350,1,8,0:0:0:0:
324,236,14441,1,8,0:0:0:0:
279,232,14532,1,8,0:0:0:0:
191,136,14716,1,8,0:0:0:0:
30,119,14898,5,0,1:2:0:0:
32,95,15081,1,0,0:3:0:0:
312,66,15264,5,8,0:0:0:0:
310,90,15447,1,0,0:3:0:0:
130,59,15629,5,0,1:3:0:0:
135,140,15812,1,0,0:3:0:0:
216,135,15995,1,8,0:0:0:0:
210,54,16178,1,0,0:3:0:0:
109,349,16361,5,0,1:3:0:0:
406,342,16544,1,0,0:3:0:0:
438,227,16726,2,0,L|354:234,1,45,8|0,0:0|0:0,0:0:0:0:
310,249,16909,2,0,L|226:256,1,45,0|0,0:3|0:0,0:0:0:0:
439,226,17092,6,0,L|483:222,1,45,0|0,1:3|0:0,0:0:0:0:
170,265,17275,1,8,0:0:0:0:
266,369,17458,1,8,0:0:0:0:
406,342,17641,1,8,0:0:0:0:
439,226,17824,5,0,1:3:0:0:
461,40,18007,1,0,0:3:0:0:
439,226,18189,1,8,0:0:0:0:
474,20,18372,1,0,0:3:0:0:
388,144,18555,2,0,P|381:100|381:55,2,90,0|0|8,1:3|0:3|0:0,0:0:0:0:
474,20,19104,1,0,0:3:0:0:
251,58,19286,5,0,1:3:0:0:
107,38,19469,1,0,0:3:0:0:
251,58,19652,1,8,0:0:0:0:
87,16,19835,1,0,0:3:0:0:
251,58,20018,5,0,1:3:0:0:
261,371,20201,1,8,0:0:0:0:
177,279,20384,5,8,0:0:0:0:
169,154,20566,1,8,0:0:0:0:
475,201,20749,6,0,L|457:0,1,202.500007724762,0|0,1:3|0:0,0:0:0:0:
367,40,21115,2,0,L|388:229,1,180,8|0,0:0|0:0,0:0:0:0:
45,160,21481,6,0,L|58:3,1,157.500001502037,0|0,1:3|0:0,0:0:0:0:
136,54,21846,2,0,L|122:213,1,135.000005149842,8|0,0:0|0:0,0:0:0:0:
32,256,22212,6,0,L|159:267,1,112.5,0|0,1:3|0:0,0:0:0:0:
164,347,22578,2,0,L|75:340,1,90,8|0,0:0|0:0,0:0:0:0:
408,296,22943,6,0,L|312:304,1,67.5000025749208,0|0,1:3|0:0,0:0:0:0:
336,376,23309,6,0,L|370:373,2,22.5,2|0|0,0:0|0:0|0:0,0:0:0:0:
252,338,23675,5,0,1:2:0:0:
252,338,23857,1,0,0:3:0:0:
232,256,24040,5,8,0:0:0:0:
272,256,24223,1,0,0:3:0:0:
208,176,24406,5,0,1:3:0:0:
288,176,24589,1,0,0:3:0:0:
320,96,24772,5,8,0:0:0:0:
176,96,24954,1,0,0:3:0:0:
56,208,25137,6,0,P|64:240|58:282,1,45,0|0,1:3|0:0,0:0:0:0:
48,200,25320,2,0,P|96:216|160:208,1,78.7500007510185,0|0,0:3|0:0,0:0:0:0:
456,208,25503,6,0,P|448:240|454:282,1,45,8|0,0:0|0:0,0:0:0:0:
464,200,25686,2,0,P|416:216|352:208,1,78.7500007510185,0|0,0:3|0:0,0:0:0:0:
248,32,25869,5,0,1:3:0:0:
248,32,26051,1,8,0:0:0:0:
248,32,26143,1,8,0:0:0:0:
248,32,26234,1,8,0:0:0:0:
248,32,26417,1,8,0:0:0:0:
248,32,26600,5,0,1:3:0:0:
248,32,26782,1,0,0:3:0:0:
228,114,26965,5,8,0:0:0:0:
268,114,27148,1,0,0:3:0:0:
204,194,27331,5,0,1:3:0:0:
284,194,27514,1,0,0:3:0:0:
316,274,27697,5,8,0:0:0:0:
172,274,27879,1,0,0:3:0:0:
424,344,28063,6,0,L|480:339,1,56.25,0|0,1:3|0:0,0:0:0:0:
492,325,28245,2,0,L|396:333,1,90,0|0,0:3|0:0,0:0:0:0:
88,344,28428,6,0,L|31:339,1,56.25,8|0,0:0|0:0,0:0:0:0:
20,325,28611,2,0,L|115:333,1,90,0|0,0:3|0:0,0:0:0:0:
256,344,28794,1,0,1:3:0:0:
256,32,28977,5,8,0:0:0:0:
216,144,29160,1,8,0:0:0:0:
296,232,29343,1,8,0:0:0:0:
256,344,29525,5,0,1:3:0:0:
177,336,29708,1,0,0:3:0:0:
99,329,29891,1,8,0:0:0:0:
20,322,30074,2,0,P|15:342|27:398,1,45,0|0,0:3|0:0,0:0:0:0:
256,344,30257,6,0,P|261:324|249:268,2,45,0|0|0,1:3|0:0|1:3,0:0:0:0:
261,83,30622,1,8,0:0:0:0:
256,344,30805,1,0,0:3:0:0:
260,223,30988,5,0,1:3:0:0:
338,215,31171,1,0,0:3:0:0:
416,208,31354,1,8,0:0:0:0:
496,201,31537,2,0,P|501:221|489:277,1,45,0|0,0:3|0:0,0:0:0:0:
260,223,31719,2,0,P|255:203|267:147,1,45,0|0,1:3|0:0,0:0:0:0:
323,29,31902,1,8,0:0:0:0:
496,201,32085,2,0,P|501:221|489:277,1,45,8|0,0:0|0:0,0:0:0:0:
434,363,32268,1,8,0:0:0:0:
421,347,32451,6,0,L|415:244,1,90,0|8,1:3|0:0,0:0:0:0:
323,29,32999,1,0,0:3:0:0:
336,45,33182,6,0,L|342:148,1,90,0|8,1:3|0:0,0:0:0:0:
428,188,33731,2,0,L|387:185,1,22.5,0|0,1:3|0:0,0:0:0:0:
38,47,33913,6,0,L|45:151,1,90,8|0,0:0|0:0,0:0:0:0:
260,223,34096,1,0,0:3:0:0:
116,177,34279,6,0,L|122:265,1,67.5000025749208,8|0,0:0|0:0,0:0:0:0:
260,223,34462,1,0,0:3:0:0:
180,304,34645,6,0,L|184:360,1,45,8|0,0:0|0:0,0:0:0:0:
260,223,34828,1,0,0:3:0:0:
333,304,35010,6,0,P|335:344|338:306,1,90,8|0,0:0|0:0,0:0:0:0:
485,320,35193,2,0,B|456:256|416:328|416:328|416:248|395:192,1,236.250002253056,4|0,0:0|0:0,0:0:0:0:
391,178,35376,1,4,1:2:0:0:
401,36,35742,5,8,0:0:0:0:
464,106,35925,1,0,0:3:0:0:
332,93,36107,2,0,P|255:88|199:95,2,90,0|2|8,1:3|0:3|0:0,0:0:0:0:
464,106,36657,1,2,0:3:0:0:
165,125,36839,1,0,0:3:0:0:
457,292,37204,5,8,0:0:0:0:
455,278,37387,1,2,0:3:0:0:
368,264,37570,5,0,1:3:0:0:
363,238,37753,1,0,0:3:0:0:
266,247,37936,5,8,0:0:0:0:
261,206,38119,1,0,0:3:0:0:
457,292,38301,5,0,1:3:0:0:
179,272,38667,5,8,0:0:0:0:
82,325,38850,1,2,0:3:0:0:
142,100,39033,2,0,P|137:177|144:233,2,90,0|0|8,1:3|0:3|0:0,0:0:0:0:
210,43,39582,1,2,0:3:0:0:
179,272,39764,6,0,P|163:325|205:272,2,180,0|0|8,1:3|0:0|0:0,0:0:0:0:
210,43,40130,5,8,0:0:0:0:
314,327,40313,1,0,1:3:0:0:
375,181,40496,2,0,L|481:173,1,90,0|0,1:3|0:0,0:0:0:0:
205,63,40861,5,8,0:0:0:0:
309,347,41044,1,0,1:3:0:0:
444,169,41227,2,0,L|354:175,1,90,4|0,1:2|0:0,0:0:0:0:
174,334,41593,5,8,0:0:0:0:
152,332,41775,1,2,0:3:0:0:
131,245,41959,5,0,1:3:0:0:
93,240,42142,1,2,0:3:0:0:
106,142,42324,5,8,0:0:0:0:
45,137,42508,1,2,0:3:0:0:
174,334,42690,5,0,1:3:0:0:
305,321,43055,5,8,0:0:0:0:
470,346,43238,1,2,0:3:0:0:
384,285,43421,2,0,P|383:240|388:195,2,90,0|2|8,1:3|0:3|0:0,0:0:0:0:
390,374,43969,1,2,0:3:0:0:
413,118,44152,1,0,1:3:0:0:
302,43,44518,5,8,0:0:0:0:
288,45,44701,1,2,0:3:0:0:
274,132,44884,5,0,1:3:0:0:
248,137,45067,1,2,0:3:0:0:
257,234,45250,5,8,0:0:0:0:
216,239,45433,1,2,0:3:0:0:
302,43,45615,5,0,1:3:0:0:
302,43,45981,5,8,0:0:0:0:
198,327,46164,1,0,1:3:0:0:
137,181,46347,2,0,L|31:173,1,90,0|8,1:3|0:0,0:0:0:0:
307,63,46712,5,8,0:0:0:0:
203,347,46895,1,8,0:0:0:0:
157,175,47078,6,0,L|68:169,2,90,4|0|8,1:2|0:3|0:0,0:0:0:0:
296,344,47626,1,8,0:0:0:0:
464,344,47809,1,0,1:3:0:0:
464,264,47992,1,8,0:3:0:0:
296,264,48175,1,8,0:0:0:0:
296,184,48358,1,8,0:3:0:0:
464,184,48540,6,0,L|374:190,2,90,0|0|8,1:3|0:3|0:0,0:0:0:0:
216,344,49089,1,8,0:0:0:0:
48,344,49272,1,0,1:3:0:0:
48,264,49455,1,8,0:0:0:0:
216,264,49638,1,0,0:0:0:0:
354,208,50003,6,0,L|444:215,2,90,0|0|8,1:3|0:3|0:0,0:0:0:0:
216,40,50551,1,8,0:0:0:0:
48,40,50734,1,0,0:0:0:0:
48,120,50917,1,8,0:3:0:0:
216,120,51100,1,8,0:0:0:0:
216,200,51283,1,8,0:3:0:0:
48,200,51466,6,0,L|137:193,2,90,0|0|8,1:3|0:3|0:0,0:0:0:0:
296,40,52014,5,8,0:0:0:0:
464,40,52197,1,0,1:3:0:0:
464,120,52380,1,8,0:0:0:0:
296,120,52563,1,8,0:0:0:0:
