osu file format v14

[General]
AudioFilename: audio.mp3
AudioLeadIn: 0
PreviewTime: 34919
Countdown: 0
SampleSet: Soft
StackLeniency: 0.7
Mode: 0
LetterboxInBreaks: 0
WidescreenStoryboard: 1

[Editor]
Bookmarks: 44975,46621
DistanceSpacing: 1
BeatDivisor: 4
GridSize: 32
TimelineZoom: 1

[Metadata]
Title:Take a Hint feat. Victoria Justice & Elizabeth Gillies (Speed Up Ver.)
TitleUnicode:Take a Hint feat. Victoria Justice & Elizabeth Gillies (Speed Up Ver.)
Artist:Victorious Cast
ArtistUnicode:Victorious Cast
Creator:SquareTude
Version:Normal
Source:Victorious
Tags:Nickelodeon Original Soundtrack 2.0 More Music from the Hit TV Show Anime Nightcore English Nelliel Acyl Apo11o Azunyan- Cris-
BeatmapID:2060308
BeatmapSetID:984684

[Difficulty]
HPDrainRate:4
CircleSize:3
OverallDifficulty:4
ApproachRate:6
SliderMultiplier:1.1
SliderTickRate:1

[Events]
//Background and Video events
0,0,"take a hint bg.jpg",0,0
//Break Periods
//Storyboard Layer 0 (Background)
//Storyboard Layer 1 (Fail)
//Storyboard Layer 2 (Pass)
//Storyboard Layer 3 (Foreground)
//Storyboard Sound Samples

[TimingPoints]
272,365.673051724453,4,2,11,37,1,0
272,-125,4,2,11,37,0,0
6122,-100,4,2,11,70,0,0
11973,-100,4,2,11,50,0,0
20749,-100,4,2,11,50,0,0
21115,-100,4,2,11,50,0,0
21481,-100,4,2,11,50,0,0
21846,-100,4,2,11,50,0,0
22212,-100,4,2,11,50,0,0
23675,-100,4,2,11,50,0,0
35010,-100,4,2,11,70,0,1
47078,-100,4,2,11,60,0,0

[Colours]
Combo1 : 255,255,111
Combo2 : 64,159,255
Combo3 : 255,106,106
Combo4 : 113,255,113

[HitObjects]
496,322,272,6,0,P|446:287|408:276,1,88,2|0,0:0|0:0,0:0:0:0:
368,284,820,1,0,0:0:0:0:
368,284,1003,2,0,P|329:296|306:298,2,44,0|0|0,0:0|0:0|0:0,0:0:0:0:
389,198,1734,6,0,P|396:153|378:96,1,88,2|0,0:0|0:0,0:0:0:0:
358,78,2283,2,0,P|346:45|344:21,3,44,0|0|0|0,0:0|0:0|0:0|0:0,0:0:0:0:
256,29,3197,6,0,L|165:36,1,88,2|0,0:0|0:0,0:0:0:0:
139,69,3745,1,0,0:0:0:0:
139,69,3928,2,0,L|80:67,2,44,0|0|0,0:0|0:0|0:0,0:0:0:0:
194,137,4660,6,0,P|213:170|211:229,1,88,2|0,0:0|0:0,0:0:0:0:
194,258,5208,2,0,L|147:256,3,44,0|0|0|0,0:0|0:0|0:0|0:0,0:0:0:0:
334,296,6122,6,0,P|382:270|444:266,1,110,0|8,1:3|0:0,0:0:0:0:
485,289,6671,1,8,0:0:0:0:
485,289,6854,2,0,P|468:252|467:221,1,55,0|8,1:3|0:3,0:0:0:0:
477,184,7219,2,0,P|494:147|495:116,1,55,8|8,0:0|0:3,0:0:0:0:
466,86,7585,6,0,P|422:59|360:54,1,110,0|8,1:3|0:0,0:0:0:0:
316,80,8133,1,8,0:0:0:0:
316,80,8316,2,0,P|276:99|254:101,2,55,0|8|8,1:3|0:0|0:0,0:0:0:0:
205,40,9048,6,0,B|180:80|180:80|188:157,1,110,0|8,1:3|0:0,0:0:0:0:
159,190,9596,1,8,0:0:0:0:
159,190,9779,2,0,L|155:262,1,55,0|8,1:3|0:3,0:0:0:0:
197,280,10145,2,0,L|201:352,1,55,8|8,0:0|0:3,0:0:0:0:
161,374,10510,6,0,P|112:382|59:351,1,110,0|8,1:3|0:0,0:0:0:0:
28,309,11059,1,8,0:0:0:0:
28,309,11242,2,0,L|33:245,2,55,0|8|8,1:3|0:0|0:0,0:0:0:0:
111,236,11973,6,0,B|138:205|138:205|129:114,1,110,4|8,1:2|0:0,0:0:0:0:
134,81,12522,1,0,0:3:0:0:
134,81,12704,2,0,P|174:56|199:57,1,55,0|0,1:3|0:3,0:0:0:0:
235,59,13070,2,0,P|280:69|297:87,1,55,8|0,0:0|0:3,0:0:0:0:
324,113,13436,2,0,L|327:225,2,110,0|8|0,1:3|0:0|1:3,0:0:0:0:
382,19,14533,6,0,P|408:11|444:12,1,55,8|8,0:0|0:0,0:0:0:0:
474,49,14898,2,0,P|483:102|474:157,1,110,0|8,1:3|0:0,0:0:0:0:
423,179,15447,1,0,0:3:0:0:
423,179,15630,2,0,P|404:216|399:242,1,55,0|0,1:3|0:3,0:0:0:0:
436,270,15995,2,0,P|455:307|460:333,1,55,8|0,0:0|0:3,0:0:0:0:
425,364,16361,2,0,L|316:357,2,110,0|8|0,1:3|0:0|1:3,0:0:0:0:
490,272,17458,6,0,P|487:244|475:219,1,55,8|8,0:0|0:0,0:0:0:0:
429,189,17824,2,0,P|370:164|310:170,1,110,0|8,1:3|0:0,0:0:0:0:
277,193,18372,1,0,0:3:0:0:
277,193,18555,2,0,P|229:219|160:218,1,110,0|8,1:3|0:0,0:0:0:0:
121,205,19104,1,0,0:3:0:0:
121,205,19286,2,0,L|128:141,1,55,0|0,1:3|0:3,0:0:0:0:
165,111,19652,2,0,L|158:47,1,55,8|0,0:0|0:3,0:0:0:0:
147,2,20018,1,0,1:3:0:0:
250,38,20384,6,0,L|248:105,1,55,8|8,0:0|0:0,0:0:0:0:
280,137,20749,2,0,L|280:257,2,110,0|8|0,1:3|0:0|1:3,0:0:0:0:
171,158,21846,1,8,0:0:0:0:
167,268,22212,2,0,L|167:388,2,110,0|8|0,1:3|0:0|1:3,0:0:0:0:
171,158,23309,1,2,0:0:0:0:
208,54,23675,6,0,P|248:46|326:57,1,110,4|8,1:2|0:0,0:0:0:0:
359,88,24223,1,0,0:3:0:0:
359,88,24406,2,0,P|403:107|430:112,1,55,0|0,1:3|1:3,0:0:0:0:
464,114,24772,1,8,0:0:0:0:
487,221,25137,2,0,P|496:258|477:339,1,110,0|8,1:3|0:0,0:0:0:0:
441,363,25686,1,0,0:3:0:0:
441,363,25869,1,0,1:3:0:0:
383,269,26234,1,8,0:0:0:0:
289,327,26600,6,0,P|238:306|183:308,1,110,0|8,1:3|0:0,0:0:0:0:
132,322,27148,1,0,0:3:0:0:
132,322,27331,2,0,P|119:285|117:256,1,55,0|0,1:3|1:3,0:0:0:0:
138,225,27697,1,8,0:0:0:0:
147,115,28063,2,0,P|93:105|41:120,1,110,0|8,1:3|0:0,0:0:0:0:
3,160,28611,1,0,0:3:0:0:
3,160,28794,1,0,1:3:0:0:
5,49,29160,1,8,0:0:0:0:
113,62,29525,6,0,P|127:114|119:168,1,110,0|8,1:3|0:0,0:0:0:0:
94,218,30074,1,0,0:3:0:0:
94,218,30257,2,0,L|216:220,1,110,0|8,1:3|0:0,0:0:0:0:
310,246,30988,2,0,L|308:184,1,55,0|0,1:3|0:3,0:0:0:0:
294,137,31354,2,0,L|296:75,1,55,8|0,0:0|0:3,0:0:0:0:
331,39,31719,2,0,P|382:28|442:58,1,110,0|8,1:3|0:0,0:0:0:0:
460,97,32268,5,8,0:0:0:0:
473,150,32451,2,0,B|487:220|487:220|463:249,1,110,0|8,1:3|0:0,0:0:0:0:
420,284,32999,1,0,0:3:0:0:
372,311,33182,2,0,P|307:296|262:250,1,110,0|8,1:3|0:0,0:0:0:0:
229,237,33731,5,0,0:3:0:0:
195,193,33913,2,0,P|201:166|213:141,1,55,8|0,0:0|1:3,0:0:0:0:
247,97,34279,2,0,P|240:70|228:45,1,55,8|0,0:0|1:3,0:0:0:0:
181,15,34645,1,8,0:0:0:0:
106,98,35010,1,8,0:0:0:0:
191,166,35376,6,0,P|201:219|186:271,1,110,4|8,1:2|0:0,0:0:0:0:
151,314,35925,1,2,0:3:0:0:
172,364,36107,2,0,L|282:364,1,110,0|8,1:3|0:0,0:0:0:0:
332,342,36656,1,2,0:3:0:0:
385,353,36839,1,0,1:3:0:0:
397,243,37204,6,0,P|394:199|384:176,1,55,8|2,0:0|0:3,0:0:0:0:
345,157,37570,2,0,P|318:150|291:150,1,55,0|2,1:3|0:3,0:0:0:0:
242,177,37936,1,8,0:0:0:0:
234,231,38119,1,2,0:3:0:0:
257,280,38301,1,0,1:3:0:0:
147,293,38667,6,0,P|118:304|83:310,1,55,8|2,0:0|0:3,0:0:0:0:
45,283,39033,2,0,P|53:228|78:180,1,110,0|8,1:3|0:0,0:0:0:0:
122,147,39581,1,2,0:3:0:0:
144,96,39764,1,0,1:3:0:0:
247,59,40130,6,0,P|284:70|323:70,1,55,8|0,0:0|1:3,0:0:0:0:
353,55,40496,2,0,L|343:176,1,110,0|8,1:3|0:0,0:0:0:0:
311,210,41044,1,0,1:3:0:0:
319,265,41227,1,4,1:2:0:0:
378,357,41593,6,0,L|432:354,1,55,8|2,0:0|0:3,0:0:0:0:
466,311,41958,2,0,L|468:256,1,55,0|2,1:3|0:3,0:0:0:0:
446,205,42324,1,8,0:0:0:0:
467,154,42507,1,2,0:3:0:0:
444,103,42690,1,0,1:3:0:0:
347,51,43055,6,0,P|319:50|292:56,1,55,8|2,0:0|0:3,0:0:0:0:
247,87,43421,1,0,1:3:0:0:
241,142,43604,1,2,0:3:0:0:
272,188,43787,2,0,P|293:230|298:251,1,55,8|2,0:0|0:3,0:0:0:0:
279,295,44152,1,0,1:3:0:0:
181,346,44518,6,0,P|154:340|128:329,1,55,8|2,0:0|0:3,0:0:0:0:
105,279,44884,2,0,P|79:268|52:262,1,55,0|2,1:3|0:3,0:0:0:0:
16,222,45249,1,8,0:0:0:0:
19,167,45432,1,2,0:3:0:0:
55,125,45615,1,0,1:3:0:0:
154,78,45981,6,0,P|143:126|144:144,2,55,8|0|0,0:0|1:3|1:3,0:0:0:0:
248,134,46712,2,0,P|245:106|237:80,1,55,8|0,0:0|1:3,0:0:0:0:
262,31,47078,6,0,B|294:7|294:7|369:7,1,110,4|8,1:2|0:0,0:0:0:0:
384,58,47626,1,8,0:0:0:0:
384,58,47809,2,0,P|367:86|360:113,1,55,0|8,1:3|0:3,0:0:0:0:
388,155,48175,2,0,P|407:187|414:221,1,55,8|8,0:0|0:3,0:0:0:0:
404,258,48540,1,0,1:3:0:0:
318,327,48906,6,0,P|274:335|250:328,1,55,8|8,0:0|0:0,0:0:0:0:
235,286,49272,2,0,P|204:275|168:279,2,55,0|8|8,1:3|0:0|0:0,0:0:0:0:
231,175,50003,6,0,P|178:158|124:167,1,110,0|8,1:3|0:0,0:0:0:0:
74,190,50552,1,8,0:0:0:0:
74,190,50734,2,0,P|58:227|51:258,1,55,0|8,0:0|0:3,0:0:0:0:
91,282,51100,2,0,P|107:319|114:350,1,55,8|8,0:0|0:3,0:0:0:0:
84,381,51466,1,0,1:3:0:0:
192,366,51831,6,0,P|237:369|266:366,1,55,8|0,0:0|0:0,0:0:0:0:
295,342,52197,1,0,1:3:0:0:
349,352,52380,1,8,0:0:0:0:
400,332,52563,1,8,0:0:0:0:
