osu file format v14

[General]
AudioFilename: audio.mp3
AudioLeadIn: 0
PreviewTime: 34919
Countdown: 0
SampleSet: Soft
StackLeniency: 0.7
Mode: 0
LetterboxInBreaks: 0
WidescreenStoryboard: 1

[Editor]
Bookmarks: 44975,46621
DistanceSpacing: 1
BeatDivisor: 4
GridSize: 16
TimelineZoom: 1

[Metadata]
Title:Take a Hint feat. Victoria Justice & Elizabeth Gillies (Speed Up Ver.)
TitleUnicode:Take a Hint feat. Victoria Justice & Elizabeth Gillies (Speed Up Ver.)
Artist:Victorious Cast
ArtistUnicode:Victorious Cast
Creator:SquareTude
Version:Nelliel's Easy
Source:Victorious
Tags:Nickelodeon Original Soundtrack 2.0 More Music from the Hit TV Show Anime Nightcore English Nelliel Acyl Apo11o Azunyan- Cris-
BeatmapID:2060307
BeatmapSetID:984684

[Difficulty]
HPDrainRate:2
CircleSize:3
OverallDifficulty:2
ApproachRate:3
SliderMultiplier:1
SliderTickRate:1

[Events]
//Background and Video events
0,0,"take a hint bg.jpg",0,0
//Break Periods
//Storyboard Layer 0 (Background)
//Storyboard Layer 1 (Fail)
//Storyboard Layer 2 (Pass)
//Storyboard Layer 3 (Foreground)
//Storyboard Sound Samples

[TimingPoints]
272,365.673051724453,4,2,11,37,1,0
272,-125,4,2,11,37,0,0
6122,-100,4,2,11,70,0,0
11973,-100,4,2,11,50,0,0
20749,-100,4,2,11,50,0,0
21115,-100,4,2,11,50,0,0
21481,-100,4,2,11,50,0,0
21846,-100,4,2,11,50,0,0
22212,-100,4,2,11,50,0,0
23675,-100,4,2,11,50,0,0
35010,-100,4,2,11,70,0,0
35376,-100,4,2,11,70,0,1
47078,-100,4,2,11,60,0,0

[Colours]
Combo1 : 255,255,111
Combo2 : 64,159,255
Combo3 : 255,106,106
Combo4 : 113,255,113

[HitObjects]
78,103,272,6,0,P|161:93|229:132,1,160,2|0,0:0|0:0,0:0:0:0:
275,191,1369,1,0,0:0:0:0:
330,248,1734,2,0,P|358:277|452:225,1,160,2|0,0:0|0:0,0:0:0:0:
469,155,2831,1,0,0:0:0:0:
435,82,3197,6,0,B|353:82|382:157|294:146,1,160,2|0,0:0|0:0,0:0:0:0:
227,109,4294,1,0,0:0:0:0:
146,107,4660,2,0,B|149:175|149:175|130:204|130:204|135:267,1,160,2|0,0:0|0:0,0:0:0:0:
306,362,6122,6,0,L|312:253,1,100,0|8,1:3|0:0,0:0:0:0:
355,171,6854,1,0,1:3:0:0:
355,71,7219,1,8,0:0:0:0:
265,15,7585,2,0,P|197:24|151:51,1,100,0|8,1:3|0:0,0:0:0:0:
112,119,8316,2,0,P|180:128|226:155,1,100,0|8,1:3|0:0,0:0:0:0:
262,225,9048,6,0,L|254:334,1,100,0|8,1:3|0:0,0:0:0:0:
350,354,9779,1,0,1:3:0:0:
405,270,10145,1,8,0:0:0:0:
408,170,10510,2,0,P|360:151|299:167,1,100,0|8,1:3|0:0,0:0:0:0:
262,238,11242,2,0,P|211:257|158:244,1,100,0|8,1:3|0:0,0:0:0:0:
128,158,11973,6,0,P|176:141|257:255,1,200,4|0,1:2|1:3,0:0:0:0:
250,337,13070,1,8,0:0:0:0:
349,328,13436,2,0,P|352:194|331:128,1,200,0|0,1:3|1:3,0:0:0:0:
263,60,14533,1,8,0:0:0:0:
175,107,14898,6,0,P|222:133|135:176,1,200,0|0,1:3|1:3,0:0:0:0:
48,147,15995,1,8,0:0:0:0:
6,238,16361,2,0,B|32:276|32:276|136:297|136:297|168:339,1,200,0|0,1:3|1:3,0:0:0:0:
365,328,17824,6,0,B|364:181|364:181|317:226,1,200,0|0,1:3|1:3,0:0:0:0:
237,264,18921,1,8,0:0:0:0:
189,176,19286,2,0,B|135:166|94:203|94:203|51:243|-18:221,1,200,0|0,1:3|1:3,0:0:0:0:
23,128,20384,1,8,0:0:0:0:
47,31,20749,6,0,L|162:41,1,100,0|8,1:3|0:0,0:0:0:0:
240,74,21481,2,0,L|349:64,1,100,0|8,1:3|0:0,0:0:0:0:
435,37,22212,2,0,P|420:87|416:156,1,100,0|8,1:3|0:0,0:0:0:0:
475,214,22943,1,0,1:3:0:0:
500,310,23309,1,2,0:0:0:0:
414,371,23675,6,0,B|294:356|365:292|234:281,1,200,4|0,1:2|1:3,0:0:0:0:
146,309,24772,1,8,0:0:0:0:
51,275,25137,2,0,L|62:62,1,200,0|0,1:3|1:3,0:0:0:0:
261,88,26600,6,0,L|249:307,1,200,0|0,1:3|1:3,0:0:0:0:
312,366,27697,1,8,0:0:0:0:
403,331,28063,2,0,P|462:310|388:248,1,200,0|0,1:3|1:3,0:0:0:0:
338,160,29160,1,8,0:0:0:0:
246,199,29525,6,0,B|166:194|166:194|139:216|139:216|52:211,1,200,0|0,1:3|1:3,0:0:0:0:
24,115,30622,1,8,0:0:0:0:
104,53,30988,2,0,B|166:26|238:49|238:49|229:88|179:106,1,200,0|0,1:3|1:3,0:0:0:0:
129,167,32085,1,8,0:0:0:0:
142,266,32451,6,0,B|197:264|223:213|223:213|239:262|314:283,1,200,0|0,1:3|1:3,0:0:0:0:
391,259,33548,1,8,0:0:0:0:
427,166,33913,2,0,P|402:112|325:194,1,200,8|8,0:0|0:0,0:0:0:0:
192,331,35376,6,0,P|181:291|177:128,1,200,4|0,1:2|1:3,0:0:0:0:
197,35,36473,1,8,0:0:0:0:
293,59,36839,2,0,L|413:67,1,100,0|8,1:3|0:0,0:0:0:0:
479,115,37570,2,0,P|446:156|426:218,1,100,0|8,1:3|0:0,0:0:0:0:
433,300,38301,5,0,1:3:0:0:
333,313,38667,2,0,P|302:296|141:303,1,200,8|8,0:0|0:0,0:0:0:0:
75,227,39764,2,0,P|168:192|272:188,1,200,0|0,1:3|1:3,0:0:0:0:
362,148,40861,1,8,0:0:0:0:
316,59,41227,6,0,B|228:59|228:59|207:70|207:70|107:71,1,200,4|0,1:2|1:3,0:0:0:0:
18,70,42324,1,8,0:0:0:0:
0,168,42690,2,0,P|-3:222|12:272,1,100,0|8,1:3|0:0,0:0:0:0:
62,350,43421,2,0,P|119:372|177:370,1,100,0|8,1:3|0:0,0:0:0:0:
238,315,44152,5,0,1:3:0:0:
305,240,44518,2,0,P|316:142|298:44,1,200,8|8,0:0|0:0,0:0:0:0:
209,90,45615,2,0,P|196:138|208:198,1,100,0|8,1:3|0:0,0:0:0:0:
174,282,46346,2,0,P|127:299|66:294,1,100,0|8,1:3|0:0,0:0:0:0:
9,224,47078,6,0,L|5:20,1,200,4|0,1:2|1:3,0:0:0:0:
98,59,48175,1,8,0:0:0:0:
195,38,48540,2,0,B|249:31|285:70|285:70|338:103|399:72,1,200,0|0,1:3|1:3,0:0:0:0:
472,120,49637,1,8,0:0:0:0:
454,218,50003,6,0,P|359:247|264:223,1,200,0|0,1:3|1:3,0:0:0:0:
182,164,51100,1,8,0:0:0:0:
82,153,51466,2,0,B|75:211|118:248|118:248|69:281|64:333,1,200,0|0,1:3|1:3,0:0:0:0:
164,336,52563,1,8,0:0:0:0:
