osu file format v14

[General]
AudioFilename: audio.mp3
AudioLeadIn: 0
PreviewTime: 34919
Countdown: 0
SampleSet: Soft
StackLeniency: 0.7
Mode: 0
LetterboxInBreaks: 0
WidescreenStoryboard: 1

[Editor]
DistanceSpacing: 1.4
BeatDivisor: 4
GridSize: 32
TimelineZoom: 1

[Metadata]
Title:Take a Hint feat. Victoria Justice & Elizabeth Gillies (Speed Up Ver.)
TitleUnicode:Take a Hint feat. Victoria Justice & Elizabeth Gillies (Speed Up Ver.)
Artist:Victorious Cast
ArtistUnicode:Victorious Cast
Creator:SquareTude
Version:Light Insane
Source:Victorious
Tags:Nickelodeon Original Soundtrack 2.0 More Music from the Hit TV Show Anime Nightcore English Nelliel Acyl Apo11o Azunyan- Cris-
BeatmapID:2060306
BeatmapSetID:984684

[Difficulty]
HPDrainRate:4.5
CircleSize:3.5
OverallDifficulty:7.5
ApproachRate:8
SliderMultiplier:1.4
SliderTickRate:1

[Events]
//Background and Video events
0,0,"take a hint bg.jpg",0,0
//Break Periods
//Storyboard Layer 0 (Background)
//Storyboard Layer 1 (Fail)
//Storyboard Layer 2 (Pass)
//Storyboard Layer 3 (Foreground)
//Storyboard Sound Samples

[TimingPoints]
272,365.673051724453,4,2,11,37,1,0
272,-133.333333333333,4,2,11,37,0,0
6122,-100,4,2,11,70,0,0
11973,-117.647058823529,4,2,11,50,0,0
20749,-86.9565217391304,4,2,11,50,0,0
21115,-95.2380952380952,4,2,11,50,0,0
21481,-105.263157894737,4,2,11,50,0,0
21846,-117.647058823529,4,2,11,50,0,0
22212,-133.333333333333,4,2,11,50,0,0
23675,-100,4,2,11,50,0,0
35010,-86.9565217391304,4,2,11,70,0,1
47078,-100,4,2,11,60,0,0

[Colours]
Combo1 : 255,255,111
Combo2 : 64,159,255
Combo3 : 255,106,106
Combo4 : 113,255,113

[HitObjects]
426,18,272,6,0,P|442:48|446:118,1,105.000004005432,2|0,0:0|0:0,0:0:0:0:
410,187,820,1,0,0:0:0:0:
410,187,1003,2,0,P|392:227|386:259,1,52.5000020027161,0|0,0:0|0:0,0:0:0:0:
323,279,1369,2,0,P|314:254|302:230,1,52.5000020027161,0|0,0:0|0:0,0:0:0:0:
250,171,1734,2,0,P|198:151|139:173,1,105.000004005432,2|0,0:0|0:0,0:0:0:0:
98,222,2283,1,0,0:0:0:0:
98,222,2466,2,0,L|100:280,2,52.5000020027161,0|0|0,0:0|0:0|0:0,0:0:0:0:
30,79,3197,6,0,L|26:188,1,105.000004005432,2|0,0:0|0:0,0:0:0:0:
73,253,3745,1,0,0:0:0:0:
73,253,3928,2,0,P|91:289|97:321,1,52.5000020027161,0|0,0:0|0:0,0:0:0:0:
156,352,4294,2,0,P|164:327|177:304,1,52.5000020027161,0|0,0:0|0:0,0:0:0:0:
234,252,4660,2,0,P|279:238|353:248,1,105.000004005432,2|0,0:0|0:0,0:0:0:0:
411,281,5208,1,0,0:0:0:0:
411,281,5391,2,0,P|444:294|477:299,2,52.5000020027161,0|0|0,0:0|0:0|0:0,0:0:0:0:
379,69,6122,6,0,P|418:117|404:195,1,140,0|8,1:3|0:0,0:0:0:0:
296,192,6671,1,8,0:0:0:0:
296,192,6854,2,0,P|329:148|354:137,1,70,0|8,1:3|0:3,0:0:0:0:
290,66,7219,2,0,P|255:70|222:59,1,70,8|8,0:0|0:3,0:0:0:0:
138,24,7585,6,0,P|82:23|28:87,1,140,0|8,1:3|0:0,0:0:0:0:
45,171,8133,1,8,0:0:0:0:
109,102,8316,1,0,1:3:0:0:
124,210,8499,1,8,0:0:0:0:
198,115,8682,1,8,0:0:0:0:
246,290,9048,6,0,P|269:324|363:334,1,140,0|8,1:3|0:0,0:0:0:0:
447,306,9596,1,8,0:0:0:0:
447,306,9779,2,0,P|426:260|426:228,1,70,0|8,1:3|0:3,0:0:0:0:
351,194,10145,2,0,P|345:228|328:258,1,70,8|8,0:0|0:3,0:0:0:0:
266,197,10510,6,0,P|301:124|362:110,1,140,0|8,1:3|0:0,0:0:0:0:
448,125,11059,1,8,0:0:0:0:
355,80,11242,1,0,1:3:0:0:
471,41,11425,1,8,0:0:0:0:
345,0,11607,1,8,0:0:0:0:
345,0,11973,6,0,L|267:12,1,59.5000011348725,4|0,1:2|0:3,0:0:0:0:
222,55,12339,2,0,L|163:45,1,59.5000011348725,8|0,0:0|0:3,0:0:0:0:
86,31,12704,1,0,1:3:0:0:
86,31,12887,1,0,0:3:0:0:
60,106,13070,1,8,0:0:0:0:
100,171,13253,1,0,0:3:0:0:
44,225,13436,6,0,P|27:200|22:171,1,59.5000011348725,0|0,1:3|0:3,0:0:0:0:
119,247,13801,2,0,P|113:276|97:300,1,59.5000011348725,8|0,0:0|0:3,0:0:0:0:
39,354,14167,1,0,1:3:0:0:
121,381,14350,1,8,0:0:0:0:
121,381,14441,1,8,0:0:0:0:
121,381,14533,1,8,0:0:0:0:
182,333,14716,1,8,0:0:0:0:
246,375,14898,6,0,P|289:378|320:369,1,59.5000011348725,0|0,1:3|0:3,0:0:0:0:
185,318,15264,2,0,P|142:321|111:312,1,59.5000011348725,8|0,0:0|0:3,0:0:0:0:
59,280,15630,1,0,1:3:0:0:
59,280,15813,1,0,0:3:0:0:
90,203,15995,1,8,0:0:0:0:
158,244,16178,1,0,0:3:0:0:
227,199,16361,6,0,P|259:178|297:169,1,59.5000011348725,0|0,1:3|0:3,0:0:0:0:
354,203,16727,1,8,0:0:0:0:
343,124,16910,1,0,0:3:0:0:
271,84,17092,2,0,P|241:90|213:103,1,59.5000011348725,0|8,1:3|0:0,0:0:0:0:
147,146,17458,1,8,0:0:0:0:
159,44,17641,1,8,0:0:0:0:
83,90,17824,6,0,P|66:114|57:143,1,59.5000011348725,0|0,1:3|0:3,0:0:0:0:
168,205,18189,2,0,P|158:176|142:151,1,59.5000011348725,8|0,0:0|0:3,0:0:0:0:
122,280,18555,1,0,1:3:0:0:
122,280,18738,1,0,0:3:0:0:
203,318,18921,1,8,0:0:0:0:
283,281,19104,1,0,0:3:0:0:
345,348,19286,6,0,L|417:345,1,59.5000011348725,0|0,1:3|0:3,0:0:0:0:
450,268,19652,2,0,L|378:265,1,59.5000011348725,8|0,0:0|0:3,0:0:0:0:
333,196,20018,1,0,1:3:0:0:
421,181,20201,1,8,0:0:0:0:
327,117,20384,1,8,0:0:0:0:
443,87,20566,1,8,0:0:0:0:
335,30,20749,6,0,L|250:26,1,80.5000015354157,0|0,1:3|0:3,0:0:0:0:
180,111,21115,2,0,L|258:106,1,73.4999977569581,8|0,0:0|0:3,0:0:0:0:
329,37,21481,2,0,L|260:33,1,66.4999982242585,0|0,1:3|0:3,0:0:0:0:
185,118,21846,2,0,L|253:113,1,59.5000011348725,8|0,0:0|0:3,0:0:0:0:
308,159,22212,6,0,P|335:202|333:271,2,105.000004005432,0|8|0,1:3|0:0|1:3,0:0:0:0:
292,315,23309,1,2,0:0:0:0:
292,315,23675,6,0,P|327:337|363:338,1,70,4|0,1:2|0:3,0:0:0:0:
415,235,24040,2,0,P|380:239|352:259,1,70,8|0,0:0|0:3,0:0:0:0:
490,290,24406,1,0,1:3:0:0:
490,290,24589,1,0,1:3:0:0:
481,156,24772,1,8,0:0:0:0:
424,227,24955,1,0,0:3:0:0:
334,170,25137,6,0,L|251:175,1,70,0|0,1:3|0:3,0:0:0:0:
208,260,25503,2,0,L|277:264,1,70,8|0,0:0|0:3,0:0:0:0:
178,177,25869,1,0,1:3:0:0:
115,272,26051,1,8,0:0:0:0:
115,272,26143,1,8,0:0:0:0:
115,272,26234,1,8,0:0:0:0:
50,190,26417,1,8,0:0:0:0:
127,121,26600,6,0,P|143:160|142:197,1,70,0|0,1:3|0:3,0:0:0:0:
44,101,26966,2,0,P|46:66|60:34,1,70,8|0,0:0|0:3,0:0:0:0:
153,0,27331,1,0,1:3:0:0:
153,0,27514,1,0,1:3:0:0:
243,89,27697,1,8,0:0:0:0:
150,111,27880,1,0,0:3:0:0:
267,166,28063,6,0,P|283:207|282:241,1,70,0|0,1:3|0:3,0:0:0:0:
171,263,28428,2,0,P|173:228|187:196,1,70,8|0,0:0|0:3,0:0:0:0:
277,276,28794,1,0,1:3:0:0:
169,295,28977,1,8,0:0:0:0:
267,355,29160,1,8,0:0:0:0:
172,381,29343,1,8,0:0:0:0:
263,347,29525,6,0,P|294:331|328:330,1,70,0|0,1:3|0:3,0:0:0:0:
433,267,29891,2,0,P|398:265|367:250,1,70,8|0,0:0|0:3,0:0:0:0:
303,190,30257,1,0,1:3:0:0:
303,190,30440,1,0,1:3:0:0:
364,104,30622,1,8,0:0:0:0:
377,222,30805,1,0,0:3:0:0:
435,143,30988,6,0,P|442:84|424:53,1,70,0|0,1:3|0:3,0:0:0:0:
362,12,31354,2,0,P|327:17|294:8,1,70,8|0,0:0|0:3,0:0:0:0:
208,55,31719,1,0,1:3:0:0:
208,55,31902,1,8,0:0:0:0:
306,119,32085,1,8,0:0:0:0:
209,137,32268,5,8,0:0:0:0:
302,251,32451,2,0,B|330:222|330:222|308:108,1,140,0|8,1:3|0:0,0:0:0:0:
215,240,32999,5,0,0:3:0:0:
215,240,33182,2,0,P|228:308|302:343,1,140,0|8,1:3|0:0,0:0:0:0:
370,309,33731,1,0,0:3:0:0:
382,166,33913,5,8,0:0:0:0:
302,251,34096,1,0,1:3:0:0:
443,227,34279,1,8,0:0:0:0:
300,169,34462,1,0,1:3:0:0:
378,296,34645,1,8,0:0:0:0:
429,104,35010,5,8,0:0:0:0:
429,104,35376,6,0,P|374:85|338:81,1,80.5000015354157,4|2,1:2|0:3,0:0:0:0:
226,102,35742,1,8,0:0:0:0:
335,65,35925,1,2,0:3:0:0:
228,125,36107,2,0,P|173:131|137:127,1,80.5000015354157,0|2,1:3|0:3,0:0:0:0:
48,74,36473,1,8,0:0:0:0:
141,149,36656,1,2,0:3:0:0:
30,68,36839,2,0,P|13:111|19:166,1,80.5000015354157,0|2,1:3|0:3,0:0:0:0:
78,235,37204,5,8,0:0:0:0:
41,332,37387,1,2,0:3:0:0:
102,240,37570,1,0,1:3:0:0:
129,352,37753,1,2,0:3:0:0:
130,238,37936,1,8,0:0:0:0:
213,335,38119,1,2,0:3:0:0:
159,232,38301,2,0,P|179:196|210:172,1,80.5000015354157,0|2,1:3|0:3,0:0:0:0:
336,188,38667,5,8,0:0:0:0:
230,165,38850,1,2,0:3:0:0:
349,203,39033,2,0,P|369:237|374:276,1,80.5000015354157,0|2,1:3|0:3,0:0:0:0:
242,346,39399,2,0,P|253:307|279:276,1,80.5000015354157,8|2,0:0|0:3,0:0:0:0:
419,350,39764,2,0,L|327:352,1,80.5000015354157,0|8,1:3|0:0,0:0:0:0:
467,263,40130,5,8,0:0:0:0:
349,203,40313,1,0,1:3:0:0:
470,177,40496,2,0,P|488:135|491:94,1,80.5000015354157,0|8,1:3|0:0,0:0:0:0:
353,84,40861,5,8,0:0:0:0:
462,11,41044,1,0,1:3:0:0:
306,13,41227,2,0,P|266:17|229:34,1,80.5000015354157,4|2,1:2|0:3,0:0:0:0:
157,122,41593,5,8,0:0:0:0:
265,143,41775,1,2,0:3:0:0:
153,103,41958,1,0,1:3:0:0:
261,124,42140,1,2,0:3:0:0:
150,87,42324,1,8,0:0:0:0:
258,108,42506,1,2,0:3:0:0:
146,69,42690,2,0,P|106:52|65:52,1,80.5000015354157,0|2,1:3|0:3,0:0:0:0:
13,175,43055,5,8,0:0:0:0:
98,265,43238,1,2,0:3:0:0:
87,136,43421,1,0,1:3:0:0:
10,255,43604,1,2,0:3:0:0:
144,199,43787,1,8,0:0:0:0:
8,163,43969,1,2,0:3:0:0:
106,276,44152,2,0,P|156:285|198:265,1,80.5000015354157,0|2,1:3|0:3,0:0:0:0:
283,220,44518,5,8,0:0:0:0:
266,100,44701,1,2,0:3:0:0:
310,226,44884,1,0,1:3:0:0:
297,107,45066,1,2,0:3:0:0:
349,233,45249,1,8,0:0:0:0:
335,114,45432,1,2,0:3:0:0:
423,187,45615,2,0,P|435:235|418:290,1,80.5000015354157,0|8,1:3|0:0,0:0:0:0:
338,333,45981,5,8,0:0:0:0:
262,226,46163,1,0,1:3:0:0:
185,319,46346,2,0,L|98:316,1,80.5000015354157,0|8,1:3|0:0,0:0:0:0:
231,225,46712,5,8,0:0:0:0:
137,162,46895,1,0,1:3:0:0:
203,75,47078,2,0,L|286:72,1,70,4|0,1:2|0:3,0:0:0:0:
364,105,47443,1,8,0:0:0:0:
449,57,47626,5,8,0:0:0:0:
449,57,47809,2,0,P|463:96|467:127,1,70,0|8,1:3|0:3,0:0:0:0:
342,205,48175,2,0,P|347:170|359:137,1,70,8|8,0:0|0:3,0:0:0:0:
412,267,48540,6,0,P|356:248|250:281,1,140,0|8,1:3|0:0,0:0:0:0:
212,365,49089,1,8,0:0:0:0:
186,262,49272,1,0,1:3:0:0:
111,345,49455,1,8,0:0:0:0:
171,231,49637,2,0,P|185:181|184:132,1,70,8|0,0:0|1:3,0:0:0:0:
137,97,50003,6,0,P|191:134|267:116,1,140,0|8,1:3|0:0,0:0:0:0:
265,0,50552,1,8,0:0:0:0:
265,0,50734,2,0,P|225:29|210:65,1,70,0|8,0:0|0:3,0:0:0:0:
323,144,51100,2,0,P|315:110|294:81,1,70,8|8,0:0|0:3,0:0:0:0:
248,203,51466,6,0,P|264:255|328:314,1,140,0|8,1:3|0:0,0:0:0:0:
459,323,52014,1,8,0:0:0:0:
302,341,52197,1,0,1:3:0:0:
417,246,52380,1,8,0:0:0:0:
286,362,52563,1,8,0:0:0:0:
