osu file format v14

[General]
AudioFilename: audio.mp3
AudioLeadIn: 0
PreviewTime: 34919
Countdown: 0
SampleSet: Soft
StackLeniency: 0.5
Mode: 0
LetterboxInBreaks: 0
WidescreenStoryboard: 0

[Editor]
DistanceSpacing: 2.5
BeatDivisor: 4
GridSize: 32
TimelineZoom: 1

[Metadata]
Title:Take a Hint feat. Victoria Justice & Elizabeth Gillies (Speed Up Ver.)
TitleUnicode:Take a Hint feat. Victoria Justice & Elizabeth Gillies (Speed Up Ver.)
Artist:Victorious Cast
ArtistUnicode:Victorious Cast
Creator:SquareTude
Version:I Think You Could Use a Mint
Source:Victorious
Tags:Nickelodeon Original Soundtrack 2.0 More Music from the Hit TV Show Anime Nightcore English Nelliel Acyl Apo11o Azunyan- Cris-
BeatmapID:2060305
BeatmapSetID:984684

[Difficulty]
HPDrainRate:5.2
CircleSize:3.8
OverallDifficulty:9
ApproachRate:9
SliderMultiplier:2
SliderTickRate:1

[Events]
//Background and Video events
0,0,"take a hint bg.jpg",0,0
//Break Periods
//Storyboard Layer 0 (Background)
//Storyboard Layer 1 (Fail)
//Storyboard Layer 2 (Pass)
//Storyboard Layer 3 (Foreground)
//Storyboard Sound Samples

[TimingPoints]
272,365.673051724453,4,2,11,37,1,0
272,-133.333333333333,4,2,11,37,0,0
6122,-100,4,2,11,70,0,0
11973,-117.647058823529,4,2,11,50,0,0
20749,-86.9565217391304,4,2,11,50,0,0
21115,-95.2380952380952,4,2,11,50,0,0
21481,-105.263157894737,4,2,11,50,0,0
21846,-117.647058823529,4,2,11,50,0,0
22212,-133.333333333333,4,2,11,50,0,0
23675,-100,4,2,11,50,0,0
35010,-86.9565217391304,4,2,11,70,0,1
47078,-86.9565217391304,4,2,11,60,0,0
52928,-86.9565217391304,4,2,11,60,0,0

[Colours]
Combo1 : 255,255,111
Combo2 : 64,159,255
Combo3 : 255,106,106
Combo4 : 113,255,113

[HitObjects]
422,358,272,6,0,P|417:291|406:194,1,150.000005722046,2|0,0:0|0:0,0:0:0:0:
329,154,820,1,0,0:0:0:0:
329,154,1003,2,0,P|271:157|227:147,1,75.0000028610231,0|0,0:0|0:0,0:0:0:0:
388,63,1369,2,0,P|419:61|467:67,1,75.0000028610231,0|0,0:0|0:0,0:0:0:0:
299,0,1734,2,0,P|233:-6|169:63,1,150.000005722046,2|0,0:0|0:0,0:0:0:0:
136,181,2283,1,0,0:0:0:0:
258,83,2466,1,0,0:0:0:0:
95,91,2648,1,0,0:0:0:0:
257,188,2831,2,0,P|288:182|329:160,1,75.0000028610231,0|0,0:0|0:0,0:0:0:0:
129,197,3197,6,0,P|109:256|111:371,1,150.000005722046,2|0,0:0|0:0,0:0:0:0:
270,282,3745,1,0,0:0:0:0:
270,282,3928,2,0,P|275:314|272:365,1,75.0000028610231,0|0,0:0|0:0,0:0:0:0:
156,221,4294,2,0,P|153:189|159:141,1,75.0000028610231,0|0,0:0|0:0,0:0:0:0:
267,64,4660,2,0,P|331:43|399:100,1,150.000005722046,2|0,0:0|0:0,0:0:0:0:
420,271,5208,1,0,0:0:0:0:
255,251,5391,1,0,0:0:0:0:
392,118,5574,1,0,0:0:0:0:
332,308,5757,1,0,0:0:0:0:
332,308,6122,6,0,P|286:340|164:284,1,200,0|8,1:3|0:0,0:0:0:0:
66,55,6671,1,8,0:0:0:0:
72,269,6854,1,0,1:3:0:0:
163,66,7036,1,8,0:3:0:0:
164,273,7219,1,8,0:0:0:0:
75,75,7402,1,8,0:3:0:0:
255,251,7585,6,0,L|464:252,1,200,0|8,1:3|0:0,0:0:0:0:
411,48,8133,1,8,0:0:0:0:
352,286,8316,1,0,1:3:0:0:
319,44,8499,1,8,0:0:0:0:
479,254,8682,2,0,P|490:205|485:156,1,100,8|0,0:0|1:3,0:0:0:0:
223,32,9048,6,0,P|196:132|229:225,1,200,0|8,1:3|0:0,0:0:0:0:
495,145,9596,1,8,0:0:0:0:
281,134,9779,1,0,1:3:0:0:
479,254,9962,1,8,0:3:0:0:
251,230,10145,1,8,0:0:0:0:
468,149,10328,1,8,0:3:0:0:
284,327,10510,6,0,L|82:323,1,200,0|8,1:3|0:0,0:0:0:0:
248,178,11059,1,8,0:0:0:0:
45,162,11242,1,0,1:3:0:0:
290,244,11425,1,8,0:0:0:0:
43,325,11607,1,8,0:0:0:0:
170,199,11973,6,0,P|215:176|252:179,1,85.0000016212464,4|0,1:2|0:3,0:0:0:0:
407,344,12339,2,0,P|357:335|327:315,1,85.0000016212464,8|0,0:0|0:3,0:0:0:0:
424,137,12704,1,0,1:3:0:0:
491,258,12887,1,0,0:3:0:0:
308,300,13070,1,8,0:0:0:0:
337,175,13253,1,0,0:3:0:0:
407,344,13436,5,0,1:3:0:0:
247,186,13619,1,0,0:3:0:0:
313,384,13801,1,8,0:0:0:0:
167,225,13984,1,0,0:3:0:0:
96,384,14167,1,0,1:3:0:0:
259,307,14350,1,8,0:0:0:0:
259,307,14441,1,8,0:0:0:0:
259,307,14533,1,8,0:0:0:0:
89,267,14716,1,8,0:0:0:0:
250,139,14898,6,0,P|269:189|268:234,1,85.0000016212464,0|0,1:3|0:3,0:0:0:0:
112,137,15264,2,0,P|114:101|132:49,1,85.0000016212464,8|0,0:0|0:3,0:0:0:0:
294,0,15630,1,0,1:3:0:0:
153,38,15813,1,0,0:3:0:0:
321,126,15995,1,8,0:0:0:0:
395,0,16178,1,0,0:3:0:0:
230,94,16361,6,0,P|226:148|239:181,1,85.0000016212464,0|0,1:3|0:3,0:0:0:0:
421,147,16727,1,8,0:0:0:0:
295,246,16910,1,0,0:3:0:0:
503,193,17092,2,0,P|512:140|488:83,1,85.0000016212464,0|8,1:3|0:0,0:0:0:0:
290,0,17458,1,8,0:0:0:0:
216,252,17641,1,8,0:0:0:0:
132,14,17824,6,0,P|156:52|164:103,1,85.0000016212464,0|0,1:3|0:3,0:0:0:0:
60,231,18189,2,0,P|69:196|95:151,1,85.0000016212464,8|0,0:0|0:3,0:0:0:0:
253,69,18555,1,0,1:3:0:0:
309,207,18738,1,0,0:3:0:0:
130,291,18921,1,8,0:0:0:0:
183,138,19104,1,0,0:3:0:0:
251,322,19286,5,0,1:3:0:0:
284,170,19469,1,0,0:3:0:0:
336,356,19652,1,8,0:0:0:0:
368,216,19835,1,0,0:3:0:0:
227,354,20018,1,0,1:3:0:0:
448,174,20201,1,8,0:0:0:0:
186,115,20384,1,8,0:0:0:0:
453,259,20566,1,8,0:0:0:0:
162,261,20749,6,0,P|158:204|170:148,1,115.000002193451,0|0,1:3|0:3,0:0:0:0:
261,287,21115,2,0,P|250:243|252:179,1,104.999996795654,8|0,0:0|0:3,0:0:0:0:
346,157,21481,2,0,P|339:216|345:256,1,94.9999974632264,0|0,1:3|0:3,0:0:0:0:
433,188,21846,2,0,P|432:231|441:273,1,85.0000016212464,8|0,0:0|0:3,0:0:0:0:
512,323,22212,6,0,P|485:350|446:360,1,75.0000028610231,0|0,1:3|0:3,0:0:0:0:
360,327,22578,2,0,P|322:319|284:333,1,75.0000028610231,8|0,0:0|0:3,0:0:0:0:
200,369,22943,1,0,1:3:0:0:
105,320,23309,1,2,0:0:0:0:
53,161,23675,6,0,P|36:208|37:270,1,100,4|0,1:2|0:3,0:0:0:0:
189,75,24040,2,0,P|206:122|206:175,1,100,8|0,0:0|0:3,0:0:0:0:
72,0,24406,1,0,1:3:0:0:
128,215,24589,1,0,1:3:0:0:
283,49,24772,1,8,0:0:0:0:
106,112,24954,1,0,0:3:0:0:
232,229,25137,5,0,1:3:0:0:
193,25,25320,1,0,0:3:0:0:
323,263,25503,1,8,0:0:0:0:
283,49,25686,1,0,0:3:0:0:
217,266,25869,1,0,1:3:0:0:
379,90,26051,1,8,0:0:0:0:
379,90,26143,1,8,0:0:0:0:
379,90,26234,1,8,0:0:0:0:
400,317,26417,1,8,0:0:0:0:
499,209,26600,6,0,P|446:187|399:193,1,100,0|0,1:3|0:3,0:0:0:0:
297,319,26966,2,0,P|339:317|390:283,1,100,8|0,0:0|0:3,0:0:0:0:
207,201,27331,1,0,1:3:0:0:
258,384,27514,1,0,1:3:0:0:
448,190,27697,1,8,0:0:0:0:
309,219,27880,1,0,0:3:0:0:
410,368,28063,5,0,1:3:0:0:
369,149,28245,1,0,0:3:0:0:
297,379,28428,1,8,0:0:0:0:
269,135,28610,1,0,0:0:0:0:
431,348,28794,1,0,1:3:0:0:
172,208,28977,5,8,0:0:0:0:
476,234,29160,1,8,0:0:0:0:
175,312,29343,1,8,0:0:0:0:
349,203,29525,6,0,P|363:257|354:299,1,100,0|0,1:3|0:3,0:0:0:0:
155,95,29891,1,8,0:0:0:0:
271,256,30074,1,0,0:3:0:0:
387,88,30257,2,0,P|432:80|498:98,1,100,0|0,1:3|1:3,0:0:0:0:
249,271,30622,1,8,0:0:0:0:
295,57,30805,1,0,0:3:0:0:
458,283,30988,5,0,1:3:0:0:
223,178,31171,1,0,0:3:0:0:
467,172,31354,1,8,0:0:0:0:
330,349,31537,1,0,0:3:0:0:
202,167,31719,2,0,P|164:155|94:162,1,100,0|8,1:3|0:0,0:0:0:0:
384,220,32085,1,8,0:0:0:0:
206,332,32268,5,8,0:0:0:0:
467,172,32451,2,0,P|407:125|300:174,1,200,0|8,1:3|0:0,0:0:0:0:
205,343,32999,5,0,0:3:0:0:
124,152,33182,2,0,B|101:59|113:11|113:11|139:43|137:74,1,200,0|8,1:3|0:0,0:0:0:0:
205,351,33731,5,0,0:3:0:0:
337,58,33913,1,8,0:0:0:0:
312,357,34096,5,0,1:3:0:0:
245,43,34279,1,8,0:0:0:0:
205,361,34462,5,0,1:3:0:0:
160,66,34645,1,8,0:0:0:0:
333,138,35010,6,0,P|263:117|171:148,1,172.500003290176,8|0,0:0|0:0,0:0:0:0:
308,215,35376,6,0,P|262:197|202:227,1,115.000002193451,4|2,1:2|0:3,0:0:0:0:
58,384,35742,1,8,0:0:0:0:
262,275,35925,1,2,0:3:0:0:
87,135,36107,2,0,P|53:68|50:7,1,115.000002193451,0|2,1:3|0:3,0:0:0:0:
282,80,36473,5,8,0:0:0:0:
51,217,36656,1,2,0:3:0:0:
247,372,36839,2,0,P|293:383|363:373,1,115.000002193451,0|2,1:3|0:3,0:0:0:0:
202,116,37204,5,8,0:0:0:0:
411,311,37387,1,2,0:3:0:0:
420,52,37570,1,0,1:3:0:0:
318,288,37753,1,2,0:3:0:0:
252,29,37936,1,8,0:0:0:0:
468,179,38119,1,2,0:3:0:0:
242,346,38301,2,0,P|176:350|104:320,1,115.000002193451,0|2,1:3|0:3,0:0:0:0:
317,117,38667,5,8,0:0:0:0:
91,239,38850,1,2,0:3:0:0:
348,206,39033,1,0,1:3:0:0:
106,126,39216,1,2,0:3:0:0:
383,295,39399,1,8,0:0:0:0:
156,42,39581,1,2,0:3:0:0:
286,384,39764,2,0,L|294:253,1,115.000002193451,0|8,1:3|0:0,0:0:0:0:
78,97,40130,5,8,0:0:0:0:
185,362,40313,1,0,1:3:0:0:
235,90,40496,2,0,P|265:33|315:-3,1,115.000002193451,0|8,1:3|0:0,0:0:0:0:
419,325,40861,5,8,0:0:0:0:
158,177,41044,1,0,1:3:0:0:
405,37,41227,2,0,P|461:67|501:115,1,115.000002193451,4|2,1:2|0:3,0:0:0:0:
218,341,41593,5,8,0:0:0:0:
449,218,41775,1,2,0:3:0:0:
237,103,41958,1,0,1:3:0:0:
315,361,42140,1,2,0:3:0:0:
363,100,42324,1,8,0:0:0:0:
132,214,42507,1,2,0:3:0:0:
395,317,42690,2,0,P|452:324|522:305,1,115.000002193451,0|2,1:3|0:3,0:0:0:0:
325,75,43055,5,8,0:0:0:0:
315,330,43238,1,2,0:3:0:0:
238,43,43421,1,0,1:3:0:0:
152,327,43604,1,2,0:3:0:0:
151,18,43787,1,8,0:0:0:0:
237,345,43970,1,2,0:3:0:0:
358,57,44152,2,0,P|416:33|481:42,1,115.000002193451,0|2,1:3|0:3,0:0:0:0:
327,356,44518,5,8,0:0:0:0:
72,185,44701,1,2,0:3:0:0:
338,71,44884,1,0,1:3:0:0:
217,339,45066,1,2,0:3:0:0:
135,34,45249,1,8,0:0:0:0:
392,167,45432,1,2,0:3:0:0:
83,279,45615,5,0,1:3:0:0:
444,235,45798,1,8,0:0:0:0:
110,354,45981,1,8,0:0:0:0:
224,111,46163,1,0,1:3:0:0:
302,330,46346,5,0,1:3:0:0:
236,27,46529,1,8,0:0:0:0:
218,355,46712,1,8,0:0:0:0:
156,64,46895,1,0,1:3:0:0:
319,350,47078,6,0,P|374:364|429:353,1,115.000002193451,4|0,1:2|0:3,0:0:0:0:
228,149,47443,1,8,0:0:0:0:
185,347,47626,1,8,0:0:0:0:
353,218,47809,1,0,1:3:0:0:
99,255,47992,1,8,0:3:0:0:
348,327,48175,1,8,0:0:0:0:
102,345,48358,1,8,0:3:0:0:
254,211,48540,6,0,P|283:159|287:101,1,115.000002193451,0|0,1:3|0:3,0:0:0:0:
145,0,48906,1,8,0:0:0:0:
317,97,49089,1,8,0:0:0:0:
121,151,49272,1,0,1:3:0:0:
253,9,49455,1,8,0:0:0:0:
368,179,49637,2,0,P|418:189|482:174,1,115.000002193451,8|0,0:0|1:3,0:0:0:0:
253,223,50003,6,0,P|236:287|244:336,1,115.000002193451,0|0,1:3|0:3,0:0:0:0:
354,169,50369,1,8,0:0:0:0:
160,260,50552,1,8,0:0:0:0:
351,266,50734,1,0,0:0:0:0:
126,183,50917,1,8,0:3:0:0:
316,356,51100,1,8,0:0:0:0:
82,275,51283,1,8,0:3:0:0:
270,182,51466,6,0,P|304:125|324:58,1,115.000002193451,0|0,1:3|0:3,0:0:0:0:
342,257,51831,1,8,0:0:0:0:
194,20,52014,1,8,0:0:0:0:
181,244,52197,1,0,1:3:0:0:
301,16,52380,1,8,0:0:0:0:
360,286,52563,1,8,0:0:0:0:
