osu file format v14

[General]
AudioFilename: audio.mp3
AudioLeadIn: 0
PreviewTime: 34919
Countdown: 0
SampleSet: Soft
StackLeniency: 0.4
Mode: 0
LetterboxInBreaks: 0
WidescreenStoryboard: 0

[Editor]
DistanceSpacing: 1
BeatDivisor: 4
GridSize: 4
TimelineZoom: 1.5

[Metadata]
Title:Take a Hint feat. Victoria Justice & Elizabeth Gillies (Speed Up Ver.)
TitleUnicode:Take a Hint feat. Victoria Justice & Elizabeth Gillies (Speed Up Ver.)
Artist:Victorious Cast
ArtistUnicode:Victorious Cast
Creator:SquareTude
Version:Cris' Insane
Source:Victorious
Tags:Nickelodeon Original Soundtrack 2.0 More Music from the Hit TV Show Anime Nightcore English Nelliel Acyl Apo11o Azunyan- Cris-
BeatmapID:2060304
BeatmapSetID:984684

[Difficulty]
HPDrainRate:5
CircleSize:4
OverallDifficulty:8
ApproachRate:8
SliderMultiplier:1.5
SliderTickRate:1

[Events]
//Background and Video events
0,0,"Nightcore cris.jpg",0,0
//Break Periods
//Storyboard Layer 0 (Background)
//Storyboard Layer 1 (Fail)
//Storyboard Layer 2 (Pass)
//Storyboard Layer 3 (Foreground)
//Storyboard Sound Samples

[TimingPoints]
272,365.673051724453,4,2,11,37,1,0
272,-133.333333333333,4,2,11,37,0,0
6122,-100,4,2,11,70,0,0
11973,-111.111111111111,4,2,11,50,0,0
23675,-90.9090909090909,4,2,11,50,0,0
34919,-90.9090909090909,4,2,11,50,0,0
35010,-90.9090909090909,4,2,11,70,0,0
35285,-90.9090909090909,4,2,11,70,0,0
35376,-76.9230769230769,4,2,11,70,0,1
47078,-76.9230769230769,4,2,11,60,0,0
52563,-100,4,2,11,60,0,0

[Colours]
Combo1 : 242,219,123
Combo2 : 255,106,185
Combo3 : 128,173,219
Combo4 : 188,121,255

[HitObjects]
160,320,6122,6,0,P|228:348|294:320,1,150,0|8,1:3|0:0,0:0:0:0:
160,183,6671,1,8,0:0:0:0:
160,183,6854,2,0,L|86:191,1,75,0|8,1:3|0:3,0:0:0:0:
296,183,7219,2,0,L|370:191,1,75,8|8,0:0|0:3,0:0:0:0:
228,348,7585,6,0,B|256:276|200:276|228:203,1,150,0|8,1:3|0:0,0:0:0:0:
284,19,8133,1,8,0:0:0:0:
132,131,8316,1,0,1:3:0:0:
324,131,8499,1,8,0:0:0:0:
168,19,8682,1,8,0:0:0:0:
228,203,8865,1,0,1:3:0:0:
284,19,9048,6,0,B|356:-9|356:47|429:19,1,150,0|8,1:3|0:0,0:0:0:0:
324,131,9596,1,8,0:0:0:0:
324,131,9779,2,0,P|287:139|251:130,1,75,0|8,1:3|0:3,0:0:0:0:
432,128,10145,2,0,P|468:136|504:127,1,75,8|8,0:0|0:3,0:0:0:0:
380,336,10510,6,0,B|380:292|352:268|352:268|380:244|380:203,1,150,0|8,1:3|0:0,0:0:0:0:
436,18,11059,1,8,0:0:0:0:
284,130,11242,1,0,1:3:0:0:
476,130,11425,1,8,0:0:0:0:
320,18,11608,1,8,0:0:0:0:
320,18,11973,6,0,P|288:9|256:18,1,67.4999979400635,4|0,1:2|0:3,0:0:0:0:
83,17,12339,2,0,P|115:7|147:16,1,67.4999979400635,8|0,0:0|0:3,0:0:0:0:
256,125,12704,1,0,1:3:0:0:
150,125,12887,1,0,0:3:0:0:
256,18,13070,1,8,0:0:0:0:
256,125,13253,1,0,0:3:0:0:
147,16,13436,6,0,P|114:6|82:16,1,67.4999979400635,0|0,1:3|0:3,0:0:0:0:
204,168,13801,1,8,0:0:0:0:
320,18,13984,2,0,P|287:8|255:17,1,67.4999979400635,0|0,0:3|1:3,0:0:0:0:
304,168,14350,1,8,0:0:0:0:
336,164,14441,1,8,0:0:0:0:
368,160,14533,1,8,0:0:0:0:
256,100,14716,1,8,0:0:0:0:
312,248,14898,6,0,L|379:240,1,67.4999979400635,0|0,1:3|0:3,0:0:0:0:
200,248,15264,2,0,L|133:240,1,67.4999979400635,8|0,0:0|0:3,0:0:0:0:
312,361,15630,2,0,L|379:353,1,67.4999979400635,0|0,1:3|0:3,0:0:0:0:
200,361,15996,2,0,L|133:353,1,67.4999979400635,8|0,0:0|0:3,0:0:0:0:
312,248,16361,5,0,1:3:0:0:
312,361,16544,1,0,0:3:0:0:
200,248,16727,1,8,0:0:0:0:
200,361,16910,1,0,0:3:0:0:
312,248,17092,2,0,P|344:239|376:248,1,67.4999979400635,0|8,1:3|0:0,0:0:0:0:
200,248,17458,1,8,0:0:0:0:
312,361,17641,1,8,0:0:0:0:
200,248,17824,6,0,P|168:239|136:248,1,67.4999979400635,0|0,1:3|0:3,0:0:0:0:
312,135,18189,2,0,P|344:126|376:135,1,67.4999979400635,8|0,0:0|0:3,0:0:0:0:
200,136,18555,2,0,B|136:164|136:108|71:136,1,134.999995880127,0|8,1:3|0:0,0:0:0:0:
254,43,19104,1,0,0:3:0:0:
256,228,19286,6,0,L|256:295,1,67.4999979400635,0|0,1:3|0:3,0:0:0:0:
176,181,19652,1,8,0:0:0:0:
337,181,19835,1,0,0:3:0:0:
337,344,20018,2,0,L|404:344,1,67.4999979400635,0|8,1:3|0:0,0:0:0:0:
176,344,20384,1,8,0:0:0:0:
256,180,20566,1,8,0:0:0:0:
337,344,20749,6,0,L|404:344,1,67.4999979400635,0|0,1:3|0:3,0:0:0:0:
176,344,21115,2,0,L|109:344,1,67.4999979400635,8|0,0:0|0:3,0:0:0:0:
296,264,21481,2,0,L|363:264,1,67.4999979400635,0|0,1:3|0:3,0:0:0:0:
216,264,21846,2,0,L|149:264,1,67.4999979400635,8|0,0:0|0:3,0:0:0:0:
255,184,22212,6,0,L|322:184,1,67.4999979400635,0|0,1:3|0:3,0:0:0:0:
255,184,22578,2,0,L|188:184,1,67.4999979400635,8|0,0:0|0:3,0:0:0:0:
255,184,22943,2,0,L|255:117,1,67.4999979400635,0|0,1:3|0:0,0:0:0:0:
255,184,23309,2,0,L|255:251,1,67.4999979400635,2|0,0:0|0:0,0:0:0:0:
216,372,23675,6,0,P|256:380|296:372,1,82.5000025177003,4|0,1:2|0:3,0:0:0:0:
420,252,24040,2,0,P|380:244|340:252,1,82.5000025177003,8|0,0:0|0:3,0:0:0:0:
461,372,24406,1,0,1:3:0:0:
420,252,24589,1,0,1:3:0:0:
296,372,24772,1,8,0:0:0:0:
340,252,24954,1,0,0:3:0:0:
461,372,25137,6,0,L|379:372,1,82.5000025177003,0|0,1:3|0:3,0:0:0:0:
380,184,25503,1,8,0:0:0:0:
296,372,25686,2,0,L|378:372,1,82.5000025177003,0|0,0:3|1:3,0:0:0:0:
380,184,26051,1,8,0:0:0:0:
340,184,26143,1,8,0:0:0:0:
300,184,26234,1,8,0:0:0:0:
296,372,26417,1,8,0:0:0:0:
220,184,26600,6,0,P|260:175|300:183,1,82.5000025177003,0|0,1:3|0:3,0:0:0:0:
296,372,26966,2,0,P|255:380|215:372,1,82.5000025177003,8|0,0:0|0:3,0:0:0:0:
336,276,27331,2,0,L|418:284,1,82.5000025177003,0|0,1:3|1:3,0:0:0:0:
176,276,27697,2,0,L|94:284,1,82.5000025177003,8|0,0:0|0:3,0:0:0:0:
296,372,28062,5,0,1:3:0:0:
336,276,28245,1,0,0:3:0:0:
216,372,28428,1,8,0:0:0:0:
176,276,28611,1,0,0:3:0:0:
296,180,28794,2,0,P|336:172|376:180,1,82.5000025177003,0|8,1:3|0:0,0:0:0:0:
176,276,29159,1,8,0:0:0:0:
336,276,29342,1,8,0:0:0:0:
216,180,29525,6,0,P|176:172|136:180,1,82.5000025177003,0|0,1:3|0:3,0:0:0:0:
336,276,29891,2,0,P|376:284|416:276,1,82.5000025177003,8|0,0:0|0:3,0:0:0:0:
216,180,30256,2,0,B|136:152|136:208|56:180,1,165.000005035401,0|8,1:3|0:0,0:0:0:0:
176,276,30805,1,0,0:3:0:0:
96,84,30988,6,0,P|88:44|96:4,1,82.5000025177003,0|0,1:3|0:3,0:0:0:0:
269,4,31353,1,8,0:0:0:0:
96,84,31536,1,0,0:3:0:0:
269,84,31719,2,0,P|277:44|269:4,1,82.5000025177003,0|8,1:3|0:0,0:0:0:0:
182,152,32085,1,8,0:0:0:0:
96,4,32268,1,8,0:0:0:0:
269,4,32451,6,0,B|313:4|340:40|340:40|369:4|410:4,1,165.000005035401,0|8,1:3|0:0,0:0:0:0:
412,164,32999,1,0,0:3:0:0:
412,164,33182,2,0,B|368:164|340:128|340:128|312:164|271:164,1,165.000005035401,0|8,1:3|0:0,0:0:0:0:
269,4,33731,1,0,0:3:0:0:
340,128,33913,5,8,0:0:0:0:
269,4,34096,1,0,1:3:0:0:
198,128,34279,2,0,P|158:136|118:128,1,82.5000025177003,8|0,0:0|1:3,0:0:0:0:
340,128,34645,2,0,B|400:148|400:108|460:128,1,123.75000377655,8|0,0:0|0:0,0:0:0:0:
496,152,35010,2,0,B|520:172|528:204|528:204|520:236|496:256,1,123.75000377655,8|0,0:0|0:0,0:0:0:0:
460,279,35376,6,0,P|414:291|367:280,1,97.4999955368044,4|2,1:2|0:3,0:0:0:0:
288,144,35742,1,8,0:0:0:0:
208,280,35925,1,2,0:3:0:0:
364,116,36107,2,0,P|288:64|214:116,1,194.999991073609,0|8,1:3|0:0,0:0:0:0:
288,280,36656,1,2,0:3:0:0:
364,116,36839,6,0,L|461:108,1,97.4999955368044,0|2,1:3|0:3,0:0:0:0:
214,117,37204,2,0,L|117:109,1,97.4999955368044,8|2,0:0|0:3,0:0:0:0:
364,116,37570,1,0,1:3:0:0:
214,268,37753,1,2,0:3:0:0:
214,117,37936,1,8,0:0:0:0:
365,268,38119,1,2,0:3:0:0:
364,116,38301,6,0,L|364:19,1,97.4999955368044,0|2,1:3|0:3,0:0:0:0:
288,192,38667,1,8,0:0:0:0:
216,20,38850,1,2,0:3:0:0:
288,192,39033,2,0,B|196:236|196:148|102:192,1,194.999991073609,0|8,1:3|0:0,0:0:0:0:
240,112,39581,1,2,0:3:0:0:
152,272,39764,6,0,P|140:318|151:365,1,97.4999955368044,0|8,1:3|0:0,0:0:0:0:
316,272,40130,1,8,0:0:0:0:
152,272,40313,1,0,1:3:0:0:
316,366,40496,2,0,P|328:319|316:272,1,97.4999955368044,0|8,1:3|0:0,0:0:0:0:
153,178,40861,2,0,P|141:224|152:271,1,97.4999955368044,8|0,0:0|1:3,0:0:0:0:
320,84,41227,6,0,B|268:84|236:128|236:128|204:84|155:84,1,194.999991073609,4|8,1:2|0:0,0:0:0:0:
318,178,41775,1,2,0:3:0:0:
236,30,41958,1,0,1:3:0:0:
153,178,42141,1,2,0:3:0:0:
236,30,42324,2,0,L|236:127,1,97.4999955368044,8|2,0:0|0:3,0:0:0:0:
404,32,42690,6,0,L|404:129,1,97.4999955368044,0|2,1:3|0:3,0:0:0:0:
336,326,43055,1,8,0:0:0:0:
510,202,43238,1,2,0:3:0:0:
303,205,43421,1,0,1:3:0:0:
472,326,43604,1,2,0:3:0:0:
404,130,43787,2,0,L|404:227,1,97.4999955368044,8|2,0:0|0:3,0:0:0:0:
452,48,44152,6,0,P|405:36|358:48,1,97.4999955368044,0|2,1:3|0:3,0:0:0:0:
482,203,44518,1,8,0:0:0:0:
452,48,44700,1,2,0:3:0:0:
328,203,44884,1,0,1:3:0:0:
358,48,45066,1,2,0:3:0:0:
482,203,45249,1,8,0:0:0:0:
452,48,45432,1,2,0:3:0:0:
328,203,45615,6,0,P|281:215|234:203,1,97.4999955368044,0|8,1:3|0:0,0:0:0:0:
52,96,45981,1,8,0:0:0:0:
142,251,46163,1,0,1:3:0:0:
233,96,46346,2,0,P|245:49|233:2,1,97.4999955368044,0|8,1:3|0:0,0:0:0:0:
52,96,46712,1,8,0:0:0:0:
233,96,46895,1,0,1:3:0:0:
142,251,47078,6,0,B|186:159|98:159|142:65,1,194.999991073609,4|8,1:2|0:0,0:0:0:0:
252,169,47626,1,8,0:0:0:0:
28,169,47809,1,0,1:3:0:0:
210,37,47992,1,8,0:3:0:0:
142,251,48175,1,8,0:0:0:0:
72,37,48358,1,8,0:3:0:0:
252,169,48540,6,0,P|299:181|346:169,1,97.4999955368044,0|0,1:3|0:3,0:0:0:0:
464,12,48906,1,8,0:0:0:0:
299,105,49089,1,8,0:0:0:0:
464,199,49272,2,0,P|476:152|464:105,1,97.4999955368044,0|8,1:3|0:0,0:0:0:0:
299,12,49637,1,8,0:0:0:0:
380,200,49820,1,0,1:3:0:0:
464,12,50003,6,0,B|412:12|380:56|380:56|348:12|299:12,1,194.999991073609,0|8,1:3|0:0,0:0:0:0:
117,144,50552,1,8,0:0:0:0:
341,144,50734,1,0,0:0:0:0:
161,12,50917,1,8,0:3:0:0:
231,226,51101,1,8,0:0:0:0:
299,12,51283,1,8,0:3:0:0:
117,144,51466,6,0,B|73:236|161:236|117:330,1,194.999991073609,0|8,1:3|0:0,0:0:0:0:
208,144,52014,1,8,0:0:0:0:
28,144,52197,1,0,1:3:0:0:
28,328,52380,1,8,0:0:0:0:
208,328,52563,1,8,0:0:0:0:
