osu file format v14

[General]
AudioFilename: audio.mp3
AudioLeadIn: 0
PreviewTime: 34919
Countdown: 0
SampleSet: Soft
StackLeniency: 0.7
Mode: 0
LetterboxInBreaks: 0
WidescreenStoryboard: 1

[Editor]
Bookmarks: 46621
DistanceSpacing: 1.4
BeatDivisor: 4
GridSize: 8
TimelineZoom: 1

[Metadata]
Title:Take a Hint feat. Victoria Justice & Elizabeth Gillies (Speed Up Ver.)
TitleUnicode:Take a Hint feat. Victoria Justice & Elizabeth Gillies (Speed Up Ver.)
Artist:Victorious Cast
ArtistUnicode:Victorious Cast
Creator:SquareTude
Version:Azunyan's Advanced
Source:Victorious
Tags:Nickelodeon Original Soundtrack 2.0 More Music from the Hit TV Show Anime Nightcore English Nelliel Acyl Apo11o Azunyan- Cris-
BeatmapID:2060303
BeatmapSetID:984684

[Difficulty]
HPDrainRate:4
CircleSize:2
OverallDifficulty:5
ApproachRate:6
SliderMultiplier:1.4
SliderTickRate:1

[Events]
//Background and Video events
0,0,"akira.jpg",0,0
//Break Periods
//Storyboard Layer 0 (Background)
//Storyboard Layer 1 (Fail)
//Storyboard Layer 2 (Pass)
//Storyboard Layer 3 (Foreground)
//Storyboard Sound Samples

[TimingPoints]
272,365.673051724453,4,2,11,37,1,0
6122,-111.111111111111,4,2,11,70,0,0
11973,-111.111111111111,4,2,11,50,0,0
35010,-111.111111111111,4,2,11,70,0,0
35376,-100,4,2,11,70,0,1
47078,-100,4,2,11,60,0,0
47809,-111.111111111111,4,2,11,60,0,0

[Colours]
Combo1 : 255,255,111
Combo2 : 64,159,255
Combo3 : 255,106,106
Combo4 : 113,255,113

[HitObjects]
350,230,6122,6,0,P|363:166|335:94,1,125.999996154785,0|8,1:3|0:0,0:0:0:0:
283,46,6671,1,8,0:0:0:0:
283,46,6854,2,0,L|203:39,1,62.9999980773926,0|8,1:3|0:3,0:0:0:0:
163,108,7219,2,0,L|83:101,1,62.9999980773926,8|8,0:0|0:3,0:0:0:0:
37,164,7585,6,0,P|17:223|38:312,1,125.999996154785,0|8,1:3|0:0,0:0:0:0:
89,355,8133,1,8,0:0:0:0:
89,355,8316,2,0,P|130:360|167:344,1,62.9999980773926,0|8,1:3|0:0,0:0:0:0:
207,288,8682,1,8,0:0:0:0:
372,349,9048,6,0,B|392:320|392:320|503:328,1,125.999996154785,0|8,1:3|0:0,0:0:0:0:
508,242,9596,1,8,0:0:0:0:
508,242,9779,2,0,L|417:234,1,62.9999980773926,0|8,1:3|0:3,0:0:0:0:
381,175,10145,2,0,L|290:167,1,62.9999980773926,8|8,0:0|0:3,0:0:0:0:
253,230,10510,6,0,P|272:292|237:360,1,125.999996154785,0|8,1:3|0:0,0:0:0:0:
168,380,11059,1,8,0:0:0:0:
168,380,11242,2,0,L|88:373,1,62.9999980773926,0|8,1:3|0:0,0:0:0:0:
24,338,11607,1,8,0:0:0:0:
63,165,11973,6,0,P|54:118|72:78,1,62.9999980773926,4|0,1:2|0:3,0:0:0:0:
106,29,12339,2,0,L|185:35,1,62.9999980773926,8|0,0:0|0:3,0:0:0:0:
229,98,12704,2,0,P|297:118|365:95,1,125.999996154785,0|8,1:3|0:0,0:0:0:0:
503,17,13436,6,0,P|496:59|498:96,1,62.9999980773926,0|0,1:3|0:3,0:0:0:0:
442,149,13801,2,0,P|449:191|447:228,1,62.9999980773926,8|0,0:0|0:3,0:0:0:0:
496,286,14167,1,0,1:3:0:0:
330,247,14533,2,0,L|266:241,1,62.9999980773926,8|8,0:0|0:0,0:0:0:0:
180,223,14898,6,0,P|164:256|165:301,1,62.9999980773926,0|0,1:3|0:3,0:0:0:0:
125,362,15264,2,0,P|90:374|45:368,1,62.9999980773926,8|0,0:0|0:3,0:0:0:0:
13,300,15630,2,0,L|1:156,1,125.999996154785,0|8,1:3|0:0,0:0:0:0:
174,160,16361,6,0,L|180:239,1,62.9999980773926,0|0,1:3|0:3,0:0:0:0:
252,273,16727,2,0,P|301:280|323:275,1,62.9999980773926,8|0,0:0|0:3,0:0:0:0:
393,240,17092,2,0,P|414:171|392:100,1,125.999996154785,0|8,1:3|0:0,0:0:0:0:
353,46,17641,1,8,0:0:0:0:
353,46,17824,6,0,L|273:39,1,62.9999980773926,0|0,1:3|0:3,0:0:0:0:
218,92,18189,2,0,L|138:85,1,62.9999980773926,8|0,0:0|0:3,0:0:0:0:
79,133,18555,2,0,B|57:190|57:190|78:276,1,125.999996154785,0|8,1:3|0:0,0:0:0:0:
212,361,19286,6,0,P|257:368|291:347,1,62.9999980773926,0|0,1:3|0:3,0:0:0:0:
333,298,19652,2,0,P|363:290|393:299,1,62.9999980773926,8|0,0:0|0:3,0:0:0:0:
461,242,20018,2,0,P|478:191|453:101,1,125.999996154785,0|8,1:3|0:0,0:0:0:0:
315,27,20749,6,0,L|235:20,1,62.9999980773926,0|0,1:3|0:3,0:0:0:0:
164,10,21115,2,0,L|158:72,1,62.9999980773926,8|0,0:0|0:3,0:0:0:0:
148,160,21481,2,0,L|210:165,1,62.9999980773926,0|0,1:3|0:3,0:0:0:0:
298,175,21846,2,0,L|292:237,1,62.9999980773926,8|0,0:0|0:3,0:0:0:0:
287,326,22212,6,0,P|230:325|212:302,1,62.9999980773926,0|0,1:3|0:3,0:0:0:0:
153,275,22578,2,0,L|73:268,1,62.9999980773926,8|0,0:0|0:3,0:0:0:0:
40,196,22943,2,0,P|25:135|59:59,1,125.999996154785,0|2,1:3|0:0,0:0:0:0:
206,5,23675,6,0,B|237:-5|237:-5|283:6,1,62.9999980773926,4|0,1:2|0:3,0:0:0:0:
320,72,24040,2,0,B|349:79|349:79|380:69,1,62.9999980773926,8|0,0:0|0:3,0:0:0:0:
468,77,24406,2,0,P|491:125|477:220,1,125.999996154785,0|8,1:3|0:0,0:0:0:0:
316,155,25137,6,0,P|257:151|233:158,1,62.9999980773926,0|0,1:3|0:3,0:0:0:0:
170,182,25503,2,0,P|138:184|107:178,1,62.9999980773926,8|0,0:0|0:3,0:0:0:0:
43,117,25869,2,0,P|22:158|59:254,1,125.999996154785,0|8,1:3|0:0,0:0:0:0:
144,373,26600,6,0,L|223:379,1,62.9999980773926,0|0,1:3|0:3,0:0:0:0:
238,294,26966,2,0,L|300:288,1,62.9999980773926,8|0,0:0|0:3,0:0:0:0:
391,277,27331,1,0,1:3:0:0:
391,277,27514,1,0,1:3:0:0:
424,361,27697,2,0,L|486:355,1,62.9999980773926,8|0,0:0|0:3,0:0:0:0:
511,269,28063,6,0,B|518:230|518:230|507:186,1,62.9999980773926,0|0,1:3|0:3,0:0:0:0:
460,136,28428,2,0,L|397:141,1,62.9999980773926,8|0,0:0|0:3,0:0:0:0:
333,78,28794,2,0,P|267:69|204:91,1,125.999996154785,0|8,1:3|0:0,0:0:0:0:
264,254,29525,6,0,L|257:333,1,62.9999980773926,0|0,1:3|0:3,0:0:0:0:
169,317,29891,2,0,L|89:310,1,62.9999980773926,8|0,0:0|0:3,0:0:0:0:
17,303,30257,2,0,P|-4:204|17:170,1,125.999996154785,0|8,1:3|0:0,0:0:0:0:
163,106,30988,6,0,L|242:112,1,62.9999980773926,0|0,1:3|0:3,0:0:0:0:
306,72,31354,1,8,0:0:0:0:
306,72,31537,1,0,0:3:0:0:
355,144,31719,2,0,L|498:154,1,125.999996154785,0|8,1:3|0:0,0:0:0:0:
375,295,32451,6,0,B|344:311|312:295|312:295|280:279|249:295,1,125.999996154785,0|8,1:3|0:0,0:0:0:0:
173,329,32999,1,0,0:3:0:0:
173,329,33182,2,0,B|132:351|132:351|24:338,1,125.999996154785,0|8,1:3|0:0,0:0:0:0:
7,265,33731,1,0,0:3:0:0:
7,265,33913,6,0,P|20:212|13:184,1,62.9999980773926,8|0,0:0|1:3,0:0:0:0:
13,115,34279,1,8,0:0:0:0:
13,115,34462,1,0,1:3:0:0:
68,46,34645,2,0,L|149:53,1,62.9999980773926,8|0,0:0|0:0,0:0:0:0:
218,58,35010,1,8,0:0:0:0:
149,241,35376,6,0,P|126:299|151:382,1,140,4|8,1:2|0:0,0:0:0:0:
242,363,35925,1,2,0:3:0:0:
242,363,36107,2,0,L|337:371,1,70,0|2,1:3|0:3,0:0:0:0:
392,311,36473,1,8,0:0:0:0:
392,311,36656,1,2,0:3:0:0:
372,214,36839,6,0,P|362:163|398:55,1,140,0|8,1:3|0:0,0:0:0:0:
306,19,37387,1,2,0:3:0:0:
306,19,37570,2,0,L|210:10,1,70,0|2,1:3|0:3,0:0:0:0:
138,4,37936,1,8,0:0:0:0:
138,4,38119,1,2,0:3:0:0:
188,87,38301,5,0,1:3:0:0:
170,246,38667,1,8,0:0:0:0:
170,246,38850,1,2,0:3:0:0:
72,231,39033,2,0,L|-15:223,1,70,0|2,1:3|0:3,0:0:0:0:
23,320,39399,1,8,0:0:0:0:
23,320,39581,1,2,0:3:0:0:
106,371,39764,5,0,1:3:0:0:
260,292,40130,1,8,0:0:0:0:
260,292,40313,1,0,1:3:0:0:
315,360,40496,2,0,L|402:367,1,70,0|8,1:3|0:0,0:0:0:0:
447,290,40861,1,8,0:0:0:0:
447,290,41044,1,0,1:3:0:0:
404,195,41227,5,4,1:2:0:0:
368,35,41593,1,8,0:0:0:0:
368,35,41775,1,2,0:3:0:0:
315,118,41958,2,0,P|280:123|246:117,1,70,0|2,1:3|0:3,0:0:0:0:
200,29,42324,2,0,P|158:23|112:37,1,70,8|2,0:0|0:3,0:0:0:0:
79,112,42690,6,0,L|71:199,1,70,0|2,1:3|0:3,0:0:0:0:
124,265,43055,1,8,0:0:0:0:
124,265,43238,1,2,0:3:0:0:
221,273,43421,2,0,L|290:279,1,70,0|2,1:3|0:3,0:0:0:0:
372,224,43787,1,8,0:0:0:0:
372,224,43969,1,2,0:3:0:0:
452,279,44152,6,0,P|484:239|481:141,1,140,0|8,1:3|0:0,0:0:0:0:
425,75,44701,1,2,0:3:0:0:
425,75,44884,2,0,L|329:66,1,70,0|2,1:3|0:3,0:0:0:0:
267,25,45249,2,0,L|171:16,1,70,8|2,0:0|0:3,0:0:0:0:
104,52,45615,5,0,1:3:0:0:
117,213,45981,1,8,0:0:0:0:
117,213,46163,1,0,1:3:0:0:
211,188,46346,2,0,L|306:196,1,70,0|8,1:3|0:0,0:0:0:0:
378,206,46712,1,8,0:0:0:0:
378,206,46894,1,0,1:3:0:0:
474,226,47078,6,0,P|483:293|443:349,1,140,4|8,1:2|0:0,0:0:0:0:
354,379,47626,1,8,0:0:0:0:
354,379,47809,2,0,L|266:371,1,62.9999980773926,0|8,1:3|0:3,0:0:0:0:
208,332,48175,2,0,L|120:324,1,62.9999980773926,8|8,0:0|0:3,0:0:0:0:
58,340,48540,5,0,1:3:0:0:
120,174,48906,2,0,P|126:128|116:87,1,62.9999980773926,8|8,0:0|0:0,0:0:0:0:
165,33,49272,2,0,L|228:38,1,62.9999980773926,0|8,1:3|0:0,0:0:0:0:
315,25,49637,1,8,0:0:0:0:
315,25,49820,1,0,1:3:0:0:
389,72,50003,6,0,L|395:213,1,125.999996154785,0|8,1:3|0:0,0:0:0:0:
333,262,50552,1,8,0:0:0:0:
333,262,50734,2,0,L|253:255,1,62.9999980773926,0|8,0:0|0:3,0:0:0:0:
200,311,51100,2,0,L|120:304,1,62.9999980773926,8|8,0:0|0:3,0:0:0:0:
51,328,51466,6,0,P|32:261|61:197,1,125.999996154785,0|8,1:3|0:0,0:0:0:0:
122,159,52014,1,8,0:0:0:0:
122,159,52197,2,0,L|193:165,1,62.9999980773926,0|8,1:3|0:0,0:0:0:0:
259,115,52563,1,8,0:0:0:0:
