osu file format v14

[General]
AudioFilename: audio.mp3
AudioLeadIn: 0
PreviewTime: 34919
Countdown: 0
SampleSet: Soft
StackLeniency: 0.3
Mode: 0
LetterboxInBreaks: 0
WidescreenStoryboard: 1

[Editor]
Bookmarks: 23675
DistanceSpacing: 2.5
BeatDivisor: 4
GridSize: 32
TimelineZoom: 1.4

[Metadata]
Title:Take a Hint feat. Victoria Justice & Elizabeth Gillies (Speed Up Ver.)
TitleUnicode:Take a Hint feat. Victoria Justice & Elizabeth Gillies (Speed Up Ver.)
Artist:Victorious Cast
ArtistUnicode:Victorious Cast
Creator:SquareTude
Version:Apollo's Insane
Source:Victorious
Tags:Nickelodeon Original Soundtrack 2.0 More Music from the Hit TV Show Anime Nightcore English Nelliel Acyl Apo11o Azunyan- Cris-
BeatmapID:2060302
BeatmapSetID:984684

[Difficulty]
HPDrainRate:5
CircleSize:3.4
OverallDifficulty:8.7
ApproachRate:9
SliderMultiplier:1.6
SliderTickRate:1

[Events]
//Background and Video events
0,0,"take a hint bg.jpg",0,0
//Break Periods
//Storyboard Layer 0 (Background)
//Storyboard Layer 1 (Fail)
//Storyboard Layer 2 (Pass)
//Storyboard Layer 3 (Foreground)
//Storyboard Sound Samples

[TimingPoints]
272,365.673051724453,4,2,11,37,1,0
272,-142.857142857143,4,2,11,37,0,0
6122,-100,4,2,11,70,0,0
11973,-111.111111111111,4,2,11,50,0,0
20749,-100,4,2,11,50,0,0
21115,-100,4,2,11,50,0,0
21481,-100,4,2,11,50,0,0
21846,-100,4,2,11,50,0,0
22212,-100,4,2,11,50,0,0
23675,-90.9090909090909,4,2,11,50,0,0
29525,-100,4,2,11,50,0,0
35010,-100,4,2,11,70,0,0
35376,-71.4285714285714,4,2,11,70,0,1
39764,-62.5,4,2,11,70,0,1
47078,-83.3333333333333,4,2,11,60,0,0

[Colours]
Combo1 : 192,192,192
Combo2 : 255,128,128
Combo3 : 125,184,255
Combo4 : 255,255,128

[HitObjects]
469,293,272,6,0,L|343:299,1,111.999996582031,2|0,0:0|0:0,0:0:0:0:
159,308,820,2,0,L|214:305,2,55.9999982910157,0|0|0,0:0|0:0|0:0,0:0:0:0:
58,312,1369,2,0,L|2:314,1,55.9999982910157,0|0,0:0|0:0,0:0:0:0:
264,304,1734,6,0,L|257:178,1,111.999996582031,2|0,0:0|0:0,0:0:0:0:
250,31,2283,2,0,L|252:86,2,55.9999982910157,0|0|0,0:0|0:0|0:0,0:0:0:0:
258,192,2831,1,0,0:0:0:0:
258,192,3197,6,0,L|369:186,1,111.999996582031,2|0,0:0|0:0,0:0:0:0:
128,201,3745,2,0,L|72:203,2,55.9999982910157,0|0|0,0:0|0:0|0:0,0:0:0:0:
258,192,4294,2,0,L|313:189,1,55.9999982910157,0|0,0:0|0:0,0:0:0:0:
475,179,4660,5,2,0:0:0:0:
475,179,5208,1,0,0:0:0:0:
258,192,5391,1,0,0:0:0:0:
491,183,5574,1,0,0:0:0:0:
258,91,5757,1,0,0:0:0:0:
104,323,6122,6,0,L|86:152,1,160,0|8,1:3|0:0,0:0:0:0:
258,91,6671,2,0,L|249:170,1,80,8|0,0:0|1:3,0:0:0:0:
228,324,7036,1,8,0:3:0:0:
168,139,7219,1,8,0:0:0:0:
104,323,7402,1,8,0:3:0:0:
249,170,7585,6,0,P|330:162|415:178,1,160,0|8,1:3|0:0,0:0:0:0:
250,47,8133,2,0,P|198:57|158:74,1,80,8|0,0:0|1:3,0:0:0:0:
12,144,8499,1,8,0:0:0:0:
255,259,8682,2,0,L|158:268,1,80,8|0,0:0|1:3,0:0:0:0:
22,335,9048,6,0,P|89:318|205:330,1,160,0|8,1:3|0:0,0:0:0:0:
353,343,9596,2,0,P|405:348|447:337,1,80,8|0,0:0|1:3,0:0:0:0:
468,107,9962,1,8,0:3:0:0:
295,221,10145,1,8,0:0:0:0:
478,283,10328,1,8,0:3:0:0:
339,135,10510,6,0,P|283:126|198:200,1,160,0|8,1:3|0:0,0:0:0:0:
107,293,11059,2,0,L|98:203,1,80,8|0,0:0|1:3,0:0:0:0:
193,54,11425,1,8,0:0:0:0:
264,294,11607,1,8,0:0:0:0:
264,294,11973,6,0,L|350:302,2,71.9999978027344,4|0|8,1:2|0:3|0:0,0:0:0:0:
164,384,12522,1,0,0:3:0:0:
48,243,12704,2,0,L|40:329,1,71.9999978027344,0|0,1:3|0:3,0:0:0:0:
192,145,13070,2,0,L|200:231,1,71.9999978027344,8|0,0:0|0:3,0:0:0:0:
17,101,13436,5,0,1:3:0:0:
90,42,13619,1,0,0:3:0:0:
181,64,13801,2,0,L|252:57,1,71.9999978027344,8|0,0:0|0:3,0:0:0:0:
355,104,14167,1,0,1:3:0:0:
285,227,14350,1,8,0:0:0:0:
285,227,14441,1,8,0:0:0:0:
285,227,14533,1,8,0:0:0:0:
252,57,14716,1,8,0:0:0:0:
429,159,14898,6,0,L|509:154,2,71.9999978027344,0|0|8,1:3|0:3|0:0,0:0:0:0:
273,136,15447,1,0,0:3:0:0:
196,248,15630,2,0,L|201:328,1,71.9999978027344,0|0,1:3|0:3,0:0:0:0:
345,279,15995,2,0,L|340:359,1,71.9999978027344,8|0,0:0|0:3,0:0:0:0:
429,159,16361,5,0,1:3:0:0:
355,104,16544,1,0,0:3:0:0:
273,136,16727,2,0,L|201:140,1,71.9999978027344,8|0,0:0|0:3,0:0:0:0:
127,189,17092,1,0,1:3:0:0:
72,10,17275,1,8,0:0:0:0:
273,136,17458,1,8,0:0:0:0:
54,247,17641,1,8,0:0:0:0:
196,52,17824,6,0,L|190:146,1,71.9999978027344,0|0,1:3|0:3,0:0:0:0:
362,219,18189,2,0,L|357:147,1,71.9999978027344,8|0,0:0|0:3,0:0:0:0:
192,313,18555,2,0,L|345:308,1,143.999995605469,0|8,1:3|0:0,0:0:0:0:
418,348,19104,1,0,0:3:0:0:
256,232,19286,6,0,P|247:183|253:134,1,71.9999978027344,0|0,1:3|0:3,0:0:0:0:
367,75,19652,2,0,P|366:110|358:145,1,71.9999978027344,8|0,0:0|0:3,0:0:0:0:
191,32,20018,1,0,1:3:0:0:
358,145,20201,1,8,0:0:0:0:
186,200,20384,1,8,0:0:0:0:
283,34,20566,1,8,0:0:0:0:
422,205,20749,5,0,1:3:0:0:
139,224,21115,1,8,0:0:0:0:
460,220,21481,1,0,1:3:0:0:
107,272,21846,1,8,0:0:0:0:
490,228,22212,1,0,1:3:0:0:
84,331,22578,1,8,0:0:0:0:
450,147,22943,1,0,1:3:0:0:
305,326,23309,1,2,0:0:0:0:
305,326,23675,6,0,P|311:249|296:205,1,88.000002685547,4|0,1:2|0:3,0:0:0:0:
146,90,24040,2,0,P|141:133|149:176,1,88.000002685547,8|0,0:0|0:3,0:0:0:0:
218,336,24406,1,0,1:3:0:0:
245,134,24589,1,0,1:3:0:0:
214,348,24772,1,8,0:0:0:0:
251,119,24955,1,0,0:3:0:0:
372,353,25137,6,0,L|367:237,1,88.000002685547,0|0,1:3|0:3,0:0:0:0:
446,90,25503,2,0,L|442:177,1,88.000002685547,8|0,0:0|0:3,0:0:0:0:
227,256,25869,1,0,1:3:0:0:
194,40,26051,1,8,0:0:0:0:
194,40,26143,1,8,0:0:0:0:
194,40,26234,1,8,0:0:0:0:
316,129,26417,1,8,0:0:0:0:
42,106,26600,6,0,P|84:95|128:97,1,88.000002685547,0|0,1:3|0:3,0:0:0:0:
316,129,26966,2,0,P|247:140|195:128,1,88.000002685547,8|0,0:0|0:3,0:0:0:0:
25,229,27331,1,0,1:3:0:0:
227,256,27514,1,0,1:3:0:0:
13,225,27697,1,8,0:0:0:0:
242,261,27880,1,0,0:3:0:0:
6,332,28063,6,0,L|116:340,1,88.000002685547,0|0,1:3|0:3,0:0:0:0:
154,174,28428,2,0,L|265:166,1,88.000002685547,8|0,0:0|0:3,0:0:0:0:
418,322,28794,1,0,1:3:0:0:
454,150,28977,1,8,0:0:0:0:
277,339,29160,1,8,0:0:0:0:
241,167,29343,1,8,0:0:0:0:
418,322,29525,6,0,P|418:254|410:220,1,80,0|0,1:3|0:3,0:0:0:0:
238,246,29891,2,0,P|238:178|246:144,1,80,8|0,0:0|0:3,0:0:0:0:
470,126,30257,2,0,B|389:86|398:154|314:113,1,160,0|8,1:3|0:0,0:0:0:0:
228,39,30805,1,0,0:3:0:0:
364,33,30988,6,0,L|472:27,1,80,0|0,1:3|0:3,0:0:0:0:
474,205,31354,2,0,L|469:125,1,80,8|0,0:0|0:3,0:0:0:0:
317,194,31719,2,0,L|308:353,1,160,0|8,1:3|0:0,0:0:0:0:
85,317,32268,1,8,0:0:0:0:
85,317,32451,6,0,P|75:208|87:129,1,160,0|8,1:3|0:0,0:0:0:0:
317,194,32999,1,0,0:3:0:0:
317,194,33182,2,0,P|208:204|129:192,1,160,0|8,1:3|0:0,0:0:0:0:
87,57,33731,1,0,0:3:0:0:
331,75,33913,5,8,0:0:0:0:
96,158,34096,1,0,1:3:0:0:
352,63,34279,1,8,0:0:0:0:
155,239,34462,1,0,1:3:0:0:
373,51,34645,1,8,0:0:0:0:
373,51,35010,1,8,0:0:0:0:
373,51,35376,6,0,P|384:116|374:191,1,111.999996582031,4|2,1:2|0:3,0:0:0:0:
157,275,35742,1,8,0:0:0:0:
256,97,35925,1,2,0:3:0:0:
336,287,36107,2,0,P|391:289|446:279,1,111.999996582031,0|2,1:3|0:3,0:0:0:0:
262,191,36473,1,8,0:0:0:0:
163,369,36656,1,2,0:3:0:0:
46,209,36839,6,0,P|43:153|53:98,1,111.999996582031,0|2,1:3|0:3,0:0:0:0:
262,191,37204,1,8,0:0:0:0:
48,314,37387,1,2,0:3:0:0:
177,105,37570,1,0,1:3:0:0:
270,332,37753,1,2,0:3:0:0:
46,209,37936,1,8,0:0:0:0:
247,344,38119,1,2,0:3:0:0:
352,156,38301,6,0,P|354:100|344:45,1,111.999996582031,0|2,1:3|0:3,0:0:0:0:
181,243,38667,1,8,0:0:0:0:
433,193,38850,1,2,0:3:0:0:
192,119,39033,1,0,1:3:0:0:
247,344,39216,1,2,0:3:0:0:
352,156,39399,2,0,P|289:163|234:183,1,111.999996582031,8|2,0:0|0:3,0:0:0:0:
68,307,39764,6,0,P|68:255|106:289,1,128,0|8,1:3|0:0,0:0:0:0:
110,115,40130,1,8,0:0:0:0:
428,128,40313,1,0,1:3:0:0:
114,82,40496,1,0,1:3:0:0:
334,279,40678,1,8,0:0:0:0:
174,28,40861,1,8,0:0:0:0:
161,346,41044,1,0,1:3:0:0:
205,26,41227,1,4,1:2:0:0:
205,26,41593,6,0,L|207:166,1,128,8|2,0:0|0:3,0:0:0:0:
334,279,41958,2,0,L|335:151,1,128,0|2,1:3|0:3,0:0:0:0:
104,91,42324,1,8,0:0:0:0:
209,271,42507,1,2,0:3:0:0:
292,64,42690,6,0,P|354:60|429:81,1,128,0|2,1:3|0:3,0:0:0:0:
469,269,43055,1,8,0:0:0:0:
229,186,43238,1,2,0:3:0:0:
499,122,43421,1,0,1:3:0:0:
322,314,43604,1,2,0:3:0:0:
292,64,43787,1,8,0:0:0:0:
340,322,43969,1,2,0:3:0:0:
186,107,44152,6,0,P|124:103|49:124,1,128,0|2,1:3|0:3,0:0:0:0:
218,295,44518,1,8,0:0:0:0:
292,64,44701,1,2,0:3:0:0:
102,231,44884,1,0,1:3:0:0:
349,207,45066,1,2,0:3:0:0:
60,118,45249,1,8,0:0:0:0:
105,384,45432,1,2,0:3:0:0:
349,207,45615,6,0,P|422:204|479:218,1,128,0|8,1:3|0:0,0:0:0:0:
116,253,45981,1,8,0:0:0:0:
401,301,46163,1,0,1:3:0:0:
172,156,46346,2,0,P|99:153|42:167,1,128,0|8,1:3|0:0,0:0:0:0:
323,313,46712,1,8,0:0:0:0:
282,74,46895,1,0,1:3:0:0:
116,253,47078,6,0,P|195:205|281:240,1,191.999994140625,4|8,1:2|0:0,0:0:0:0:
401,301,47626,1,8,0:0:0:0:
478,90,47809,1,0,1:3:0:0:
409,312,47992,1,8,0:3:0:0:
372,71,48175,1,8,0:0:0:0:
416,323,48358,1,8,0:3:0:0:
289,137,48540,6,0,P|241:106|122:152,1,191.999994140625,0|8,1:3|0:0,0:0:0:0:
63,303,49089,1,8,0:0:0:0:
298,230,49272,1,0,1:3:0:0:
46,199,49455,1,8,0:0:0:0:
310,236,49637,1,8,0:0:0:0:
48,97,49820,1,0,1:3:0:0:
323,240,50003,6,0,P|371:237|430:122,1,191.999994140625,0|8,1:3|0:0,0:0:0:0:
207,62,50552,1,8,0:0:0:0:
262,315,50734,1,0,0:0:0:0:
307,62,50917,1,8,0:3:0:0:
265,325,51100,1,8,0:0:0:0:
398,98,51283,1,8,0:3:0:0:
133,321,51466,6,0,L|145:121,1,191.999994140625,0|8,1:3|0:0,0:0:0:0:
364,177,52014,1,8,0:0:0:0:
21,211,52197,1,0,1:3:0:0:
153,44,52380,1,8,0:0:0:0:
265,325,52563,1,8,0:0:0:0:
