osu file format v14

[General]
AudioFilename: audio.mp3
AudioLeadIn: 0
PreviewTime: 34919
Countdown: 0
SampleSet: Soft
StackLeniency: 0.7
Mode: 0
LetterboxInBreaks: 0
WidescreenStoryboard: 1

[Editor]
DistanceSpacing: 1.4
BeatDivisor: 4
GridSize: 4
TimelineZoom: 1.8

[Metadata]
Title:Take a Hint feat. Victoria Justice & Elizabeth Gillies (Speed Up Ver.)
TitleUnicode:Take a Hint feat. Victoria Justice & Elizabeth Gillies (Speed Up Ver.)
Artist:Victorious Cast
ArtistUnicode:Victorious Cast
Creator:SquareTude
Version:Acyl's Hard
Source:Victorious
Tags:Nickelodeon Original Soundtrack 2.0 More Music from the Hit TV Show Anime Nightcore English Nelliel Acyl Apo11o Azunyan- Cris-
BeatmapID:2060301
BeatmapSetID:984684

[Difficulty]
HPDrainRate:4.5
CircleSize:3
OverallDifficulty:7
ApproachRate:7
SliderMultiplier:1.7
SliderTickRate:1

[Events]
//Background and Video events
0,0,"take a hint bg.jpg",0,0
//Break Periods
//Storyboard Layer 0 (Background)
//Storyboard Layer 1 (Fail)
//Storyboard Layer 2 (Pass)
//Storyboard Layer 3 (Foreground)
//Storyboard Sound Samples

[TimingPoints]
272,365.673051724453,4,2,11,37,1,0
272,-133.333333333333,4,2,11,37,0,0
6122,-100,4,2,11,70,0,0
11973,-100,4,2,11,50,0,0
35010,-83.3333333333333,4,2,11,70,0,0
35376,-100,4,2,11,70,0,1
47078,-100,4,2,11,60,0,0

[Colours]
Combo1 : 255,255,111
Combo2 : 64,159,255
Combo3 : 255,106,106
Combo4 : 113,255,113

[HitObjects]
92,320,272,6,0,P|120:280|100:188,1,127.500004863739,2|0,0:0|0:0,0:0:0:0:
32,180,820,1,0,0:0:0:0:
32,180,1003,2,0,L|36:88,1,63.7500024318696,0|0,0:0|0:0,0:0:0:0:
128,56,1369,2,0,L|124:148,1,63.7500024318696,0|0,0:0|0:0,0:0:0:0:
112,204,1734,6,0,B|180:216|172:172|244:184,1,127.500004863739,2|0,0:0|0:0,0:0:0:0:
288,296,2283,1,0,0:0:0:0:
288,296,2466,2,0,P|240:280|224:256,1,63.7500024318696,0|0,0:0|0:0,0:0:0:0:
234,182,2831,1,0,0:0:0:0:
340,236,3197,6,0,P|332:320|348:384,1,127.500004863739,2|0,0:0|0:0,0:0:0:0:
428,372,3745,1,0,0:0:0:0:
428,372,3928,2,0,P|436:336|432:304,1,63.7500024318696,0|0,0:0|0:0,0:0:0:0:
508,268,4294,2,0,P|488:232|464:212,1,63.7500024318696,0|0,0:0|0:0,0:0:0:0:
400,160,4660,6,0,L|408:28,1,127.500004863739,2|0,0:0|0:0,0:0:0:0:
304,8,5208,1,0,0:0:0:0:
304,8,5391,2,0,L|312:80,1,63.7500024318696,0|0,0:0|0:0,0:0:0:0:
264,144,5757,1,0,0:0:0:0:
416,188,6122,6,0,B|312:180|360:244|252:236,1,170,0|8,1:3|0:0,0:0:0:0:
148,200,6671,1,8,0:0:0:0:
208,68,6854,2,0,P|208:104|232:160,1,85,0|8,1:3|0:3,0:0:0:0:
312,172,7219,1,8,0:0:0:0:
376,108,7402,1,8,0:3:0:0:
492,228,7585,6,0,P|416:216|356:304,1,170,0|8,1:3|0:0,0:0:0:0:
396,360,8133,1,8,0:0:0:0:
240,240,8316,2,0,P|274:278|280:320,1,85,0|8,1:3|0:0,0:0:0:0:
228,384,8682,1,8,0:0:0:0:
40,276,9048,6,0,P|84:320|196:300,1,170,0|8,1:3|0:0,0:0:0:0:
240,240,9596,1,8,0:0:0:0:
136,148,9779,2,0,P|156:196|156:252,1,85,0|8,1:3|0:3,0:0:0:0:
184,310,10145,1,8,0:0:0:0:
136,384,10328,1,8,0:3:0:0:
292,376,10510,6,0,L|280:192,1,170,0|8,1:3|0:0,0:0:0:0:
236,136,11059,1,8,0:0:0:0:
364,60,11242,2,0,P|344:104|344:168,1,85,0|8,1:3|0:0,0:0:0:0:
396,204,11607,1,8,0:0:0:0:
272,28,11973,5,4,1:2:0:0:
272,28,12156,2,0,L|172:20,1,85,0|8,0:3|0:0,0:0:0:0:
64,56,12522,1,0,0:3:0:0:
24,136,12704,5,0,1:3:0:0:
64,56,12887,2,0,P|108:72|136:112,1,85,0|8,0:3|0:0,0:0:0:0:
152,192,13253,1,0,0:3:0:0:
244,108,13436,6,0,L|254:192,1,85,0|0,1:3|0:3,0:0:0:0:
268,280,13801,1,8,0:0:0:0:
284,368,13985,1,0,0:3:0:0:
424,340,14167,6,0,P|380:312|336:312,1,85,0|8,1:3|0:0,0:0:0:0:
348,309,14441,1,8,0:0:0:0:
348,309,14533,1,8,0:0:0:0:
492,281,14716,1,8,0:0:0:0:
424,224,14898,5,0,1:3:0:0:
424,224,15081,2,0,P|372:196|356:156,1,85,0|8,0:3|0:0,0:0:0:0:
384,92,15447,1,0,0:3:0:0:
236,40,15630,5,0,1:3:0:0:
236,40,15813,2,0,L|248:140,1,85,0|8,0:3|0:0,0:0:0:0:
204,200,16178,1,0,0:3:0:0:
76,116,16361,5,0,1:3:0:0:
76,116,16544,2,0,P|140:112|164:128,1,85,0|8,0:3|0:0,0:0:0:0:
204,200,16910,1,0,0:3:0:0:
144,280,17092,6,0,P|108:232|108:192,1,85,0|8,1:3|0:0,0:0:0:0:
156,121,17458,1,8,0:0:0:0:
156,121,17641,1,8,0:0:0:0:
204,200,17824,6,0,P|268:188|376:264,2,170,0|8|0,1:3|0:0|1:3,0:0:0:0:
144,280,18738,1,0,0:3:0:0:
192,364,18921,2,0,P|227:330|236:282,1,85,8|0,0:0|0:3,0:0:0:0:
204,200,19286,6,0,L|192:28,2,170,0|8|0,1:3|0:0|1:3,0:0:0:0:
144,280,20201,1,8,0:0:0:0:
56,260,20384,2,0,P|83:210|124:192,1,85,8|8,0:0|0:0,0:0:0:0:
204,200,20749,6,0,P|256:228|308:220,1,85,0|0,1:3|0:3,0:0:0:0:
328,304,21115,2,0,P|372:284|400:224,1,85,8|0,0:0|0:3,0:0:0:0:
476,240,21481,6,0,L|468:136,1,85,0|0,1:3|0:3,0:0:0:0:
384,136,21846,2,0,L|376:32,1,85,8|0,0:0|0:3,0:0:0:0:
292,12,22212,6,0,P|248:44|232:100,1,85,0|0,1:3|0:3,0:0:0:0:
148,100,22578,2,0,P|156:144|188:184,1,85,8|0,0:0|0:3,0:0:0:0:
260,256,22943,6,0,L|140:268,1,85,0|0,1:3|0:0,0:0:0:0:
88,276,23309,1,2,0:0:0:0:
232,360,23675,5,4,1:2:0:0:
232,360,23858,2,0,L|336:368,1,85,0|8,0:3|0:0,0:0:0:0:
392,316,24224,1,0,0:3:0:0:
472,360,24406,5,0,1:3:0:0:
392,316,24589,2,0,P|416:276|414:227,1,85,0|8,1:3|0:0,0:0:0:0:
356,168,24955,1,0,0:3:0:0:
512,276,25138,6,0,L|502:192,1,85,0|0,1:3|0:3,0:0:0:0:
488,104,25503,1,8,0:0:0:0:
472,12,25687,1,0,0:3:0:0:
396,72,25869,6,0,P|352:44|308:44,1,85,0|8,1:3|0:0,0:0:0:0:
320,41,26143,1,8,0:0:0:0:
320,41,26235,1,8,0:0:0:0:
324,144,26418,1,8,0:0:0:0:
242,4,26600,5,0,1:3:0:0:
242,4,26783,2,0,P|242:84|271:112,1,85,0|8,0:3|0:0,0:0:0:0:
243,182,27148,1,0,0:3:0:0:
144,120,27331,5,0,1:3:0:0:
144,120,27514,2,0,L|152:228,1,85,0|8,1:3|0:0,0:0:0:0:
156,292,27880,1,0,0:3:0:0:
272,360,28063,5,0,1:3:0:0:
272,360,28246,2,0,P|280:304|316:264,1,85,0|8,0:3|0:0,0:0:0:0:
384,256,28611,1,0,0:3:0:0:
444,364,28794,6,0,P|388:364|356:340,1,85,0|8,1:3|0:0,0:0:0:0:
272,360,29160,2,0,P|240:308|248:256,1,85,8|8,0:0|0:0,0:0:0:0:
172,220,29525,6,0,B|68:212|104:276|-12:268,2,170,0|8|0,1:3|0:0|1:3,0:0:0:0:
284,80,30440,1,0,1:3:0:0:
196,52,30622,2,0,P|192:92|216:140,1,85,8|0,0:0|0:3,0:0:0:0:
296,176,30988,6,0,P|364:164|444:236,2,170,0|8|0,1:3|0:0|1:3,0:0:0:0:
256,256,31902,1,8,0:0:0:0:
176,208,32085,2,0,P|128:204|76:164,1,85,8|8,0:0|0:0,0:0:0:0:
84,92,32451,6,0,P|160:76|236:144,1,170,0|8,1:3|0:0,0:0:0:0:
312,176,32999,1,0,0:3:0:0:
312,176,33182,2,0,P|396:160|436:88,1,170,0|8,1:3|0:0,0:0:0:0:
392,8,33730,1,0,0:3:0:0:
288,88,33913,6,0,P|272:44|236:16,1,85,8|0,0:0|1:3,0:0:0:0:
160,56,34279,2,0,P|111:57|72:92,1,85,8|0,0:0|1:3,0:0:0:0:
64,172,34645,1,8,0:0:0:0:
263,179,35010,6,0,L|256:331,1,152.999995330811,8|0,0:0|0:0,0:0:0:0:
296,364,35376,6,0,P|344:336|336:208,1,170,4|8,1:2|0:0,0:0:0:0:
456,216,35925,1,2,0:3:0:0:
456,216,36107,2,0,L|468:40,1,170,0|8,1:3|0:0,0:0:0:0:
380,0,36656,1,2,0:3:0:0:
312,68,36839,6,0,B|212:52|244:124|132:108,1,170,0|8,1:3|0:0,0:0:0:0:
56,100,37387,1,2,0:3:0:0:
56,100,37570,2,0,P|76:172|100:192,1,85,0|2,1:3|0:3,0:0:0:0:
76,276,37936,2,0,P|112:304|156:312,1,85,8|2,0:0|0:3,0:0:0:0:
240,256,38301,6,0,P|304:252|384:336,1,170,0|8,1:3|0:0,0:0:0:0:
480,352,38850,1,2,0:3:0:0:
480,352,39033,2,0,L|468:168,1,170,0|8,1:3|0:0,0:0:0:0:
396,128,39582,1,2,0:3:0:0:
496,24,39764,5,0,1:3:0:0:
496,24,39947,1,8,0:0:0:0:
400,32,40130,2,0,L|280:40,1,85,8|0,0:0|1:3,0:0:0:0:
228,48,40496,5,0,1:3:0:0:
228,48,40679,1,8,0:0:0:0:
132,56,40862,2,0,L|12:64,1,85,8|0,0:0|1:3,0:0:0:0:
20,156,41227,6,0,P|60:176|192:112,1,170,4|8,1:2|0:0,0:0:0:0:
280,88,41775,1,2,0:3:0:0:
280,88,41958,2,0,P|264:144|272:200,1,85,0|2,1:3|0:3,0:0:0:0:
212,240,42324,2,0,P|232:280|276:312,1,85,8|2,0:0|0:3,0:0:0:0:
348,272,42690,6,0,P|420:268|492:352,1,170,0|8,1:3|0:0,0:0:0:0:
412,380,43238,1,2,0:3:0:0:
487,332,43421,6,0,L|491:244,2,85,0|2|8,1:3|0:3|0:0,0:0:0:0:
412,380,43969,1,2,0:3:0:0:
304,288,44152,6,0,B|208:276|240:340|124:324,1,170,0|8,1:3|0:0,0:0:0:0:
72,384,44701,1,2,0:3:0:0:
4,284,44884,2,0,P|52:268|84:232,1,85,0|2,1:3|0:3,0:0:0:0:
164,224,45249,2,0,P|172:176|160:128,1,85,8|2,0:0|0:3,0:0:0:0:
96,68,45615,5,0,1:3:0:0:
96,68,45798,1,8,0:0:0:0:
168,16,45981,2,0,L|264:28,1,85,8|0,0:0|1:3,0:0:0:0:
304,100,46346,5,0,1:3:0:0:
472,16,46712,1,8,0:0:0:0:
456,104,46895,1,0,1:3:0:0:
440,188,47078,6,0,L|456:364,1,170,4|8,1:2|0:0,0:0:0:0:
356,328,47626,1,8,0:0:0:0:
356,328,47809,2,0,P|320:276|284:264,1,85,0|8,1:3|0:3,0:0:0:0:
220,320,48175,1,8,0:0:0:0:
128,200,48358,1,8,0:3:0:0:
224,224,48540,6,0,P|256:184|200:56,1,170,0|8,1:3|0:0,0:0:0:0:
120,24,49089,1,8,0:0:0:0:
120,24,49272,2,0,P|136:72|140:132,1,85,0|8,1:3|0:0,0:0:0:0:
128,200,49637,1,8,0:0:0:0:
128,200,49820,1,0,1:3:0:0:
64,276,50003,6,0,P|112:300|220:232,1,170,0|8,1:3|0:0,0:0:0:0:
236,168,50552,1,8,0:0:0:0:
308,248,50734,2,0,P|288:292|288:356,1,85,0|8,0:0|0:3,0:0:0:0:
360,380,51100,1,8,0:0:0:0:
484,248,51283,1,8,0:3:0:0:
492,340,51466,6,0,P|416:312|392:216,1,170,0|8,1:3|0:0,0:0:0:0:
444,156,52014,1,8,0:0:0:0:
400,76,52197,5,0,1:3:0:0:
400,76,52380,1,8,0:0:0:0:
304,212,52562,1,8,0:0:0:0:
