osu file format v14

[General]
AudioFilename: audio.mp3
AudioLeadIn: 0
PreviewTime: 35376
Countdown: 0
SampleSet: Soft
StackLeniency: 0.2
Mode: 0
LetterboxInBreaks: 0
WidescreenStoryboard: 1

[Editor]
Bookmarks: 15995,19835
DistanceSpacing: 2.5
BeatDivisor: 4
GridSize: 16
TimelineZoom: 1

[Metadata]
Title:Take a Hint feat. Victoria Justice & Elizabeth Gillies (Speed Up Ver.)
TitleUnicode:Take a Hint feat. Victoria Justice & Elizabeth Gillies (Speed Up Ver.)
Artist:Victorious Cast
ArtistUnicode:Victorious Cast
Creator:LukerMaster
Version:Not a fieryrage's Extra
Source:Victorious
Tags:
BeatmapID:2103390
BeatmapSetID:1005004

[Difficulty]
HPDrainRate:5.5
CircleSize:4
OverallDifficulty:9
ApproachRate:9.2
SliderMultiplier:2
SliderTickRate:1

[Events]
//Background and Video events
0,0,"bg-tah.jpg",0,0
//Break Periods
//Storyboard Layer 0 (Background)
//Storyboard Layer 1 (Fail)
//Storyboard Layer 2 (Pass)
//Storyboard Layer 3 (Foreground)
//Storyboard Sound Samples

[TimingPoints]
272,365.673051724453,4,2,11,100,1,0
6122,-100,4,2,11,90,0,0
11973,-125,4,2,11,75,0,0
20749,-125,4,2,11,90,0,0
23309,-166.666666666667,4,2,11,90,0,0
23675,-166.666666666667,4,2,11,75,0,0
24406,-125,4,2,11,75,0,0
32451,-125,4,2,11,85,0,0
34645,-100,4,2,11,85,0,0
35010,-66.6666666666667,4,2,11,85,0,0
35376,-83.3333333333333,4,2,12,95,0,1
47078,-83.3333333333333,4,2,11,90,0,1
52563,-83.3333333333333,4,2,11,90,0,0
52928,-100,4,2,11,75,0,0
58414,-200,4,2,11,50,0,0
58505,-200,4,2,11,75,0,0
58779,-100,4,2,11,75,0,0
61705,-100,4,2,11,85,0,0
64264,-66.6666666666667,4,2,11,85,0,0
64630,-66.6666666666667,4,2,12,95,0,1
64996,-83.3333333333333,4,2,12,95,0,1
76331,-100,4,2,11,85,0,0
82365,-100,4,2,11,90,0,0
95346,-100,4,2,11,50,0,0
98638,-100,4,2,11,65,0,0
99735,-66.6666666666667,4,2,11,100,0,0
100100,-100,4,2,11,50,0,0
101197,-76.9230769230769,4,2,12,100,0,1
107048,-83.3333333333333,4,2,11,100,0,1
112899,-71.4285714285714,4,2,12,100,0,1
118750,-100,4,2,11,100,0,0

[Colours]
Combo1 : 0,255,255
Combo2 : 0,128,255
Combo3 : 255,255,255
Combo4 : 255,128,255

[HitObjects]
46,181,6122,6,0,B|100:153|141:181|141:181|182:208|236:181,1,200,4|8,3:0|3:1,0:0:0:0:
325,80,6671,5,0,3:0:0:0:
260,280,6854,1,0,3:0:0:0:
323,57,7036,5,8,3:0:0:0:
379,306,7219,1,8,3:1:0:0:
321,34,7402,5,8,3:0:0:0:
246,323,7585,2,0,P|195:336|96:243,1,200,4|8,3:0|3:1,0:0:0:0:
215,72,8133,1,0,3:0:0:0:
25,188,8316,1,0,3:0:0:0:
248,185,8499,1,8,3:0:0:0:
32,89,8682,2,0,P|20:144|27:198,1,100,8|0,3:1|0:0,0:0:0:0:
240,86,9048,6,0,P|252:141|245:195,1,100,4|0,3:0|0:0,0:0:0:0:
141,332,9413,1,8,3:1:0:0:
127,154,9596,5,0,3:0:0:0:
385,283,9779,2,0,L|392:176,1,100,0|8,3:0|3:0,0:0:0:0:
133,253,10145,2,0,L|126:146,1,100,8|8,3:1|3:0,0:0:0:0:
392,3,10510,6,0,P|426:64|386:187,1,200,4|8,3:0|3:1,0:0:0:0:
197,74,11059,1,0,3:0:0:0:
483,180,11242,1,0,3:0:0:0:
149,194,11425,5,8,3:0:0:0:
392,3,11607,1,8,3:1:0:0:
149,194,11973,6,0,L|249:202,1,80,4|0,0:0|0:0,0:0:0:0:
439,98,12339,2,0,L|339:90,1,80,8|0,3:1|0:0,0:0:0:0:
191,77,12704,5,0,3:0:0:0:
191,77,12887,2,0,L|270:70,1,80,0|8,0:0|3:1,0:0:0:0:
298,148,13253,1,0,0:0:0:0:
84,284,13436,6,0,L|70:189,1,80,4|0,0:0|0:0,0:0:0:0:
357,207,13801,1,8,3:1:0:0:
207,374,13984,1,0,0:0:0:0:
185,148,14167,1,0,3:0:0:0:
357,207,14350,6,0,L|353:255,2,40,8|8|8,3:0|3:1|3:1,0:0:0:0:
276,87,14716,1,8,3:1:0:0:
145,300,14898,2,0,P|135:243|143:197,1,80,4|0,0:0|0:0,0:0:0:0:
345,325,15264,2,0,P|355:268|347:222,1,80,8|0,3:1|0:0,0:0:0:0:
248,262,15630,6,0,L|251:165,1,80,0|0,3:0|0:0,0:0:0:0:
464,258,15995,2,0,L|461:178,1,80,8|0,3:1|0:0,0:0:0:0:
228,81,16361,5,4,0:0:0:0:
428,39,16544,1,0,0:0:0:0:
206,65,16727,5,8,3:1:0:0:
393,126,16910,1,0,0:0:0:0:
150,173,17092,1,0,3:0:0:0:
318,237,17275,6,0,P|323:176|315:141,2,80,8|8|8,3:1|3:1|3:1,0:0:0:0:
41,283,17824,6,0,L|35:182,1,80,4|0,0:0|0:0,0:0:0:0:
209,259,18189,1,8,3:1:0:0:
209,259,18372,2,0,L|213:179,1,80,0|0,0:0|3:0,0:0:0:0:
54,119,18738,1,0,0:0:0:0:
54,119,18921,6,0,P|34:184|37:210,1,80,8|0,3:1|0:0,0:0:0:0:
194,103,19286,2,0,P|210:139|213:178,1,80,4|0,0:0|0:0,0:0:0:0:
131,316,19652,1,8,3:1:0:0:
125,165,19835,1,0,0:0:0:0:
148,331,20018,6,0,P|218:341|319:310,1,160,0|8,3:0|3:1,0:0:0:0:
345,159,20566,1,8,3:1:0:0:
418,329,20749,5,4,3:0:0:0:
306,32,20932,1,0,0:0:0:0:
297,342,21115,5,8,3:1:0:0:
409,45,21298,1,0,0:0:0:0:
248,272,21481,5,4,3:0:0:0:
469,98,21663,1,0,0:0:0:0:
200,107,21846,5,8,3:1:0:0:
471,215,22029,1,0,0:0:0:0:
359,39,22212,6,0,L|369:128,1,80,4|0,3:0|0:0,0:0:0:0:
179,97,22578,2,0,P|172:136|175:183,1,80,8|0,3:1|0:0,0:0:0:0:
368,119,22943,2,0,P|376:155|372:205,1,80,4|0,3:0|0:0,0:0:0:0:
138,250,23309,6,0,B|169:253|169:253|188:248|188:248|211:251|211:251|248:242,1,89.9999972534181,8|0,3:1|0:0,0:0:0:0:
261,157,23675,5,4,0:0:0:0:
351,360,23857,1,0,0:0:0:0:
266,129,24040,5,8,3:1:0:0:
205,377,24223,1,0,0:0:0:0:
378,248,24406,6,0,P|385:193|369:148,1,80,0|0,3:0|0:0,0:0:0:0:
163,251,24772,1,8,3:1:0:0:
163,251,24954,2,0,P|155:211|161:172,1,80,0|4,0:0|0:0,0:0:0:0:
373,73,25320,1,0,0:0:0:0:
256,266,25503,1,8,3:1:0:0:
113,103,25686,2,0,P|161:90|209:101,1,80,0|0,0:0|3:0,0:0:0:0:
399,181,26051,6,0,L|408:239,2,40,8|8|8,3:0|3:1|3:1,0:0:0:0:
263,41,26417,1,8,3:1:0:0:
158,183,26600,6,0,P|150:227|162:281,1,80,4|0,0:0|0:0,0:0:0:0:
458,311,26966,1,8,3:1:0:0:
222,227,27148,1,0,0:0:0:0:
387,162,27331,6,0,L|384:252,1,80,0|0,3:0|0:0,0:0:0:0:
236,322,27697,2,0,L|239:232,1,80,8|0,3:1|0:0,0:0:0:0:
297,55,28063,1,4,0:0:0:0:
337,338,28245,1,0,0:0:0:0:
211,108,28428,1,8,3:1:0:0:
482,216,28611,1,0,0:0:0:0:
240,243,28794,6,0,P|190:247|158:239,1,80,0|8,3:0|3:1,0:0:0:0:
91,127,29160,1,8,3:1:0:0:
125,325,29343,1,8,3:1:0:0:
201,162,29525,5,4,0:0:0:0:
201,162,29708,2,0,L|206:71,1,80,0|8,0:0|3:1,0:0:0:0:
58,18,30074,1,0,0:0:0:0:
58,18,30257,2,0,L|64:153,1,120,0|0,3:0|0:0,0:0:0:0:
47,184,30622,5,8,3:1:0:0:
117,294,30805,1,0,0:0:0:0:
223,149,30988,2,0,P|172:137|142:145,1,80,4|0,0:0|0:0,0:0:0:0:
197,323,31354,2,0,P|248:335|278:327,1,80,8|0,3:1|0:0,0:0:0:0:
426,233,31719,2,0,B|398:233|312:249|312:249|348:270|356:296,1,160,0|8,3:0|3:1,0:0:0:0:
396,359,32268,5,8,3:1:0:0:
223,237,32451,2,0,B|183:246|143:237|143:237|103:227|63:237,1,160,4|8,3:0|3:1,0:0:0:0:
98,333,32999,1,0,3:0:0:0:
181,155,33182,6,0,P|187:93|135:2,1,160,4|8,3:0|3:1,0:0:0:0:
50,112,33731,1,0,3:0:0:0:
326,88,33913,5,4,3:0:0:0:
30,132,34096,1,8,3:1:0:0:
451,189,34279,5,8,3:1:0:0:
11,148,34462,1,8,3:1:0:0:
500,317,34645,6,0,P|459:361|371:378,1,150,4|0,3:0|0:0,0:0:0:0:
341,253,35010,6,0,P|425:286|382:302,1,225.000008583069,8|0,3:1|0:0,0:0:0:0:
310,335,35376,6,0,P|229:346|167:325,1,119.999996337891,4|2,0:0|0:3,0:0:0:0:
116,116,35742,1,8,3:1:0:0:
87,346,35925,1,2,0:3:0:0:
237,191,36107,6,0,P|265:124|256:72,1,119.999996337891,0|2,3:0|0:3,0:0:0:0:
33,62,36473,1,8,3:1:0:0:
148,258,36656,1,2,0:3:0:0:
249,61,36839,6,0,P|308:47|363:63,1,119.999996337891,4|2,0:0|0:3,0:0:0:0:
477,299,37204,1,8,3:1:0:0:
374,82,37387,1,2,0:3:0:0:
393,347,37570,1,0,3:0:0:0:
477,105,37753,1,2,0:3:0:0:
311,302,37936,6,0,P|244:319|191:305,1,119.999996337891,8|2,3:1|0:3,0:0:0:0:
240,88,38301,2,0,P|173:71|120:85,1,119.999996337891,4|2,0:0|0:3,0:0:0:0:
114,312,38667,1,8,3:1:0:0:
325,131,38850,1,2,0:3:0:0:
103,89,39033,6,0,L|111:222,1,119.999996337891,0|2,3:0|0:3,0:0:0:0:
384,307,39399,2,0,L|398:176,1,119.999996337891,8|2,3:1|0:3,0:0:0:0:
406,50,39764,5,4,0:0:0:0:
237,249,39947,1,0,3:0:0:0:
303,40,40130,5,8,3:1:0:0:
361,298,40313,1,8,3:1:0:0:
183,12,40496,5,8,3:1:0:0:
253,364,40678,1,0,3:0:0:0:
62,63,40861,5,8,3:1:0:0:
498,174,41044,1,8,3:1:0:0:
27,200,41227,6,0,P|21:265|49:340,1,119.999996337891,4|2,0:0|0:3,0:0:0:0:
318,161,41593,1,8,3:1:0:0:
318,161,41775,2,0,L|167:158,1,119.999996337891,2|0,0:3|3:0,0:0:0:0:
121,287,42141,1,2,0:3:0:0:
185,44,42324,1,8,3:1:0:0:
274,327,42507,1,2,0:3:0:0:
189,30,42690,6,0,L|326:19,1,119.999996337891,4|2,0:0|0:3,0:0:0:0:
472,154,43055,1,8,3:1:0:0:
199,196,43238,1,2,0:3:0:0:
473,271,43421,6,0,P|483:210|467:142,1,119.999996337891,0|2,3:0|0:3,0:0:0:0:
197,313,43787,2,0,P|187:252|203:184,1,119.999996337891,8|2,3:1|0:3,0:0:0:0:
411,69,44152,2,0,P|345:55|229:94,1,179.999994506836,4|0,0:0|0:0,0:0:0:0:
212,127,44518,5,8,3:1:0:0:
333,242,44701,1,2,0:3:0:0:
111,295,44884,1,0,3:0:0:0:
111,295,45066,2,0,L|99:161,1,119.999996337891,2|8,0:3|3:1,0:0:0:0:
181,37,45432,1,2,0:3:0:0:
344,134,45615,6,0,P|361:191|350:265,1,119.999996337891,4|0,0:0|3:0,0:0:0:0:
260,345,45981,5,8,3:1:0:0:
305,50,46163,1,8,3:1:0:0:
161,307,46346,5,8,3:1:0:0:
412,85,46529,1,0,3:0:0:0:
64,87,46712,5,8,3:1:0:0:
503,189,46895,1,8,3:1:0:0:
79,353,47078,6,0,P|70:287|163:213,1,179.999994506836,4|0,3:0|3:0,0:0:0:0:
198,224,47443,5,8,3:1:0:0:
327,325,47626,1,0,3:0:0:0:
327,325,47809,2,0,P|339:258|326:198,1,119.999996337891,0|8,3:0|3:0,0:0:0:0:
200,106,48175,2,0,P|188:173|201:233,1,119.999996337891,8|8,3:1|3:0,0:0:0:0:
476,142,48540,6,0,P|394:115|279:139,1,179.999994506836,4|0,3:0|3:0,0:0:0:0:
268,164,48906,5,8,3:1:0:0:
185,325,49089,1,0,3:0:0:0:
59,213,49272,2,0,P|51:132|67:77,1,119.999996337891,0|8,3:0|3:0,0:0:0:0:
302,127,49637,5,8,3:1:0:0:
125,266,49820,1,0,0:0:0:0:
117,43,50003,2,0,B|239:53|239:53|290:81,1,179.999994506836,4|0,3:0|3:0,0:0:0:0:
302,127,50369,1,8,3:1:0:0:
321,291,50552,5,0,3:0:0:0:
321,291,50734,2,0,L|450:302,1,119.999996337891,0|8,3:0|3:0,0:0:0:0:
182,137,51100,2,0,L|301:126,1,119.999996337891,8|8,3:1|3:0,0:0:0:0:
438,190,51466,6,0,P|452:123|413:19,1,179.999994506836,4|0,3:0|3:0,0:0:0:0:
367,7,51831,5,8,3:1:0:0:
295,219,52014,1,0,3:0:0:0:
295,219,52197,2,0,P|236:201|161:209,1,119.999996337891,0|8,3:0|3:0,0:0:0:0:
91,275,52563,5,8,3:1:0:0:
157,121,52746,1,0,0:0:0:0:
240,310,52928,2,0,P|322:322|358:305,1,100,4|0,0:0|0:0,0:0:0:0:
263,128,53294,2,0,P|345:137|375:163,1,100,8|0,3:1|0:0,0:0:0:0:
336,318,53660,1,0,3:0:0:0:
434,201,53843,1,0,0:0:0:0:
440,298,54025,2,0,P|445:239|423:182,1,100,8|0,3:1|0:0,0:0:0:0:
257,28,54391,6,0,L|263:133,1,100,4|0,0:0|0:0,0:0:0:0:
424,29,54757,1,8,3:1:0:0:
333,197,54940,1,0,0:0:0:0:
424,29,55122,2,0,L|418:134,1,100,0|8,3:0|3:0,0:0:0:0:
419,143,55397,1,8,3:1:0:0:
422,157,55488,1,8,3:1:0:0:
465,278,55671,1,8,3:1:0:0:
233,201,55854,6,0,L|363:195,1,100,4|0,0:0|0:0,0:0:0:0:
399,344,56219,2,0,L|299:339,1,100,8|0,3:1|0:0,0:0:0:0:
163,252,56585,1,0,3:0:0:0:
335,198,56768,1,0,0:0:0:0:
189,338,56951,6,0,P|134:338|89:300,1,100,8|0,3:1|0:0,0:0:0:0:
203,98,57316,1,4,0:0:0:0:
163,254,57499,1,0,0:0:0:0:
203,98,57682,2,0,P|230:145|220:203,1,100,8|0,3:1|0:0,0:0:0:0:
132,30,58048,6,0,B|183:15|183:15|256:23,1,100,8|0,3:0|0:0,0:0:0:0:
369,15,58414,6,0,L|359:68,1,50,2|8,3:2|3:1,0:0:0:0:
319,200,58779,5,4,0:0:0:0:
468,83,58962,1,0,0:0:0:0:
275,128,59145,2,0,L|164:122,1,100,8|0,3:1|0:0,0:0:0:0:
372,270,59511,2,0,L|483:264,1,100,0|0,3:0|3:0,0:0:0:0:
275,129,59876,5,8,3:1:0:0:
465,164,60059,1,0,3:0:0:0:
275,129,60242,2,0,L|270:234,1,100,4|0,0:0|0:0,0:0:0:0:
261,360,60608,1,8,3:1:0:0:
174,121,60790,1,0,0:0:0:0:
100,333,60973,1,0,3:0:0:0:
100,333,61156,6,0,P|90:253|93:220,1,100,8|8,3:1|3:1,0:0:0:0:
179,107,61522,1,8,3:1:0:0:
261,360,61705,2,0,B|278:280|278:280|266:155,1,200,4|8,3:0|3:1,0:0:0:0:
181,18,62253,1,0,3:0:0:0:
175,235,62436,6,0,B|236:256|236:256|376:247,1,200,4|8,3:0|3:1,0:0:0:0:
406,98,62984,1,0,3:0:0:0:
447,349,63167,1,4,3:0:0:0:
355,20,63350,5,8,3:1:0:0:
323,340,63533,1,8,3:1:0:0:
240,10,63716,5,8,3:1:0:0:
447,349,63899,2,0,P|465:298|455:243,1,100,4|0,3:0|0:0,0:0:0:0:
359,112,64264,6,0,P|446:149|400:63,1,225.000008583069,8|0,3:1|0:0,0:0:0:0:
350,34,64630,5,4,0:0:0:0:
197,304,64813,1,2,0:3:0:0:
70,196,64996,2,0,P|65:127|81:65,1,119.999996337891,8|2,3:1|0:3,0:0:0:0:
255,20,65361,1,0,3:0:0:0:
141,241,65544,1,2,0:3:0:0:
136,19,65727,6,0,B|197:10|197:10|260:20,1,119.999996337891,8|2,3:1|0:3,0:0:0:0:
330,199,66093,2,0,B|269:208|269:208|206:198,1,119.999996337891,4|2,0:0|0:3,0:0:0:0:
77,77,66458,5,8,3:1:0:0:
31,306,66641,1,2,0:3:0:0:
77,58,66824,5,0,3:0:0:0:
145,337,67007,1,2,0:3:0:0:
77,39,67190,5,8,3:1:0:0:
26,338,67373,1,2,0:3:0:0:
191,156,67555,2,0,P|256:127|317:144,1,119.999996337891,4|2,0:0|0:3,0:0:0:0:
457,227,67921,1,8,3:1:0:0:
268,343,68104,1,2,0:3:0:0:
268,343,68287,6,0,L|258:222,1,119.999996337891,0|2,3:0|0:3,0:0:0:0:
447,346,68652,2,0,L|457:225,1,119.999996337891,8|2,3:1|0:3,0:0:0:0:
335,56,69018,5,4,0:0:0:0:
366,341,69201,1,0,3:0:0:0:
238,28,69384,5,8,3:1:0:0:
108,348,69567,1,8,3:1:0:0:
108,24,69749,5,8,3:1:0:0:
247,350,69932,1,0,3:0:0:0:
325,23,70115,5,8,3:1:0:0:
177,304,70298,1,8,3:1:0:0:
36,61,70481,6,0,B|23:122|23:122|32:191,1,119.999996337891,4|2,0:0|0:3,0:0:0:0:
243,228,70846,1,8,3:1:0:0:
243,228,71029,2,0,B|374:238,1,119.999996337891,2|0,0:3|3:0,0:0:0:0:
236,131,71395,1,2,0:3:0:0:
316,343,71578,1,8,3:1:0:0:
435,89,71761,1,2,0:3:0:0:
435,89,71943,6,0,P|375:88|316:100,1,119.999996337891,4|2,0:0|0:3,0:0:0:0:
167,351,72309,5,8,3:1:0:0:
100,74,72492,1,2,0:3:0:0:
76,328,72675,1,0,3:0:0:0:
213,54,72858,1,2,0:3:0:0:
261,349,73040,5,8,3:1:0:0:
100,74,73223,1,2,0:3:0:0:
13,258,73406,2,0,B|87:284|87:284|198:272,1,179.999994506836,4|0,0:0|0:0,0:0:0:0:
231,241,73772,1,8,3:1:0:0:
23,100,73955,1,2,0:3:0:0:
245,121,74137,6,0,L|230:248,1,119.999996337891,0|2,3:0|0:3,0:0:0:0:
23,100,74503,2,0,L|38:227,1,119.999996337891,8|2,3:1|0:3,0:0:0:0:
124,360,74869,1,4,0:0:0:0:
162,133,75052,1,0,3:0:0:0:
243,367,75234,5,8,3:1:0:0:
236,71,75417,1,8,3:1:0:0:
341,366,75600,5,8,3:1:0:0:
236,71,75783,1,0,3:0:0:0:
451,263,75966,5,8,3:1:0:0:
100,167,76149,1,8,3:1:0:0:
480,78,76331,6,0,P|492:131|475:241,1,150,4|0,3:0|3:0,0:0:0:0:
451,263,76697,1,8,3:1:0:0:
328,112,76880,1,0,3:0:0:0:
253,276,77063,6,0,P|246:212|260:154,1,100,0|8,3:0|3:0,0:0:0:0:
451,263,77429,2,0,P|458:199|444:141,1,100,8|8,3:1|3:0,0:0:0:0:
239,77,77794,2,0,P|321:95|401:65,1,150,4|0,3:0|3:0,0:0:0:0:
416,36,78160,1,8,3:1:0:0:
333,249,78343,1,0,3:0:0:0:
154,89,78526,6,0,P|136:143|141:197,1,100,0|8,3:0|3:0,0:0:0:0:
317,152,78891,2,0,P|335:206|330:260,1,100,8|0,3:1|0:0,0:0:0:0:
167,359,79257,2,0,B|107:360|107:360|27:309,1,150,4|0,3:0|3:0,0:0:0:0:
16,264,79623,1,8,3:1:0:0:
144,121,79805,1,0,3:0:0:0:
144,121,79988,6,0,P|207:110|262:123,1,100,0|8,3:0|3:0,0:0:0:0:
171,271,80354,2,0,P|234:282|289:269,1,100,8|8,3:1|3:0,0:0:0:0:
436,96,80720,6,0,B|359:77|359:77|280:98,1,150,4|0,3:0|3:0,0:0:0:0:
242,115,81085,1,8,3:1:0:0:
350,240,81268,5,0,3:0:0:0:
350,240,81451,2,0,P|351:297|329:348,1,100,0|8,3:0|3:0,0:0:0:0:
172,270,81817,2,0,L|168:212,4,50,8|0|0|0|4,3:1|3:0|3:0|3:0|3:0,0:0:0:0:
352,190,82365,2,0,L|349:246,2,50,0|0|8,3:0|3:0|3:1,0:0:0:0:
160,118,82731,1,0,3:0:0:0:
336,104,82914,6,0,P|395:101|504:117,2,150,4|4|4,3:0|3:0|3:0,0:0:0:0:
175,130,83645,1,4,3:0:0:0:
267,221,83828,1,0,3:0:0:0:
259,32,84011,6,0,L|149:31,1,100,8|0,3:1|0:0,0:0:0:0:
25,135,84376,2,0,L|185:129,2,150,4|4|4,3:0|3:0|3:0,0:0:0:0:
92,244,85108,2,0,L|191:249,1,100,4|0,3:0|0:0,0:0:0:0:
391,261,85473,1,8,3:1:0:0:
269,363,85656,1,0,3:0:0:0:
241,188,85839,6,0,P|237:128|256:82,1,100,4|0,3:0|3:0,0:0:0:0:
456,174,86205,2,0,P|460:114|441:68,1,100,8|4,3:1|3:0,0:0:0:0:
251,93,86570,5,4,3:0:0:0:
386,15,86753,1,8,3:1:0:0:
251,93,86936,2,0,L|242:206,1,100,8|4,3:1|3:0,0:0:0:0:
398,245,87302,5,4,3:0:0:0:
243,194,87485,1,8,3:1:0:0:
398,245,87667,2,0,L|389:132,1,100,8|4,3:1|3:0,0:0:0:0:
303,15,88033,1,4,3:0:0:0:
172,116,88216,2,0,L|168:178,2,50,0|0|8,3:0|3:0|3:1,0:0:0:0:
351,81,88582,1,8,3:0:0:0:
170,167,88764,6,0,L|177:273,1,100,4|8,3:0|3:0,0:0:0:0:
342,179,89130,2,0,L|335:285,1,100,8|4,3:1|3:0,0:0:0:0:
158,359,89496,1,4,3:0:0:0:
335,278,89679,5,0,3:0:0:0:
170,167,89861,2,0,P|225:160|293:171,1,100,8|8,3:1|3:0,0:0:0:0:
465,209,90227,1,4,3:0:0:0:
329,356,90410,1,4,3:0:0:0:
345,165,90593,5,8,3:1:0:0:
345,165,90776,2,0,L|356:46,1,100,0|4,3:0|3:0,0:0:0:0:
161,28,91141,1,0,3:0:0:0:
161,28,91324,2,0,L|165:142,1,100,8|0,3:1|3:0,0:0:0:0:
345,165,91690,2,0,L|341:279,1,100,4|0,3:0|0:0,0:0:0:0:
128,301,92055,2,0,L|124:187,1,100,8|4,3:1|3:0,0:0:0:0:
261,103,92421,5,4,3:0:0:0:
309,352,92604,1,0,0:0:0:0:
371,74,92787,5,8,3:1:0:0:
309,352,92970,1,0,0:0:0:0:
254,81,93152,5,4,3:0:0:0:
309,352,93335,1,0,0:0:0:0:
379,52,93518,5,8,3:1:0:0:
309,352,93701,1,0,0:0:0:0:
245,60,93884,5,4,3:0:0:0:
411,309,94067,1,0,3:0:0:0:
186,139,94249,5,8,3:1:0:0:
470,230,94432,1,0,3:0:0:0:
127,218,94615,6,0,B|100:202|81:173|82:128|82:128|35:155|25:231,1,200,4|8,3:0|3:1,0:0:0:0:
256,192,95346,5,2,0:0:0:0:
256,192,96809,1,2,0:0:0:0:
256,192,98272,1,2,0:0:0:0:
159,147,99735,6,0,P|81:138|147:210,1,225.000008583069,4|0,0:0|0:0,0:0:0:0:
216,209,100100,5,2,3:2:0:0:
303,64,100283,1,2,0:0:0:0:
391,193,100466,2,0,P|405:251|398:305,1,100,2|0,3:2|0:0,0:0:0:0:
216,209,100832,1,2,3:2:0:0:
383,103,101014,1,2,0:2:0:0:
219,41,101197,2,0,P|153:37|74:57,1,129.999994049073,4|2,0:0|0:3,0:0:0:0:
72,266,101563,5,8,3:1:0:0:
311,48,101746,1,2,0:3:0:0:
53,137,101929,2,0,P|59:206|73:272,1,129.999994049073,0|2,3:0|0:3,0:0:0:0:
383,103,102294,2,0,P|376:175|363:238,1,129.999994049073,8|2,3:1|0:3,0:0:0:0:
154,90,102660,6,0,B|216:62|216:62|353:69,1,194.999991073609,4|0,0:0|0:0,0:0:0:0:
383,103,103026,1,8,3:1:0:0:
432,326,103208,1,2,0:3:0:0:
164,167,103391,6,0,B|206:150|206:150|311:161,1,129.999994049073,0|2,3:0|0:3,0:0:0:0:
486,175,103757,1,8,3:1:0:0:
242,286,103940,1,2,0:3:0:0:
383,103,104123,6,0,B|397:167|397:167|357:293,1,194.999991073609,4|0,0:0|0:0,0:0:0:0:
317,320,104488,1,8,3:1:0:0:
152,51,104671,1,2,0:3:0:0:
56,337,104854,2,0,P|36:271|38:199,1,129.999994049073,0|2,3:0|0:3,0:0:0:0:
242,286,105220,2,0,P|262:220|260:148,1,129.999994049073,8|10,3:1|0:3,0:0:0:0:
144,0,105585,5,4,0:0:0:0:
40,145,105768,2,0,L|35:216,5,64.9999970245363,8|8|8|8|2|0,3:1|3:1|3:1|3:0|3:0|3:0,0:0:0:0:
173,126,106317,2,0,L|178:197,3,64.9999970245363,8|8|8|8,3:0|3:1|3:1|3:0,0:0:0:0:
156,35,106682,5,8,3:1:0:0:
188,30,106773,1,0,3:0:0:0:
220,29,106864,1,10,3:0:0:0:
252,33,106956,1,0,3:0:0:0:
284,40,107048,6,0,P|361:56|465:32,1,179.999994506836,4|0,3:0|3:0,0:0:0:0:
498,4,107414,1,8,3:1:0:0:
489,212,107597,1,0,3:0:0:0:
489,212,107779,6,0,P|440:198|360:214,1,119.999996337891,0|8,3:0|3:0,0:0:0:0:
295,345,108145,2,0,P|344:359|424:343,1,119.999996337891,8|8,3:1|3:0,0:0:0:0:
304,144,108511,1,4,3:0:0:0:
208,347,108694,1,0,0:0:0:0:
129,46,108876,5,8,3:1:0:0:
53,353,109059,1,0,3:0:0:0:
131,33,109242,5,0,3:0:0:0:
215,365,109425,1,8,3:0:0:0:
271,27,109608,5,8,3:1:0:0:
131,372,109791,1,0,0:0:0:0:
394,77,109973,6,0,B|408:136|408:136|390:264,1,179.999994506836,4|0,3:0|3:0,0:0:0:0:
383,306,110339,1,8,3:1:0:0:
225,145,110522,1,0,3:0:0:0:
488,109,110705,1,0,3:0:0:0:
276,40,110888,1,8,3:0:0:0:
245,260,111070,2,0,P|223:191|227:131,1,119.999996337891,8|8,3:1|3:0,0:0:0:0:
383,306,111436,6,0,P|405:237|401:177,1,119.999996337891,4|0,3:0|0:0,0:0:0:0:
163,322,111802,2,0,P|141:253|145:193,1,119.999996337891,8|0,3:1|3:0,0:0:0:0:
347,87,112167,5,0,3:0:0:0:
259,300,112350,1,8,3:0:0:0:
93,127,112533,2,0,P|147:115|220:155,1,119.999996337891,8|0,3:1|0:0,0:0:0:0:
324,254,112899,6,0,P|372:273|468:248,1,139.999995727539,4|2,0:0|0:3,0:0:0:0:
390,80,113264,1,8,3:1:0:0:
336,355,113447,1,2,0:3:0:0:
302,90,113630,6,0,B|249:77|249:77|134:89,1,139.999995727539,0|2,3:0|0:3,0:0:0:0:
73,117,113996,1,8,3:1:0:0:
324,254,114179,1,2,0:3:0:0:
114,288,114361,2,0,P|183:310|243:306,1,119.999996337891,4|0,0:0|0:0,0:0:0:0:
429,81,114727,6,0,L|409:228,1,139.999995727539,8|2,3:1|0:3,0:0:0:0:
211,169,115093,2,0,L|231:316,1,139.999995727539,0|2,3:0|0:3,0:0:0:0:
411,220,115459,1,8,3:1:0:0:
128,149,115641,1,2,0:3:0:0:
335,49,115824,6,0,P|345:122|320:193,1,139.999995727539,4|2,0:0|0:3,0:0:0:0:
94,234,116190,1,8,3:1:0:0:
321,325,116373,1,2,0:3:0:0:
186,115,116556,1,0,3:0:0:0:
173,364,116738,1,2,0:3:0:0:
261,79,116921,5,8,3:1:0:0:
321,325,117104,1,10,0:3:0:0:
335,49,117287,5,4,0:0:0:0:
247,343,117470,1,0,3:0:0:0:
189,30,117653,5,8,3:1:0:0:
391,371,117835,1,8,3:1:0:0:
342,27,118018,5,8,3:1:0:0:
240,363,118201,1,8,3:0:0:0:
69,72,118384,5,8,3:1:0:0:
478,173,118567,1,8,3:1:0:0:
69,72,118750,2,0,B|51:121|51:121|58:222,1,150,4|0,3:0|3:0,0:0:0:0:
60,272,119115,1,8,3:1:0:0:
243,146,119298,1,0,3:0:0:0:
243,146,119481,2,0,L|371:145,1,100,0|8,3:0|3:0,0:0:0:0:
408,319,119847,1,8,3:1:0:0:
342,145,120029,1,8,3:0:0:0:
210,288,120212,6,0,P|141:243|116:151,1,150,4|0,3:0|3:0,0:0:0:0:
125,129,120578,1,8,3:1:0:0:
260,27,120761,1,0,3:0:0:0:
260,27,120944,2,0,L|365:24,1,100,0|8,3:0|3:0,0:0:0:0:
465,158,121309,1,8,3:1:0:0:
254,308,121492,1,0,0:0:0:0:
254,308,121675,2,0,P|234:245|239:194,1,100,4|0,3:0|0:0,0:0:0:0:
373,120,122041,1,8,3:1:0:0:
234,212,122223,6,0,L|115:206,1,100,0|0,3:0|3:0,0:0:0:0:
42,72,122589,1,8,3:0:0:0:
42,72,122772,2,0,L|141:66,1,100,8|8,3:1|3:0,0:0:0:0:
302,160,123138,2,0,B|315:212|315:212|298:340,1,150,4|0,3:0|3:0,0:0:0:0:
292,360,123503,1,8,3:1:0:0:
134,206,123686,5,0,3:0:0:0:
304,159,123869,2,0,P|371:160|424:189,1,100,0|8,3:0|3:0,0:0:0:0:
466,249,124235,5,8,3:1:0:0:
