osu file format v14

[General]
AudioFilename: audio.mp3
AudioLeadIn: 0
PreviewTime: 35376
Countdown: 1
SampleSet: Soft
StackLeniency: 0.4
Mode: 0
LetterboxInBreaks: 0
WidescreenStoryboard: 1

[Editor]
Bookmarks: 19835,38850,65727,66458,67373,81817,87667,117104
DistanceSpacing: 2.6
BeatDivisor: 4
GridSize: 16
TimelineZoom: 1

[Metadata]
Title:Take a Hint feat. Victoria Justice & Elizabeth Gillies (Speed Up Ver.)
TitleUnicode:Take a Hint feat. Victoria Justice & Elizabeth Gillies (Speed Up Ver.)
Artist:Victorious Cast
ArtistUnicode:Victorious Cast
Creator:LukerMaster
Version:Not a Monstrata's Extra
Source:Victorious
Tags:
BeatmapID:2103396
BeatmapSetID:1005004

[Difficulty]
HPDrainRate:5.5
CircleSize:4.5
OverallDifficulty:8
ApproachRate:9
SliderMultiplier:1.7
SliderTickRate:2

[Events]
//Background and Video events
0,0,"bg-tah.jpg",0,0
//Break Periods
//Storyboard Layer 0 (Background)
//Storyboard Layer 1 (Fail)
//Storyboard Layer 2 (Pass)
//Storyboard Layer 3 (Foreground)
//Storyboard Layer 4 (Overlay)
//Storyboard Sound Samples

[TimingPoints]
272,365.673051724453,4,2,11,100,1,0
372,-125,4,2,11,100,0,0
6122,-125,4,2,11,90,0,0
11973,-125,4,2,11,75,0,0
17275,-100,4,2,11,75,0,0
17824,-125,4,2,11,75,0,0
20749,-125,4,2,11,90,0,0
23675,-100,4,2,11,75,0,0
32451,-100,4,2,11,85,0,0
35010,-83.3333333333333,4,2,11,85,0,0
35376,-83.3333333333333,4,2,12,95,0,1
39764,-45.4545454545455,4,2,12,95,0,1
40496,-83.3333333333333,4,2,12,95,0,1
47078,-83.3333333333333,4,2,11,90,0,1
52563,-83.3333333333333,4,2,11,90,0,0
52928,-100,4,2,11,75,0,0
58414,-142.857142857143,4,2,11,50,0,0
58505,-142.857142857143,4,2,11,75,0,0
58779,-100,4,2,11,75,0,0
61705,-100,4,2,11,85,0,0
64264,-71.4285714285714,4,2,11,85,0,0
64630,-71.4285714285714,4,2,12,95,0,1
65361,-83.3333333333333,4,2,12,95,0,1
69018,-45.4545454545455,4,2,12,95,0,1
70481,-83.3333333333333,4,2,12,95,0,1
76331,-83.3333333333333,4,2,11,85,0,0
76697,-100,4,2,11,85,0,0
82365,-100,4,2,11,90,0,0
95346,-100,4,2,11,50,0,0
96809,-83.3333333333333,4,2,11,50,0,0
98638,-100,4,2,11,65,0,0
99735,-50,4,2,11,100,0,0
100100,-100,4,2,11,50,0,0
101197,-76.9230769230769,4,2,12,100,0,1
107048,-76.9230769230769,4,2,11,100,0,1
112899,-76.9230769230769,4,2,12,100,0,1
117287,-45.4545454545455,4,2,12,100,0,1
118018,-76.9230769230769,4,2,12,100,0,1
118750,-76.9230769230769,4,2,11,100,0,1
124235,-76.9230769230769,4,2,11,100,0,0

[Colours]
Combo1 : 0,255,255
Combo2 : 0,128,255
Combo3 : 255,255,255
Combo4 : 255,128,255

[HitObjects]
77,108,6122,6,0,B|113:84|113:84|216:95,1,136,4|8,3:0|3:1,0:0:0:0:
397,158,6671,1,0,3:0:0:0:
321,223,6854,1,0,3:0:0:0:
281,25,7036,1,8,3:0:0:0:
301,124,7219,1,8,3:1:0:0:
205,93,7402,1,8,3:0:0:0:
377,58,7585,6,0,P|451:78|493:143,1,136,4|8,3:0|3:1,0:0:0:0:
467,303,8133,1,0,3:0:0:0:
305,103,8316,1,0,3:0:0:0:
286,284,8499,1,8,3:0:0:0:
387,204,8682,1,8,3:1:0:0:
88,122,9048,6,0,L|97:275,1,136,4|8,3:0|3:1,0:0:0:0:
237,331,9596,1,0,3:0:0:0:
279,75,9779,1,0,3:0:0:0:
95,257,9962,1,8,3:0:0:0:
351,218,10145,1,8,3:1:0:0:
121,99,10328,1,8,3:0:0:0:
216,196,10510,6,0,B|256:234|256:234|330:187,1,136,4|8,3:0|3:1,0:0:0:0:
386,15,11059,1,0,3:0:0:0:
415,173,11242,1,0,3:0:0:0:
263,119,11425,1,8,3:0:0:0:
446,85,11607,1,8,3:1:0:0:
264,120,11973,5,4,0:0:0:0:
384,261,12156,1,0,0:0:0:0:
345,50,12339,1,8,3:1:0:0:
183,190,12522,1,0,0:0:0:0:
364,155,12704,6,0,P|395:166|434:188,1,68,0|0,3:0|0:0,0:0:0:0:
284,226,13070,2,0,P|317:229|361:240,1,68,8|0,3:1|0:0,0:0:0:0:
128,353,13436,5,4,0:0:0:0:
178,96,13619,1,0,0:0:0:0:
289,334,13801,1,8,3:1:0:0:
60,207,13984,1,0,0:0:0:0:
195,232,14167,1,0,3:0:0:0:
321,174,14350,5,8,3:0:0:0:
321,174,14441,1,8,3:1:0:0:
321,174,14533,1,8,3:1:0:0:
95,123,14716,1,8,3:1:0:0:
164,345,14898,5,4,0:0:0:0:
222,83,15081,1,0,0:0:0:0:
291,304,15264,1,8,3:1:0:0:
65,254,15446,1,0,0:0:0:0:
323,175,15630,6,0,P|367:177|404:192,1,68,0|0,3:0|0:0,0:0:0:0:
196,213,15995,2,0,P|152:211|115:196,1,68,8|0,3:1|0:0,0:0:0:0:
74,11,16361,5,4,0:0:0:0:
114,128,16544,1,0,0:0:0:0:
33,221,16727,1,8,3:1:0:0:
195,35,16910,1,0,0:0:0:0:
276,269,17092,1,0,3:0:0:0:
357,176,17275,6,0,L|454:182,2,85,8|8|8,3:1|3:1|3:1,0:0:0:0:
276,269,17824,2,0,P|259:308|261:353,1,68,4|0,0:0|0:0,0:0:0:0:
181,215,18189,2,0,L|186:301,1,68,8|0,3:1|0:0,0:0:0:0:
86,161,18555,2,0,P|66:224|73:297,1,136,0|8,3:0|3:1,0:0:0:0:
132,359,19104,1,0,0:0:0:0:
184,282,19286,6,0,P|221:272|264:277,1,68,4|0,0:0|0:0,0:0:0:0:
312,360,19652,2,0,P|275:370|232:365,1,68,8|0,3:1|0:0,0:0:0:0:
352,256,20018,2,0,B|390:289|390:289|405:384,1,136,0|8,3:0|3:1,0:0:0:0:
461,232,20566,5,8,3:1:0:0:
223,260,20749,5,4,3:0:0:0:
489,323,20932,1,0,0:0:0:0:
333,78,21115,5,8,3:1:0:0:
257,355,21298,1,0,0:0:0:0:
128,158,21481,5,4,3:0:0:0:
382,188,21663,1,0,0:0:0:0:
257,355,21846,5,8,3:1:0:0:
220,103,22029,1,0,0:0:0:0:
356,277,22212,5,4,3:0:0:0:
138,291,22395,1,0,0:0:0:0:
284,174,22578,5,8,3:1:0:0:
257,355,22760,1,0,0:0:0:0:
148,212,22943,2,0,P|194:207|225:186,1,68,4|0,3:0|0:0,0:0:0:0:
284,174,23309,2,0,P|229:164|199:103,1,102,8|0,3:1|0:0,0:0:0:0:
273,95,23675,5,4,0:0:0:0:
314,326,23857,1,0,0:0:0:0:
494,175,24040,1,8,3:1:0:0:
314,326,24223,1,0,0:0:0:0:
360,198,24406,6,0,P|407:222|429:255,1,85,0|0,3:0|0:0,0:0:0:0:
227,222,24772,2,0,P|223:169|241:134,1,85,8|0,3:1|0:0,0:0:0:0:
319,99,25137,1,4,0:0:0:0:
74,203,25320,1,0,0:0:0:0:
287,364,25503,1,8,3:1:0:0:
74,203,25686,1,0,0:0:0:0:
227,222,25869,6,0,L|322:237,1,85,0|8,3:0|3:0,0:0:0:0:
359,287,26143,2,0,L|426:279,1,42.5,8|8,3:1|3:1,0:0:0:0:
474,175,26417,1,8,3:1:0:0:
240,133,26600,5,4,0:0:0:0:
320,356,26783,1,0,0:0:0:0:
474,175,26966,1,8,3:1:0:0:
320,356,27148,1,0,0:0:0:0:
344,221,27331,6,0,P|340:175|320:135,1,85,0|0,3:0|0:0,0:0:0:0:
240,133,27697,2,0,P|259:90|261:46,1,85,8|0,3:1|0:0,0:0:0:0:
141,18,28063,1,4,0:0:0:0:
189,276,28245,1,0,0:0:0:0:
389,106,28428,1,8,3:1:0:0:
189,276,28611,1,0,0:0:0:0:
240,133,28794,1,0,3:0:0:0:
338,249,28977,6,0,L|348:347,2,85,8|8|8,3:1|3:1|3:1,0:0:0:0:
214,204,29525,2,0,P|164:202|130:223,1,85,4|0,0:0|0:0,0:0:0:0:
146,346,29891,2,0,B|171:323|171:323|192:266,1,85,8|0,3:1|0:0,0:0:0:0:
240,133,30257,2,0,P|281:171|267:253,1,127.5,0|0,3:0|0:0,0:0:0:0:
263,280,30622,5,8,3:1:0:0:
154,116,30805,1,0,0:0:0:0:
161,229,30988,1,4,0:0:0:0:
248,52,31171,1,0,0:0:0:0:
357,217,31354,1,8,3:1:0:0:
256,167,31537,1,0,0:0:0:0:
349,103,31719,2,0,B|412:131|412:131|436:258,1,170,0|8,3:0|3:1,0:0:0:0:
256,335,32268,5,8,3:1:0:0:
143,250,32451,2,0,P|118:180|158:82,1,170,4|8,3:0|3:1,0:0:0:0:
256,40,32999,1,0,3:0:0:0:
364,92,33182,2,0,P|394:170|369:250,1,170,4|8,3:0|3:1,0:0:0:0:
256,335,33731,1,0,3:0:0:0:
143,250,33913,6,0,P|134:200|150:153,1,85,4|8,3:0|3:1,0:0:0:0:
369,167,34279,2,0,P|378:208|369:250,1,85,8|8,3:1|3:1,0:0:0:0:
256,335,34645,1,4,3:0:0:0:
190,66,35010,6,0,P|256:99|322:66,1,152.999995330811,8|0,3:1|0:0,0:0:0:0:
256,19,35376,5,4,0:0:0:0:
116,234,35559,1,2,0:3:0:0:
373,248,35742,2,0,P|424:256|463:293,1,101.999996887207,8|2,3:1|0:3,0:0:0:0:
240,315,36107,2,0,B|231:258|231:258|266:162,1,152.999995330811,0|0,3:0|0:0,0:0:0:0:
326,118,36473,1,8,3:1:0:0:
387,331,36656,1,2,0:3:0:0:
441,117,36839,2,0,B|433:62|433:62|445:12,1,101.999996887207,4|2,0:0|0:3,0:0:0:0:
268,19,37204,5,8,3:1:0:0:
384,217,37387,1,2,0:3:0:0:
155,219,37570,1,0,3:0:0:0:
269,151,37753,5,2,0:3:0:0:
156,351,37936,1,8,3:1:0:0:
152,85,38119,1,2,0:3:0:0:
384,217,38301,2,0,L|486:200,1,101.999996887207,4|2,0:0|0:3,0:0:0:0:
268,17,38667,6,0,P|246:70|253:120,1,101.999996887207,8|2,3:1|0:3,0:0:0:0:
366,313,39033,2,0,P|388:260|381:210,1,101.999996887207,0|2,3:0|0:3,0:0:0:0:
82,143,39399,5,8,3:1:0:0:
308,251,39581,1,2,0:3:0:0:
289,2,39764,2,0,B|259:29|236:39|236:39|210:31|185:17|185:17|150:28|118:52,1,187.000005706787,4|0,0:0|3:0,0:0:0:0:
476,121,40130,5,8,3:1:0:0:
104,255,40313,1,8,3:1:0:0:
476,121,40496,2,0,B|486:157|486:157|481:243,1,101.999996887207,8|0,3:1|3:0,0:0:0:0:
97,154,40861,1,8,3:1:0:0:
482,221,41044,1,8,3:1:0:0:
104,255,41227,2,0,B|100:292|100:292|120:376,1,101.999996887207,4|2,0:0|0:3,0:0:0:0:
188,369,41593,5,8,3:1:0:0:
257,122,41775,1,2,0:3:0:0:
311,337,41958,1,0,3:0:0:0:
167,31,42141,1,2,0:3:0:0:
221,245,42324,1,8,3:1:0:0:
380,89,42507,1,2,0:3:0:0:
435,305,42690,2,0,P|457:268|468:205,1,101.999996887207,4|2,0:0|0:3,0:0:0:0:
257,127,43055,5,8,3:1:0:0:
471,69,43238,1,2,0:3:0:0:
290,250,43421,1,0,3:0:0:0:
347,36,43604,1,2,0:3:0:0:
380,159,43787,1,8,3:1:0:0:
223,3,43969,1,2,0:3:0:0:
167,218,44152,2,0,P|170:277|194:324,1,101.999996887207,4|2,0:0|0:3,0:0:0:0:
307,356,44518,5,8,3:1:0:0:
481,177,44701,1,2,0:3:0:0:
239,117,44884,1,0,3:0:0:0:
394,267,45066,5,2,0:3:0:0:
324,27,45249,1,8,3:1:0:0:
152,206,45432,1,2,0:3:0:0:
427,126,45615,2,0,L|323:117,1,101.999996887207,4|0,0:0|3:0,0:0:0:0:
94,77,45981,5,8,3:1:0:0:
274,346,46163,1,8,3:1:0:0:
417,53,46346,2,0,L|312:43,1,101.999996887207,8|0,3:1|3:0,0:0:0:0:
162,0,46712,5,8,3:1:0:0:
172,324,46894,1,8,3:1:0:0:
449,151,47078,2,0,L|296:137,1,152.999995330811,4|0,3:0|3:0,0:0:0:0:
224,130,47443,5,8,3:1:0:0:
68,164,47626,1,0,3:0:0:0:
242,220,47809,1,0,3:0:0:0:
87,254,47992,1,8,3:0:0:0:
224,130,48175,1,8,3:1:0:0:
49,74,48358,1,8,3:0:0:0:
155,192,48540,2,0,B|188:241|188:241|172:351,1,152.999995330811,4|0,3:0|3:0,0:0:0:0:
100,350,48906,5,8,3:1:0:0:
137,53,49089,1,0,3:0:0:0:
377,233,49272,2,0,B|385:279|385:279|376:349,1,101.999996887207,0|8,3:0|3:0,0:0:0:0:
162,384,49637,5,8,3:1:0:0:
42,22,49820,1,0,0:0:0:0:
414,100,50003,2,0,B|419:167|419:167|369:265,1,152.999995330811,4|0,3:0|3:0,0:0:0:0:
303,270,50369,5,8,3:1:0:0:
189,123,50552,1,0,3:0:0:0:
204,230,50734,1,0,3:0:0:0:
288,164,50917,1,8,3:0:0:0:
318,376,51100,1,8,3:1:0:0:
388,205,51283,1,8,3:0:0:0:
219,336,51466,2,0,P|163:330|105:246,1,152.999995330811,4|0,3:0|3:0,0:0:0:0:
146,194,51831,1,8,3:1:0:0:
321,123,52014,1,0,3:0:0:0:
288,300,52197,1,0,3:0:0:0:
196,55,52380,1,8,3:0:0:0:
208,261,52563,5,8,3:1:0:0:
228,139,52746,1,0,0:0:0:0:
324,217,52928,2,0,L|420:225,1,85,4|0,0:0|0:0,0:0:0:0:
146,194,53294,1,8,3:1:0:0:
321,123,53477,1,0,0:0:0:0:
217,369,53660,2,0,L|132:361,1,85,0|0,3:0|0:0,0:0:0:0:
208,263,54025,5,8,3:1:0:0:
371,362,54208,1,0,0:0:0:0:
321,123,54391,1,4,0:0:0:0:
289,312,54574,1,0,0:0:0:0:
402,74,54757,1,8,3:1:0:0:
240,172,54940,1,0,0:0:0:0:
406,264,55122,2,0,P|422:311|411:360,1,85,0|8,3:0|3:0,0:0:0:0:
371,363,55397,1,8,3:1:0:0:
371,363,55488,2,0,L|280:348,1,85,8|8,3:1|3:1,0:0:0:0:
133,118,55854,5,4,0:0:0:0:
146,359,56037,1,0,0:0:0:0:
240,172,56219,1,8,3:1:0:0:
70,242,56402,1,0,0:0:0:0:
349,228,56585,2,0,P|361:174|353:143,1,85,0|0,3:0|0:0,0:0:0:0:
233,52,56951,2,0,P|221:106|229:137,1,85,8|0,3:1|0:0,0:0:0:0:
467,206,57316,5,4,0:0:0:0:
299,101,57499,1,0,0:0:0:0:
404,270,57682,1,8,3:1:0:0:
507,101,57865,1,0,0:0:0:0:
340,206,58048,1,8,3:0:0:0:
299,310,58414,6,0,P|276:285|268:255,1,59.4999981842042,2|8,3:2|3:1,0:0:0:0:
404,143,58779,6,0,L|411:234,1,85,4|0,0:0|0:0,0:0:0:0:
507,310,59145,2,0,L|511:215,1,85,8|0,3:1|0:0,0:0:0:0:
476,111,59511,2,0,B|432:95|432:95|328:108,1,127.5,0|0,3:0|3:0,0:0:0:0:
286,153,59876,2,0,P|235:157|193:138,1,85,8|0,3:1|3:0,0:0:0:0:
103,29,60242,6,0,L|109:124,1,85,4|0,0:0|0:0,0:0:0:0:
129,213,60608,1,8,3:1:0:0:
33,181,60790,1,0,0:0:0:0:
183,45,60973,1,0,3:0:0:0:
183,45,61156,2,0,L|189:140,1,85,8|8,3:1|3:1,0:0:0:0:
195,327,61522,1,8,3:1:0:0:
111,234,61705,6,0,B|162:213|162:213|274:243,1,170,4|8,3:0|3:1,0:0:0:0:
456,287,62253,1,0,3:0:0:0:
512,155,62435,2,0,B|461:134|461:134|349:164,1,170,4|8,3:0|3:1,0:0:0:0:
281,337,62984,1,0,3:0:0:0:
192,203,63167,2,0,P|186:152|204:113,1,85,4|8,3:0|3:1,0:0:0:0:
162,47,63533,2,0,P|213:41|252:59,1,85,8|8,3:1|3:1,0:0:0:0:
318,17,63899,2,0,P|324:68|306:107,1,85,4|0,3:0|0:0,0:0:0:0:
278,173,64264,6,0,P|342:175|391:78,1,178.499994552612,8|0,3:1|0:0,0:0:0:0:
312,98,64630,1,4,0:0:0:0:
185,281,64813,1,2,0:3:0:0:
420,191,64996,1,8,3:1:0:0:
237,64,65178,1,2,0:3:0:0:
325,294,65361,2,0,P|394:314|455:247,1,152.999995330811,0|0,3:0|0:0,0:0:0:0:
420,191,65727,1,8,3:1:0:0:
203,139,65910,1,2,0:3:0:0:
267,353,66093,2,0,L|273:248,1,101.999996887207,4|2,0:0|0:3,0:0:0:0:
318,17,66458,5,8,3:1:0:0:
169,214,66641,1,2,0:3:0:0:
420,191,66824,1,0,3:0:0:0:
237,64,67007,1,2,0:3:0:0:
318,205,67190,1,8,3:1:0:0:
400,64,67373,1,2,0:3:0:0:
202,138,67555,2,0,L|88:130,1,101.999996887207,4|2,0:0|0:3,0:0:0:0:
51,51,67921,5,8,3:1:0:0:
81,278,68104,1,2,0:3:0:0:
308,248,68287,1,0,3:0:0:0:
15,194,68470,1,2,0:3:0:0:
224,314,68652,1,8,3:1:0:0:
224,74,68835,1,2,0:3:0:0:
81,278,69018,6,0,B|123:283|150:313|150:313|173:311|173:311|211:352|259:330,1,187.000005706787,4|0,0:0|3:0,0:0:0:0:
211,0,69384,5,8,3:1:0:0:
208,246,69567,1,8,3:1:0:0:
447,147,69749,1,8,3:1:0:0:
201,144,69931,1,0,3:0:0:0:
300,383,70114,5,8,3:1:0:0:
303,137,70297,1,8,3:1:0:0:
64,236,70481,2,0,P|81:293|115:333,1,101.999996887207,4|2,0:0|0:3,0:0:0:0:
310,238,70846,5,8,3:1:0:0:
169,66,71029,1,2,0:3:0:0:
209,320,71212,1,0,3:0:0:0:
289,111,71395,1,2,0:3:0:0:
189,193,71578,1,8,3:1:0:0:
49,20,71761,1,2,0:3:0:0:
310,238,71943,2,0,L|419:248,1,101.999996887207,4|2,0:0|0:3,0:0:0:0:
289,111,72309,5,8,3:1:0:0:
329,366,72492,1,2,0:3:0:0:
409,157,72675,1,0,3:0:0:0:
89,275,72858,1,2,0:3:0:0:
310,238,73040,1,8,3:1:0:0:
68,148,73223,1,2,0:3:0:0:
210,321,73406,2,0,L|319:331,1,101.999996887207,4|2,0:0|0:3,0:0:0:0:
355,114,73772,5,8,3:1:0:0:
401,348,73955,1,2,0:3:0:0:
423,79,74137,1,0,3:0:0:0:
180,195,74320,5,2,0:3:0:0:
419,155,74503,1,8,3:1:0:0:
197,3,74686,1,2,0:3:0:0:
177,271,74869,2,0,P|227:258|256:200,1,101.999996887207,4|0,0:0|3:0,0:0:0:0:
118,25,75234,5,8,3:1:0:0:
10,308,75417,1,8,3:1:0:0:
310,260,75600,2,0,P|323:210|288:156,1,101.999996887207,8|0,3:1|3:0,0:0:0:0:
39,47,75966,5,8,3:1:0:0:
122,377,76149,1,8,3:1:0:0:
367,140,76331,2,0,P|330:103|266:107,1,101.999996887207,4|0,3:0|0:0,0:0:0:0:
210,156,76697,6,0,P|158:160|122:139,1,85,8|0,3:1|3:0,0:0:0:0:
92,64,77063,1,0,3:0:0:0:
180,73,77246,1,8,3:0:0:0:
78,217,77429,1,8,3:1:0:0:
41,136,77611,1,8,3:0:0:0:
166,225,77794,6,0,P|176:264|161:321,1,85,4|0,3:0|0:0,0:0:0:0:
5,273,78160,2,0,B|47:260|47:260|96:269,1,85,8|0,3:1|3:0,0:0:0:0:
306,302,78526,1,0,3:0:0:0:
90,355,78708,1,8,3:0:0:0:
303,214,78891,2,0,B|345:222|345:222|397:215,1,85,8|0,3:1|0:0,0:0:0:0:
457,165,79257,6,0,P|470:219|491:259,1,85,4|0,3:0|0:0,0:0:0:0:
378,131,79623,2,0,L|388:227,1,85,8|0,3:1|3:0,0:0:0:0:
367,45,79988,5,0,3:0:0:0:
446,79,80171,1,8,3:0:0:0:
299,97,80354,1,8,3:1:0:0:
367,45,80537,1,8,3:0:0:0:
288,11,80720,6,0,B|246:27|246:27|192:22,1,85,4|0,3:0|0:0,0:0:0:0:
40,35,81085,2,0,P|95:46|126:32,1,85,8|0,3:1|3:0,0:0:0:0:
228,173,81451,1,0,3:0:0:0:
174,104,81634,1,8,3:0:0:0:
108,266,81817,1,8,3:1:0:0:
129,269,81908,1,0,3:0:0:0:
150,272,81999,1,0,3:0:0:0:
171,275,82091,1,0,3:0:0:0:
192,278,82182,1,4,3:0:0:0:
403,301,82365,5,0,3:0:0:0:
403,301,82457,1,0,3:0:0:0:
403,301,82548,1,8,3:1:0:0:
318,277,82731,1,0,3:0:0:0:
296,193,82914,2,0,L|387:171,1,85,4|0,3:0|0:0,0:0:0:0:
401,92,83188,2,0,L|336:24,1,85,4|0,3:0|0:0,0:0:0:0:
262,52,83462,2,0,L|235:141,1,85,4|4,3:0|3:0,0:0:0:0:
213,217,83828,5,0,3:0:0:0:
152,154,84011,1,8,3:1:0:0:
128,239,84194,1,0,0:0:0:0:
91,91,84376,2,0,P|129:68|181:71,1,85,4|0,3:0|0:0,0:0:0:0:
237,133,84651,2,0,P|275:156|327:153,1,85,4|0,3:0|0:0,0:0:0:0:
381,88,84925,2,0,P|407:135|400:193,2,85,4|4|0,3:0|3:0|0:0,0:0:0:0:
298,320,85473,5,8,3:1:0:0:
259,233,85656,1,0,3:0:0:0:
448,253,85839,1,4,3:0:0:0:
392,330,86021,1,0,3:0:0:0:
314,156,86204,1,8,3:1:0:0:
353,243,86387,1,4,3:0:0:0:
463,87,86570,5,4,3:0:0:0:
448,253,86753,1,8,3:1:0:0:
220,146,86936,1,8,3:1:0:0:
408,165,87119,1,4,3:0:0:0:
298,320,87302,1,4,3:0:0:0:
275,68,87485,2,0,L|372:78,2,85,8|8|4,3:1|3:1|3:0,0:0:0:0:
83,50,88033,5,4,3:0:0:0:
179,59,88216,1,0,3:0:0:0:
179,59,88307,1,0,3:0:0:0:
179,59,88399,1,8,3:1:0:0:
27,128,88582,1,8,3:0:0:0:
218,146,88764,1,4,3:0:0:0:
66,215,88947,1,8,3:0:0:0:
122,137,89130,1,8,3:1:0:0:
161,224,89313,1,4,3:0:0:0:
179,59,89496,5,4,3:0:0:0:
257,233,89679,2,0,L|347:244,2,85,0|8|8,3:0|3:1|3:0,0:0:0:0:
122,137,90227,5,4,3:0:0:0:
218,146,90410,1,4,3:0:0:0:
105,302,90593,1,8,3:1:0:0:
66,215,90776,1,0,3:0:0:0:
314,155,90958,5,4,3:0:0:0:
328,329,91141,1,0,3:0:0:0:
227,186,91324,1,8,3:1:0:0:
402,171,91507,1,0,3:0:0:0:
298,243,91690,1,4,3:0:0:0:
370,86,91873,1,0,0:0:0:0:
470,228,92056,1,8,3:1:0:0:
314,155,92238,1,4,3:0:0:0:
456,57,92421,6,0,L|449:158,1,85,4|0,3:0|0:0,0:0:0:0:
292,327,92787,2,0,L|298:232,1,85,8|0,3:1|0:0,0:0:0:0:
251,22,93152,6,0,P|240:73|241:120,1,85,4|0,3:0|0:0,0:0:0:0:
119,357,93518,2,0,P|130:306|129:259,1,85,8|0,3:1|0:0,0:0:0:0:
122,10,93884,5,4,3:0:0:0:
204,224,94067,1,0,3:0:0:0:
55,227,94249,5,8,3:1:0:0:
190,79,94432,1,0,3:0:0:0:
270,292,94615,5,4,3:0:0:0:
124,158,94798,1,0,3:0:0:0:
337,76,94981,5,8,3:1:0:0:
267,145,95346,6,0,B|305:119|338:74|338:74|330:212|338:318,1,340,2|0,0:0|3:0,0:0:0:0:
358,157,96809,2,0,B|394:133|427:152|448:163|455:221|421:285|384:317|362:297|336:313|336:313|362:297|384:317|425:296|469:330,1,407.999987548829,2|0,0:0|3:0,0:0:0:0:
413,62,98272,2,0,B|453:49|503:59|514:111|482:154|429:156|429:156|517:156|510:236|505:288|384:255,1,407.999987548829,2|0,0:0|3:0,0:0:0:0:
254,128,99735,6,0,B|225:55|225:55|276:49|276:49|258:148|258:148|246:164|231:197|268:223|304:190|283:161|258:148,1,340,4|2,0:0|3:2,0:0:0:0:
144,149,100283,1,2,0:0:0:0:
200,261,100466,1,2,3:2:0:0:
144,149,100832,5,2,3:2:0:0:
256,373,101014,1,2,0:2:0:0:
394,165,101197,2,0,P|330:145|274:168,1,110.499994941712,4|2,0:0|0:3,0:0:0:0:
6,357,101563,5,8,3:1:0:0:
144,149,101746,1,2,0:3:0:0:
256,373,101929,1,0,3:0:0:0:
368,149,102111,1,2,0:3:0:0:
506,357,102293,1,8,3:1:0:0:
255,223,102477,1,2,0:3:0:0:
497,73,102660,2,0,B|506:119|506:119|497:191,1,110.499994941712,4|2,0:0|0:3,0:0:0:0:
378,296,103026,5,8,3:1:0:0:
229,128,103208,1,2,0:3:0:0:
280,320,103391,1,0,3:0:0:0:
326,103,103574,1,2,0:3:0:0:
184,346,103757,5,8,3:1:0:0:
422,129,103940,1,2,0:3:0:0:
131,153,104123,6,0,B|132:105|132:105|159:49,1,110.499994941712,4|2,0:0|0:3,0:0:0:0:
357,5,104488,5,8,3:1:0:0:
353,199,104671,1,2,0:3:0:0:
259,29,104854,1,0,3:0:0:0:
255,223,105037,1,2,0:3:0:0:
326,103,105220,5,8,3:1:0:0:
322,297,105403,1,10,0:3:0:0:
228,127,105586,1,4,0:0:0:0:
224,321,105768,5,8,3:1:0:0:
196,315,105859,1,8,3:1:0:0:
169,311,105950,1,8,3:1:0:0:
142,309,106042,1,8,3:0:0:0:
114,309,106133,1,2,3:0:0:0:
86,310,106225,1,0,3:0:0:0:
59,314,106316,5,8,3:0:0:0:
95,295,106408,1,8,3:1:0:0:
105,256,106499,1,8,3:1:0:0:
84,222,106591,1,8,3:0:0:0:
44,214,106682,5,8,3:1:0:0:
112,222,106773,1,0,3:0:0:0:
180,216,106864,1,10,3:0:0:0:
246,194,106956,1,0,3:0:0:0:
305,159,107048,6,0,P|307:103|281:56,1,110.499994941712,4|0,3:0|0:0,0:0:0:0:
99,110,107414,1,8,3:1:0:0:
205,132,107597,1,0,3:0:0:0:
121,3,107779,1,0,3:0:0:0:
181,240,107962,1,8,3:0:0:0:
358,70,108145,1,8,3:1:0:0:
99,110,108328,1,8,3:0:0:0:
262,316,108511,6,0,P|336:332|401:313,1,110.499994941712,4|0,3:0|0:0,0:0:0:0:
466,7,108876,5,8,3:1:0:0:
165,157,109059,1,0,3:0:0:0:
446,342,109242,2,0,L|472:226,1,110.499994941712,0|8,3:0|3:0,0:0:0:0:
110,8,109608,5,8,3:1:0:0:
40,367,109791,1,0,0:0:0:0:
387,248,109973,2,0,L|413:132,1,110.499994941712,4|0,3:0|0:0,0:0:0:0:
280,64,110339,5,8,3:1:0:0:
308,168,110522,1,0,3:0:0:0:
383,36,110705,1,0,3:0:0:0:
109,170,110888,1,8,3:0:0:0:
460,194,111070,1,8,3:1:0:0:
207,24,111253,1,8,3:0:0:0:
362,341,111436,6,0,L|498:348,1,110.499994941712,4|0,3:0|0:0,0:0:0:0:
348,235,111802,2,0,B|338:278|338:278|365:349,1,110.499994941712,8|0,3:1|3:0,0:0:0:0:
418,164,112167,6,0,L|308:155,1,110.499994941712,0|8,3:0|3:0,0:0:0:0:
418,59,112533,2,0,B|435:100|435:100|414:177,1,110.499994941712,8|0,3:1|0:0,0:0:0:0:
229,191,112899,1,4,0:0:0:0:
281,76,113082,1,2,0:3:0:0:
302,293,113264,1,8,3:1:0:0:
156,88,113447,1,2,0:3:0:0:
177,305,113630,2,0,B|126:338|126:338|11:315,1,165.749992412568,0|0,3:0|0:0,0:0:0:0:
11,240,113996,1,8,3:1:0:0:
71,32,114179,1,2,0:3:0:0:
241,145,114361,2,0,P|260:199|236:258,1,110.499994941712,4|2,0:0|0:3,0:0:0:0:
41,135,114727,5,8,3:1:0:0:
271,42,114910,1,2,0:3:0:0:
177,200,115093,1,0,3:0:0:0:
171,37,115276,1,2,0:3:0:0:
316,114,115459,1,8,3:1:0:0:
72,57,115641,1,2,0:3:0:0:
276,188,115824,2,0,P|342:197|387:160,1,110.499994941712,4|2,0:0|0:3,0:0:0:0:
453,63,116190,5,8,3:1:0:0:
374,318,116373,1,2,0:3:0:0:
331,13,116556,1,0,3:0:0:0:
477,235,116738,1,2,0:3:0:0:
226,95,116921,1,8,3:1:0:0:
512,143,117104,1,10,0:3:0:0:
191,187,117287,2,0,P|126:243|189:298,1,187.000005706787,4|0,0:0|3:0,0:0:0:0:
414,158,117653,5,8,3:1:0:0:
31,46,117835,1,8,3:1:0:0:
369,340,118018,2,0,P|450:344|477:325,1,110.499994941712,8|8,3:1|3:0,0:0:0:0:
185,12,118384,5,8,3:1:0:0:
215,374,118567,1,8,3:1:0:0:
472,54,118750,2,0,P|422:32|369:44,1,110.499994941712,4|0,3:0|0:0,0:0:0:0:
177,285,119115,2,0,P|127:306|73:295,1,110.499994941712,8|0,3:1|3:0,0:0:0:0:
134,57,119481,1,0,3:0:0:0:
183,163,119664,1,8,3:0:0:0:
48,69,119847,1,8,3:1:0:0:
198,0,120029,1,8,3:0:0:0:
118,219,120212,6,0,L|7:199,1,110.499994941712,4|0,3:0|0:0,0:0:0:0:
198,0,120578,5,8,3:1:0:0:
465,189,120761,1,0,3:0:0:0:
168,326,120944,2,0,L|57:306,1,110.499994941712,0|8,3:0|3:0,0:0:0:0:
362,54,121309,5,8,3:1:0:0:
332,380,121492,1,0,0:0:0:0:
64,191,121675,2,0,L|25:84,1,110.499994941712,4|0,3:0|0:0,0:0:0:0:
198,0,122041,1,8,3:1:0:0:
248,155,122223,1,0,3:0:0:0:
87,123,122405,1,0,3:0:0:0:
244,72,122590,1,8,3:0:0:0:
210,233,122771,1,8,3:1:0:0:
160,76,122955,1,8,3:0:0:0:
321,109,123138,6,0,P|379:113|430:89,1,110.499994941712,4|0,3:0|0:0,0:0:0:0:
474,6,123503,1,8,3:1:0:0:
254,34,123686,1,0,3:0:0:0:
498,200,123869,1,0,3:0:0:0:
364,19,124052,1,8,3:0:0:0:
279,229,124235,5,8,3:1:0:0:
