osu file format v14

[General]
AudioFilename: audio.mp3
AudioLeadIn: 0
PreviewTime: 34969
Countdown: 0
SampleSet: Drum
StackLeniency: 0.7
Mode: 3
LetterboxInBreaks: 0
SpecialStyle: 0
WidescreenStoryboard: 1

[Editor]
DistanceSpacing: 1.5
BeatDivisor: 4
GridSize: 4
TimelineZoom: 1.6

[Metadata]
Title:Take a Hint feat. Victoria Justice & Elizabeth Gillies (Sped Up & Cut Ver.)
TitleUnicode:Take a Hint feat. Victoria Justice & Elizabeth Gillies (Sped Up & Cut Ver.)
Artist:Victorious Cast
ArtistUnicode:Victorious Cast
Creator:Kibitz
Version:Hard
Source:Victorious
Tags:nickelodeon original soundtrack 2.0 more music from the hit tv show nightcore english pop sitcom situational comedy version
BeatmapID:4227309
BeatmapSetID:2028339

[Difficulty]
HPDrainRate:7.5
CircleSize:4
OverallDifficulty:7.5
ApproachRate:5
SliderMultiplier:1.4
SliderTickRate:1

[Events]
//Background and Video events
0,0,"take a hint bg.jpg",0,0
//Break Periods
//Storyboard Layer 0 (Background)
//Storyboard Layer 1 (Fail)
//Storyboard Layer 2 (Pass)
//Storyboard Layer 3 (Foreground)
//Storyboard Layer 4 (Overlay)
//Storyboard Sound Samples
Sample,6538,0,"soft-hitclap11.wav",70
Sample,7269,0,"soft-hitclap11.wav",70
Sample,8001,0,"soft-hitclap11.wav",70
Sample,9463,0,"soft-hitclap11.wav",70
Sample,10195,0,"soft-hitclap11.wav",70
Sample,10926,0,"soft-hitclap11.wav",70
Sample,11657,0,"soft-hitclap11.wav",70
Sample,14583,0,"soft-hitclap11.wav",70
Sample,21165,0,"soft-hitclap11.wav",70
Sample,21896,0,"soft-hitclap11.wav",70
Sample,22628,0,"soft-hitclap11.wav",70
Sample,26284,0,"soft-hitclap11.wav",70
Sample,35792,0,"soft-hitclap11.wav",70
Sample,36523,0,"soft-hitclap11.wav",70
Sample,37254,0,"soft-hitclap11.wav",70
Sample,37986,0,"soft-hitclap11.wav",70
Sample,38717,0,"soft-hitclap11.wav",70
Sample,39449,0,"soft-hitclap11.wav",70
Sample,39997,0,"soft-hitclap11.wav",70
Sample,40180,0,"soft-hitclap11.wav",70
Sample,40728,0,"soft-hitclap11.wav",70
Sample,40911,0,"soft-hitclap11.wav",70
Sample,41643,0,"soft-hitclap11.wav",70
Sample,42374,0,"soft-hitclap11.wav",70
Sample,43105,0,"soft-hitclap11.wav",70
Sample,43837,0,"soft-hitclap11.wav",70
Sample,44568,0,"soft-hitclap11.wav",70
Sample,45299,0,"soft-hitclap11.wav",70
Sample,45848,0,"soft-hitclap11.wav",70
Sample,46031,0,"soft-hitclap11.wav",70
Sample,46396,0,"soft-hitclap11.wav",70
Sample,46762,0,"soft-hitclap11.wav",70
Sample,47493,0,"soft-hitclap11.wav",70
Sample,48225,0,"soft-hitclap11.wav",70
Sample,48956,0,"soft-hitclap11.wav",70
Sample,49505,0,"soft-hitclap11.wav",70
Sample,49687,0,"soft-hitclap11.wav",70
Sample,50419,0,"soft-hitclap11.wav",70
Sample,51150,0,"soft-hitclap11.wav",70
Sample,51881,0,"soft-hitclap11.wav",70

[TimingPoints]
322,365.673051724453,4,3,1,50,1,0
35426,-100,4,3,1,50,0,1
47128,-100,4,3,1,50,0,0

[HitObjects]
64,192,322,128,0,687:0:0:0:0:
448,192,870,128,0,1053:0:0:0:0:
320,192,1053,128,0,1236:0:0:0:0:
64,192,1236,128,0,1419:0:0:0:0:
192,192,1419,128,0,1601:0:0:0:0:
320,192,1601,128,0,1784:0:0:0:0:
448,192,1784,128,0,2150:0:0:0:0:
320,192,2333,128,0,2516:0:0:0:0:
192,192,2516,128,0,2698:0:0:0:0:
448,192,2698,128,0,2881:0:0:0:0:
64,192,2881,128,0,3064:0:0:0:0:
448,192,3247,128,0,3613:0:0:0:0:
64,192,3795,128,0,3978:0:0:0:0:
192,192,3978,128,0,4161:0:0:0:0:
448,192,4161,128,0,4344:0:0:0:0:
320,192,4344,128,0,4527:0:0:0:0:
192,192,4527,128,0,4710:0:0:0:0:
64,192,4710,128,0,5075:0:0:0:0:
192,192,5258,128,0,5441:0:0:0:0:
320,192,5441,128,0,5624:0:0:0:0:
64,192,5624,128,0,5807:0:0:0:0:
448,192,5807,128,0,5989:0:0:0:0:
64,192,6172,128,0,6538:0:0:0:70:soft-hitwhistle.wav
192,192,6172,128,0,6538:0:0:0:70:soft-hitfinish11.wav
320,192,6538,1,0,0:0:0:70:soft-hitwhistle.wav
448,192,6538,1,0,0:0:0:70:Clap.wav
64,192,6721,1,0,0:0:0:70:soft-hitclap11.wav
192,192,6721,1,0,0:0:0:0:
320,192,6904,1,0,0:0:0:70:soft-hitwhistle.wav
448,192,6904,1,0,0:0:0:0:
320,192,7086,1,0,0:0:0:0:
448,192,7086,1,0,0:0:0:0:
64,192,7269,1,0,0:0:0:70:soft-hitwhistle.wav
192,192,7269,1,0,0:0:0:70:Clap.wav
64,192,7452,1,0,0:0:0:0:
192,192,7452,1,0,0:0:0:0:
320,192,7635,128,0,8001:0:0:0:70:soft-hitwhistle.wav
448,192,7635,128,0,8001:0:0:0:0:
64,192,8001,1,0,0:0:0:70:soft-hitwhistle.wav
192,192,8001,1,0,0:0:0:70:Clap.wav
320,192,8183,1,0,0:0:0:70:soft-hitclap11.wav
448,192,8183,1,0,0:0:0:0:
64,192,8366,1,0,0:0:0:70:soft-hitwhistle.wav
192,192,8366,1,0,0:0:0:0:
64,192,8549,1,0,0:0:0:70:soft-hitclap11.wav
192,192,8549,1,0,0:0:0:0:
320,192,8732,128,0,8915:0:0:0:70:Clap.wav
448,192,8732,128,0,8915:0:0:0:70:soft-hitclap11.wav
192,192,8915,1,0,0:0:0:0:
64,192,9098,128,0,9463:0:0:0:70:soft-hitwhistle.wav
192,192,9098,128,0,9463:0:0:0:0:
320,192,9463,1,0,0:0:0:70:soft-hitwhistle.wav
448,192,9463,1,0,0:0:0:70:Clap.wav
64,192,9646,1,0,0:0:0:70:soft-hitclap11.wav
192,192,9646,1,0,0:0:0:0:
320,192,9829,1,0,0:0:0:70:soft-hitwhistle.wav
448,192,9829,1,0,0:0:0:0:
320,192,10012,1,0,0:0:0:0:
448,192,10012,1,0,0:0:0:0:
64,192,10195,1,0,0:0:0:70:soft-hitwhistle.wav
192,192,10195,1,0,0:0:0:70:Clap.wav
64,192,10378,1,0,0:0:0:0:
192,192,10378,1,0,0:0:0:0:
320,192,10560,128,0,10926:0:0:0:70:soft-hitwhistle.wav
448,192,10560,128,0,10926:0:0:0:0:
64,192,10926,1,0,0:0:0:70:soft-hitwhistle.wav
192,192,10926,1,0,0:0:0:70:Clap.wav
320,192,11109,1,0,0:0:0:70:soft-hitclap11.wav
448,192,11109,1,0,0:0:0:0:
64,192,11292,1,0,0:0:0:70:soft-hitwhistle.wav
192,192,11292,1,0,0:0:0:0:
64,192,11475,1,0,0:0:0:70:soft-hitclap11.wav
192,192,11475,1,0,0:0:0:0:
320,192,11657,128,0,11840:0:0:0:70:soft-hitwhistle.wav
448,192,11657,128,0,11840:0:0:0:70:Clap.wav
64,192,12023,1,0,0:0:0:70:soft-hitwhistle.wav
448,192,12023,1,0,0:0:0:0:
64,192,12206,1,0,0:0:0:0:
320,192,12389,1,0,0:0:0:70:Clap.wav
448,192,12389,1,0,0:0:0:70:soft-hitclap11.wav
320,192,12572,1,0,0:0:0:0:
64,192,12754,1,0,0:0:0:70:soft-hitwhistle.wav
192,192,12754,1,0,0:0:0:0:
192,192,12937,1,0,0:0:0:70:soft-hitwhistle.wav
320,192,12937,1,0,0:0:0:0:
64,192,13120,1,0,0:0:0:70:Clap.wav
448,192,13120,1,0,0:0:0:70:soft-hitclap11.wav
448,192,13303,1,0,0:0:0:0:
64,192,13486,1,0,0:0:0:70:soft-hitwhistle.wav
320,192,13486,1,0,0:0:0:0:
320,192,13669,1,0,0:0:0:0:
192,192,13851,1,0,0:0:0:70:Clap.wav
448,192,13851,1,0,0:0:0:70:soft-hitclap11.wav
192,192,14034,1,0,0:0:0:0:
320,192,14217,1,0,0:0:0:70:soft-hitwhistle.wav
64,192,14400,1,0,0:0:0:70:soft-hitclap11.wav
192,192,14400,1,0,0:0:0:0:
320,192,14491,1,0,0:0:0:70:soft-hitclap11.wav
448,192,14491,1,0,0:0:0:0:
64,192,14583,1,0,0:0:0:70:soft-hitwhistle.wav
192,192,14583,1,0,0:0:0:70:Clap.wav
64,192,14766,1,0,0:0:0:70:soft-hitclap11.wav
192,192,14766,1,0,0:0:0:0:
320,192,14948,1,0,0:0:0:70:soft-hitwhistle.wav
448,192,14948,1,0,0:0:0:0:
448,192,15131,1,0,0:0:0:0:
64,192,15314,1,0,0:0:0:70:Clap.wav
192,192,15314,1,0,0:0:0:70:soft-hitclap11.wav
192,192,15497,1,0,0:0:0:0:
320,192,15680,1,0,0:0:0:70:soft-hitwhistle.wav
448,192,15680,1,0,0:0:0:0:
192,192,15863,1,0,0:0:0:70:soft-hitwhistle.wav
320,192,15863,1,0,0:0:0:0:
64,192,16045,1,0,0:0:0:70:Clap.wav
448,192,16045,1,0,0:0:0:70:soft-hitclap11.wav
448,192,16228,1,0,0:0:0:0:
64,192,16411,1,0,0:0:0:70:soft-hitwhistle.wav
192,192,16411,1,0,0:0:0:0:
64,192,16594,1,0,0:0:0:0:
192,192,16777,1,0,0:0:0:70:Clap.wav
320,192,16777,1,0,0:0:0:70:soft-hitclap11.wav
192,192,16960,1,0,0:0:0:0:
320,192,17142,1,0,0:0:0:70:soft-hitwhistle.wav
448,192,17142,1,0,0:0:0:0:
320,192,17325,1,0,0:0:0:70:soft-hitclap11.wav
448,192,17325,1,0,0:0:0:0:
64,192,17508,1,0,0:0:0:70:soft-hitwhistle.wav
192,192,17508,1,0,0:0:0:70:Clap.wav
320,192,17691,1,0,0:0:0:70:soft-hitclap11.wav
448,192,17691,1,0,0:0:0:0:
64,192,17874,1,0,0:0:0:70:soft-hitwhistle.wav
192,192,17874,1,0,0:0:0:0:
192,192,18057,1,0,0:0:0:0:
320,192,18239,1,0,0:0:0:70:Clap.wav
448,192,18239,1,0,0:0:0:70:soft-hitclap11.wav
320,192,18422,1,0,0:0:0:0:
64,192,18605,1,0,0:0:0:70:soft-hitwhistle.wav
448,192,18605,1,0,0:0:0:0:
64,192,18788,1,0,0:0:0:70:soft-hitwhistle.wav
192,192,18788,1,0,0:0:0:0:
320,192,18971,1,0,0:0:0:70:Clap.wav
448,192,18971,1,0,0:0:0:70:soft-hitclap11.wav
448,192,19154,1,0,0:0:0:0:
64,192,19336,1,0,0:0:0:70:soft-hitwhistle.wav
320,192,19336,1,0,0:0:0:0:
64,192,19519,1,0,0:0:0:0:
192,192,19702,1,0,0:0:0:70:Clap.wav
320,192,19702,1,0,0:0:0:70:soft-hitclap11.wav
320,192,19885,1,0,0:0:0:0:
64,192,20068,1,0,0:0:0:70:soft-hitwhistle.wav
192,192,20068,1,0,0:0:0:0:
64,192,20251,1,0,0:0:0:70:soft-hitclap11.wav
192,192,20251,1,0,0:0:0:0:
320,192,20434,1,0,0:0:0:70:soft-hitwhistle.wav
448,192,20434,1,0,0:0:0:70:Clap.wav
64,192,20616,1,0,0:0:0:70:soft-hitclap11.wav
192,192,20616,1,0,0:0:0:0:
64,192,20799,1,0,0:0:0:70:soft-hitwhistle.wav
448,192,20799,1,0,0:0:0:0:
448,192,20982,1,0,0:0:0:0:
64,192,21165,1,0,0:0:0:70:soft-hitwhistle.wav
320,192,21165,1,0,0:0:0:70:Clap.wav
320,192,21348,1,0,0:0:0:0:
192,192,21531,1,0,0:0:0:70:soft-hitwhistle.wav
448,192,21531,1,0,0:0:0:0:
192,192,21713,1,0,0:0:0:0:
64,192,21896,1,0,0:0:0:70:soft-hitwhistle.wav
320,192,21896,1,0,0:0:0:70:Clap.wav
64,192,22079,1,0,0:0:0:0:
320,192,22262,1,0,0:0:0:70:soft-hitwhistle.wav
448,192,22262,1,0,0:0:0:0:
448,192,22445,1,0,0:0:0:0:
64,192,22628,1,0,0:0:0:70:soft-hitwhistle.wav
192,192,22628,1,0,0:0:0:70:Clap.wav
64,192,22810,1,0,0:0:0:0:
320,192,22993,128,0,23176:0:0:0:70:soft-hitwhistle.wav
448,192,22993,1,0,0:0:0:0:
320,192,23359,128,0,23725:0:0:0:0:
64,192,23725,128,0,23907:0:0:0:70:soft-hitwhistle.wav
448,192,23725,1,0,0:0:0:0:
448,192,23907,1,0,0:0:0:0:
64,192,24090,1,0,0:0:0:70:Clap.wav
192,192,24090,1,0,0:0:0:70:soft-hitclap11.wav
192,192,24273,1,0,0:0:0:0:
320,192,24456,1,0,0:0:0:70:soft-hitwhistle.wav
448,192,24456,1,0,0:0:0:0:
192,192,24639,1,0,0:0:0:70:soft-hitwhistle.wav
320,192,24639,1,0,0:0:0:0:
64,192,24822,1,0,0:0:0:70:Clap.wav
448,192,24822,1,0,0:0:0:70:soft-hitclap11.wav
64,192,25004,1,0,0:0:0:0:
192,192,25187,1,0,0:0:0:70:soft-hitwhistle.wav
448,192,25187,128,0,25370:0:0:0:0:
192,192,25370,1,0,0:0:0:0:
64,192,25553,1,0,0:0:0:70:Clap.wav
320,192,25553,1,0,0:0:0:70:soft-hitclap11.wav
320,192,25736,1,0,0:0:0:0:
192,192,25919,1,0,0:0:0:70:soft-hitwhistle.wav
320,192,26101,1,0,0:0:0:70:soft-hitclap11.wav
448,192,26101,1,0,0:0:0:0:
64,192,26193,1,0,0:0:0:70:soft-hitclap11.wav
192,192,26193,1,0,0:0:0:0:
320,192,26284,1,0,0:0:0:70:soft-hitwhistle.wav
448,192,26284,1,0,0:0:0:70:Clap.wav
320,192,26467,1,0,0:0:0:70:soft-hitclap11.wav
448,192,26467,1,0,0:0:0:0:
64,192,26650,1,0,0:0:0:70:soft-hitwhistle.wav
192,192,26650,128,0,26833:0:0:0:0:
64,192,26833,1,0,0:0:0:0:
320,192,27016,1,0,0:0:0:70:Clap.wav
448,192,27016,1,0,0:0:0:70:soft-hitclap11.wav
320,192,27198,1,0,0:0:0:0:
64,192,27381,1,0,0:0:0:70:soft-hitwhistle.wav
192,192,27381,1,0,0:0:0:0:
192,192,27564,1,0,0:0:0:70:soft-hitwhistle.wav
320,192,27564,1,0,0:0:0:0:
64,192,27747,1,0,0:0:0:70:Clap.wav
448,192,27747,1,0,0:0:0:70:soft-hitclap11.wav
64,192,27930,1,0,0:0:0:0:
320,192,28113,128,0,28295:0:0:0:70:soft-hitwhistle.wav
448,192,28113,1,0,0:0:0:0:
448,192,28295,1,0,0:0:0:0:
192,192,28478,1,0,0:0:0:70:Clap.wav
320,192,28478,1,0,0:0:0:70:soft-hitclap11.wav
320,192,28661,1,0,0:0:0:0:
64,192,28844,1,0,0:0:0:70:soft-hitwhistle.wav
192,192,28844,1,0,0:0:0:0:
64,192,29027,1,0,0:0:0:70:soft-hitclap11.wav
192,192,29027,1,0,0:0:0:0:
320,192,29210,1,0,0:0:0:70:soft-hitwhistle.wav
448,192,29210,1,0,0:0:0:70:Clap.wav
64,192,29393,1,0,0:0:0:70:soft-hitclap11.wav
192,192,29393,1,0,0:0:0:0:
320,192,29575,1,0,0:0:0:70:soft-hitwhistle.wav
448,192,29575,128,0,29758:0:0:0:0:
320,192,29758,1,0,0:0:0:0:
64,192,29941,1,0,0:0:0:70:Clap.wav
192,192,29941,1,0,0:0:0:70:soft-hitclap11.wav
192,192,30124,1,0,0:0:0:0:
64,192,30307,1,0,0:0:0:70:soft-hitwhistle.wav
448,192,30307,1,0,0:0:0:0:
320,192,30490,1,0,0:0:0:70:soft-hitwhistle.wav
448,192,30490,1,0,0:0:0:0:
64,192,30672,1,0,0:0:0:70:Clap.wav
192,192,30672,1,0,0:0:0:70:soft-hitclap11.wav
64,192,30855,1,0,0:0:0:0:
192,192,31038,128,0,31221:0:0:0:70:soft-hitwhistle.wav
448,192,31038,1,0,0:0:0:0:
448,192,31221,1,0,0:0:0:0:
192,192,31404,1,0,0:0:0:70:Clap.wav
320,192,31404,1,0,0:0:0:70:soft-hitclap11.wav
192,192,31587,1,0,0:0:0:0:
320,192,31769,1,0,0:0:0:70:soft-hitwhistle.wav
448,192,31769,1,0,0:0:0:0:
320,192,31952,1,0,0:0:0:70:soft-hitwhistle.wav
448,192,31952,1,0,0:0:0:0:
64,192,32135,1,0,0:0:0:70:Clap.wav
192,192,32135,1,0,0:0:0:70:soft-hitclap11.wav
320,192,32318,1,0,0:0:0:0:
448,192,32318,1,0,0:0:0:0:
64,192,32501,128,0,32866:0:0:0:70:soft-hitwhistle.wav
448,192,32501,1,0,0:0:0:0:
192,192,32866,1,0,0:0:0:70:Clap.wav
320,192,32866,1,0,0:0:0:70:soft-hitclap11.wav
192,192,33049,1,0,0:0:0:0:
320,192,33232,1,0,0:0:0:70:soft-hitwhistle.wav
448,192,33232,128,0,33598:0:0:0:0:
64,192,33598,1,0,0:0:0:70:Clap.wav
192,192,33598,1,0,0:0:0:70:soft-hitclap11.wav
64,192,33781,1,0,0:0:0:0:
192,192,33781,1,0,0:0:0:0:
320,192,33963,1,0,0:0:0:70:soft-hitwhistle.wav
448,192,33963,1,0,0:0:0:0:
320,192,34146,1,0,0:0:0:0:
448,192,34146,1,0,0:0:0:0:
64,192,34329,1,0,0:0:0:70:Clap.wav
192,192,34329,1,0,0:0:0:70:soft-hitclap11.wav
64,192,34512,1,0,0:0:0:0:
192,192,34512,1,0,0:0:0:0:
320,192,34695,1,0,0:0:0:70:soft-hitwhistle.wav
448,192,34695,1,0,0:0:0:0:
64,192,35060,1,0,0:0:0:70:Clap.wav
192,192,35060,1,0,0:0:0:70:soft-hitclap11.wav
448,192,35060,1,0,0:0:0:0:
64,192,35426,1,0,0:0:0:70:soft-hitwhistle.wav
448,192,35426,128,0,35609:0:0:0:0:
320,192,35426,128,0,35609:0:0:0:70:soft-hitfinish11.wav
64,192,35792,1,0,0:0:0:70:soft-hitwhistle.wav
192,192,35792,1,0,0:0:0:70:Clap.wav
64,192,35975,1,0,0:0:0:0:
192,192,35975,1,0,0:0:0:0:
320,192,36157,128,0,36340:0:0:0:70:soft-hitwhistle.wav
448,192,36157,128,0,36340:0:0:0:0:
320,192,36523,1,0,0:0:0:70:soft-hitwhistle.wav
448,192,36523,1,0,0:0:0:70:Clap.wav
320,192,36706,1,0,0:0:0:0:
448,192,36706,1,0,0:0:0:0:
64,192,36889,128,0,37072:0:0:0:70:soft-hitwhistle.wav
192,192,36889,128,0,37072:0:0:0:0:
320,192,37254,1,0,0:0:0:70:soft-hitwhistle.wav
448,192,37254,1,0,0:0:0:70:Clap.wav
320,192,37437,1,0,0:0:0:0:
448,192,37437,1,0,0:0:0:0:
64,192,37620,1,0,0:0:0:70:soft-hitwhistle.wav
192,192,37620,1,0,0:0:0:0:
64,192,37803,1,0,0:0:0:0:
192,192,37803,1,0,0:0:0:0:
320,192,37986,1,0,0:0:0:70:soft-hitwhistle.wav
448,192,37986,1,0,0:0:0:70:Clap.wav
320,192,38169,1,0,0:0:0:0:
448,192,38169,1,0,0:0:0:0:
64,192,38351,128,0,38534:0:0:0:70:soft-hitwhistle.wav
192,192,38351,128,0,38534:0:0:0:0:
64,192,38717,1,0,0:0:0:70:soft-hitwhistle.wav
448,192,38717,1,0,0:0:0:70:Clap.wav
64,192,38900,1,0,0:0:0:0:
448,192,38900,1,0,0:0:0:0:
192,192,39083,1,0,0:0:0:70:soft-hitwhistle.wav
320,192,39083,1,0,0:0:0:0:
192,192,39266,1,0,0:0:0:0:
320,192,39266,1,0,0:0:0:0:
64,192,39449,1,0,0:0:0:70:soft-hitwhistle.wav
448,192,39449,1,0,0:0:0:70:Clap.wav
64,192,39631,1,0,0:0:0:0:
448,192,39631,1,0,0:0:0:0:
192,192,39814,128,0,39997:0:0:0:70:soft-hitwhistle.wav
320,192,39814,128,0,39997:0:0:0:0:
448,192,39997,1,0,0:0:0:70:Clap.wav
64,192,40180,1,0,0:0:0:70:soft-hitwhistle.wav
192,192,40180,1,0,0:0:0:70:Clap.wav
64,192,40363,1,0,0:0:0:70:soft-hitwhistle.wav
192,192,40363,1,0,0:0:0:0:
320,192,40546,128,0,40728:0:0:0:70:soft-hitwhistle.wav
448,192,40546,128,0,40728:0:0:0:0:
192,192,40728,1,0,0:0:0:70:Clap.wav
320,192,40911,1,0,0:0:0:70:soft-hitwhistle.wav
448,192,40911,1,0,0:0:0:70:Clap.wav
320,192,41094,1,0,0:0:0:70:soft-hitwhistle.wav
448,192,41094,1,0,0:0:0:0:
64,192,41277,128,0,41460:0:0:0:70:soft-hitwhistle.wav
192,192,41277,128,0,41460:0:0:0:70:soft-hitfinish11.wav
320,192,41643,1,0,0:0:0:70:soft-hitwhistle.wav
448,192,41643,1,0,0:0:0:70:Clap.wav
320,192,41825,1,0,0:0:0:0:
448,192,41825,1,0,0:0:0:0:
64,192,42008,1,0,0:0:0:70:soft-hitwhistle.wav
192,192,42008,1,0,0:0:0:0:
64,192,42191,1,0,0:0:0:0:
192,192,42191,1,0,0:0:0:0:
320,192,42374,1,0,0:0:0:70:soft-hitwhistle.wav
448,192,42374,1,0,0:0:0:70:Clap.wav
320,192,42557,1,0,0:0:0:0:
448,192,42557,1,0,0:0:0:0:
64,192,42740,128,0,42922:0:0:0:70:soft-hitwhistle.wav
192,192,42740,128,0,42922:0:0:0:0:
192,192,43105,1,0,0:0:0:70:soft-hitwhistle.wav
448,192,43105,1,0,0:0:0:70:Clap.wav
192,192,43288,1,0,0:0:0:0:
448,192,43288,1,0,0:0:0:0:
64,192,43471,1,0,0:0:0:70:soft-hitwhistle.wav
320,192,43471,1,0,0:0:0:0:
64,192,43654,1,0,0:0:0:0:
320,192,43654,1,0,0:0:0:0:
192,192,43837,1,0,0:0:0:70:soft-hitwhistle.wav
448,192,43837,1,0,0:0:0:70:Clap.wav
192,192,44019,1,0,0:0:0:0:
448,192,44019,1,0,0:0:0:0:
64,192,44202,128,0,44385:0:0:0:70:soft-hitwhistle.wav
320,192,44202,128,0,44385:0:0:0:0:
320,192,44568,1,0,0:0:0:70:soft-hitwhistle.wav
448,192,44568,1,0,0:0:0:70:Clap.wav
320,192,44751,1,0,0:0:0:0:
448,192,44751,1,0,0:0:0:0:
64,192,44934,1,0,0:0:0:70:soft-hitwhistle.wav
192,192,44934,1,0,0:0:0:0:
192,192,45116,1,0,0:0:0:0:
320,192,45116,1,0,0:0:0:0:
320,192,45299,1,0,0:0:0:70:soft-hitwhistle.wav
448,192,45299,1,0,0:0:0:70:Clap.wav
320,192,45482,1,0,0:0:0:0:
448,192,45482,1,0,0:0:0:0:
64,192,45665,128,0,45848:0:0:0:70:soft-hitwhistle.wav
192,192,45665,128,0,45848:0:0:0:0:
320,192,45848,1,0,0:0:0:70:soft-hitwhistle.wav
448,192,45848,1,0,0:0:0:70:Clap.wav
64,192,46031,1,0,0:0:0:70:soft-hitwhistle.wav
192,192,46031,1,0,0:0:0:70:Clap.wav
64,192,46213,1,0,0:0:0:70:soft-hitwhistle.wav
192,192,46213,1,0,0:0:0:0:
320,192,46396,128,0,46579:0:0:0:70:soft-hitwhistle.wav
448,192,46396,128,0,46579:0:0:0:70:Clap.wav
64,192,46762,1,0,0:0:0:70:soft-hitwhistle.wav
192,192,46762,1,0,0:0:0:70:Clap.wav
64,192,46945,1,0,0:0:0:70:soft-hitwhistle.wav
192,192,46945,1,0,0:0:0:0:
320,192,47128,128,0,47493:0:0:0:70:soft-hitwhistle.wav
448,192,47128,128,0,47493:0:0:0:70:soft-hitfinish11.wav
64,192,47493,1,0,0:0:0:70:soft-hitwhistle.wav
192,192,47493,1,0,0:0:0:70:Clap.wav
320,192,47676,1,0,0:0:0:70:soft-hitclap11.wav
448,192,47676,1,0,0:0:0:0:
64,192,47859,1,0,0:0:0:70:soft-hitwhistle.wav
192,192,47859,1,0,0:0:0:0:
64,192,48042,1,0,0:0:0:0:
192,192,48042,1,0,0:0:0:0:
320,192,48225,1,0,0:0:0:70:soft-hitwhistle.wav
448,192,48225,1,0,0:0:0:70:Clap.wav
320,192,48408,1,0,0:0:0:0:
448,192,48408,1,0,0:0:0:0:
64,192,48590,128,0,48956:0:0:0:70:soft-hitwhistle.wav
192,192,48590,128,0,48956:0:0:0:0:
320,192,48956,1,0,0:0:0:70:soft-hitwhistle.wav
448,192,48956,1,0,0:0:0:70:Clap.wav
64,192,49139,1,0,0:0:0:0:
192,192,49139,1,0,0:0:0:0:
320,192,49322,1,0,0:0:0:70:soft-hitwhistle.wav
448,192,49322,1,0,0:0:0:0:
320,192,49505,1,0,0:0:0:70:soft-hitwhistle.wav
448,192,49505,1,0,0:0:0:70:Clap.wav
64,192,49687,128,0,49870:0:0:0:70:soft-hitwhistle.wav
192,192,49687,128,0,49870:0:0:0:70:Clap.wav
320,192,49870,1,0,0:0:0:0:
320,192,50053,128,0,50419:0:0:0:70:soft-hitwhistle.wav
448,192,50053,128,0,50419:0:0:0:70:soft-hitfinish11.wav
64,192,50419,1,0,0:0:0:70:soft-hitwhistle.wav
192,192,50419,1,0,0:0:0:70:Clap.wav
320,192,50602,1,0,0:0:0:70:soft-hitclap11.wav
448,192,50602,1,0,0:0:0:0:
64,192,50784,1,0,0:0:0:70:soft-hitwhistle.wav
192,192,50784,1,0,0:0:0:0:
64,192,50967,1,0,0:0:0:0:
192,192,50967,1,0,0:0:0:0:
320,192,51150,1,0,0:0:0:70:soft-hitwhistle.wav
448,192,51150,1,0,0:0:0:70:Clap.wav
320,192,51333,1,0,0:0:0:0:
448,192,51333,1,0,0:0:0:0:
64,192,51516,128,0,51881:0:0:0:70:soft-hitwhistle.wav
192,192,51516,128,0,51881:0:0:0:0:
320,192,51881,1,0,0:0:0:70:soft-hitwhistle.wav
448,192,51881,1,0,0:0:0:70:Clap.wav
64,192,52064,1,0,0:0:0:70:soft-hitclap11.wav
192,192,52064,1,0,0:0:0:0:
320,192,52247,1,0,0:0:0:70:soft-hitwhistle.wav
448,192,52247,1,0,0:0:0:0:
320,192,52430,1,0,0:0:0:70:soft-hitwhistle.wav
448,192,52430,1,0,0:0:0:70:soft-hitclap11.wav
64,192,52613,128,0,52796:0:0:0:70:soft-hitfinish11.wav
192,192,52613,128,0,52796:0:0:0:70:soft-hitclap11.wav
