osu file format v14

[General]
AudioFilename: audio.mp3
AudioLeadIn: 0
PreviewTime: 34878
Countdown: 0
SampleSet: Soft
StackLeniency: 0.7
Mode: 2
LetterboxInBreaks: 0
WidescreenStoryboard: 1

[Editor]
DistanceSpacing: 1.2
BeatDivisor: 8
GridSize: 4
TimelineZoom: 1

[Metadata]
Title:Take a Hint feat. Victoria Justice & Elizabeth Gillies (Sped Up & Cut Ver.)
TitleUnicode:Take a Hint feat. Victoria Justice & Elizabeth Gillies (Sped Up & Cut Ver.)
Artist:Victorious Cast
ArtistUnicode:Victorious Cast
Creator:Daletto
Version:Rew's Salad
Source:VICTORiOUS
Tags:Nickelodeon Original Soundtrack 2.0 More Music from the Hit TV Show Pop Nightcore English rew0825
BeatmapID:2608202
BeatmapSetID:1254985

[Difficulty]
HPDrainRate:3
CircleSize:3
OverallDifficulty:7
ApproachRate:7
SliderMultiplier:1.41999990463257
SliderTickRate:1

[Events]
//Background and Video events
0,0,"bg.png",0,0
//Break Periods
//Storyboard Layer 0 (Background)
//Storyboard Layer 1 (Fail)
//Storyboard Layer 2 (Pass)
//Storyboard Layer 3 (Foreground)
//Storyboard Layer 4 (Overlay)
//Storyboard Sound Samples

[TimingPoints]
322,365.673051724453,4,2,1,30,1,0
322,-100,4,2,1,30,0,0
6172,-100,4,2,1,60,0,0
12023,-100,4,2,1,45,0,0
17874,-100,4,2,1,50,0,0
20799,-100,4,2,1,55,0,0
21531,-100,4,2,1,50,0,0
22262,-100,4,2,1,45,0,0
22628,-100,4,2,1,40,0,0
22993,-100,4,2,1,35,0,0
23359,-100,4,2,1,30,0,0
23725,-100,4,2,1,50,0,0
29575,-100,4,2,1,55,0,0
32501,-100,4,2,1,60,0,0
33963,-100,4,2,1,65,0,0
35060,-100,4,2,1,70,0,0
35335,-100,4,2,1,5,0,0
35426,-100,4,2,1,85,0,1
39814,-100,4,2,1,90,0,1
41277,-100,4,2,1,85,0,1
45665,-100,4,2,1,90,0,1
47128,-100,4,2,1,60,0,0
48590,-100,4,2,1,70,0,0
50053,-100,4,2,1,60,0,0
51516,-100,4,2,1,55,0,0
52613,-100,4,2,1,60,0,0

[Colours]
Combo1 : 47,73,113
Combo2 : 139,227,243
Combo3 : 17,147,174

[HitObjects]
192,288,322,6,0,P|120:248|192:176,1,212.999985694886,2|0,0:0|0:0,0:0:0:0:
264,176,1053,2,0,L|416:176,1,141.999990463257,2|2,0:0|0:0,0:0:0:0:
232,176,1784,6,0,P|168:152|232:64,1,212.999985694886,2|0,0:0|0:0,0:0:0:0:
312,64,2516,1,2,0:0:0:0:
232,64,2698,1,0,0:0:0:0:
152,64,2881,1,0,0:0:0:0:
320,64,3247,6,0,P|392:104|320:176,1,212.999985694886,2|0,0:0|0:0,0:0:0:0:
248,176,3978,2,0,L|104:176,1,141.999990463257,2|2,0:0|0:0,0:0:0:0:
280,176,4710,6,0,P|352:216|280:288,1,212.999985694886,2|0,0:0|0:0,0:0:0:0:
200,288,5441,1,2,0:0:0:0:
280,288,5624,1,0,0:0:0:0:
360,288,5807,1,2,0:0:0:0:
64,288,6172,6,0,L|56:144,1,141.999990463257,6|8,0:0|0:0,0:0:0:0:
216,144,6904,1,2,0:0:0:0:
223,214,7086,1,0,0:0:0:0:
144,216,7269,1,8,0:0:0:0:
136,286,7452,1,0,0:0:0:0:
224,288,7635,6,0,L|376:288,1,141.999990463257,2|8,0:0|0:0,0:0:0:0:
208,288,8366,1,2,0:0:0:0:
137,288,8549,1,0,0:0:0:0:
96,288,8732,1,8,0:0:0:0:
392,288,9098,6,0,L|400:144,1,141.999990463257,2|8,0:0|0:0,0:0:0:0:
240,144,9829,1,2,0:0:0:0:
247,73,10012,1,0,0:0:0:0:
328,72,10195,1,8,0:0:0:0:
320,142,10378,1,0,0:0:0:0:
232,144,10560,6,0,L|80:144,1,141.999990463257,2|8,0:0|0:0,0:0:0:0:
248,144,11292,1,2,0:0:0:0:
320,144,11475,1,8,0:0:0:0:
360,144,11657,1,8,0:0:0:0:
64,144,12023,6,0,L|56:288,1,141.999990463257,6|8,0:0|0:0,0:0:0:0:
216,288,12754,1,2,0:0:0:0:
152,288,12937,1,0,0:0:0:0:
72,288,13120,1,8,0:0:0:0:
240,291,13486,5,2,0:0:0:0:
320,291,13669,1,0,0:0:0:0:
360,224,13851,1,8,0:0:0:0:
320,163,14034,1,0,0:0:0:0:
240,163,14217,1,2,0:0:0:0:
80,163,14583,2,0,L|72:91,1,70.9999952316285,8|0,0:0|0:0,0:0:0:0:
248,88,14948,6,0,P|296:96|288:176,1,141.999990463257,2|8,0:0|0:0,0:0:0:0:
144,88,15680,1,2,0:0:0:0:
64,88,15863,1,0,0:0:0:0:
144,88,16045,1,8,0:0:0:0:
312,88,16411,5,2,0:0:0:0:
320,168,16594,1,0,0:0:0:0:
240,168,16777,1,8,0:0:0:0:
232,248,16960,1,0,0:0:0:0:
312,248,17142,1,2,0:0:0:0:
472,248,17508,1,8,0:0:0:0:
392,248,17691,1,8,0:0:0:0:
216,248,17874,6,0,P|168:216|216:168,1,141.999990463257,6|8,0:0|0:0,0:0:0:0:
296,168,18422,1,0,0:0:0:0:
384,168,18605,2,0,P|432:128|384:88,1,141.999990463257,2|8,0:0|0:0,0:0:0:0:
216,88,19336,5,2,0:0:0:0:
136,88,19519,1,0,0:0:0:0:
104,152,19702,1,8,0:0:0:0:
136,216,19885,1,0,0:0:0:0:
216,216,20068,1,2,0:0:0:0:
376,216,20434,1,8,0:0:0:0:
384,136,20616,1,8,0:0:0:0:
208,136,20799,6,0,L|56:136,1,141.999990463257,2|8,0:0|0:0,0:0:0:0:
224,136,21531,1,2,0:0:0:0:
72,136,21896,1,8,0:0:0:0:
240,136,22262,6,0,L|392:136,1,141.999990463257,2|8,0:0|0:0,0:0:0:0:
224,136,22993,1,2,0:0:0:0:
384,136,23359,1,0,0:0:0:0:
88,136,23725,6,0,L|80:280,1,141.999990463257,6|8,0:0|0:0,0:0:0:0:
240,280,24456,1,2,0:0:0:0:
320,280,24639,1,0,0:0:0:0:
360,280,24822,1,8,0:0:0:0:
192,280,25187,6,0,P|144:232|168:168,1,141.999990463257,2|8,0:0|0:0,0:0:0:0:
248,280,25736,1,0,0:0:0:0:
328,280,25919,2,0,L|472:280,1,141.999990463257,2|8,0:0|0:0,0:0:0:0:
176,280,26650,5,2,0:0:0:0:
168,200,26833,1,0,0:0:0:0:
248,200,27016,1,8,0:0:0:0:
400,200,27381,1,2,0:0:0:0:
408,120,27564,1,0,0:0:0:0:
328,120,27747,1,8,0:0:0:0:
160,120,28113,6,0,P|120:136|160:200,1,141.999990463257,2|8,0:0|0:0,0:0:0:0:
240,200,28661,1,0,0:0:0:0:
320,200,28844,2,0,L|168:200,1,141.999990463257,2|8,0:0|0:0,0:0:0:0:
480,200,29575,6,0,L|488:56,1,141.999990463257,6|8,0:0|0:0,0:0:0:0:
408,56,30124,1,0,0:0:0:0:
328,56,30307,2,0,L|472:56,1,141.999990463257,2|8,0:0|0:0,0:0:0:0:
296,56,31038,6,0,L|152:56,1,141.999990463257,2|8,0:0|0:0,0:0:0:0:
232,56,31587,1,0,0:0:0:0:
312,56,31769,2,0,L|456:56,1,141.999990463257,2|8,0:0|0:0,0:0:0:0:
152,56,32501,6,0,P|112:72|152:136,1,141.999990463257,2|8,0:0|0:0,0:0:0:0:
228,136,33049,1,0,0:0:0:0:
320,136,33232,2,0,P|392:160|388:216,1,141.999990463257,2|8,0:0|0:0,0:0:0:0:
312,216,33781,1,0,0:0:0:0:
136,216,33963,5,2,0:0:0:0:
64,216,34146,1,0,0:0:0:0:
24,152,34329,1,10,0:0:0:0:
64,88,34512,1,0,0:0:0:0:
136,88,34695,1,10,0:0:0:0:
416,88,35060,1,10,0:0:0:0:
136,88,35426,6,0,P|72:120|60:184,1,141.999990463257,4|8,0:0|0:0,0:0:0:0:
136,232,35975,1,2,0:0:0:0:
224,232,36157,2,0,L|80:232,1,141.999990463257,0|8,0:0|0:0,0:0:0:0:
160,232,36706,1,2,0:0:0:0:
336,232,36889,5,0,0:0:0:0:
184,232,37254,1,8,0:0:0:0:
176,152,37437,1,2,0:0:0:0:
264,152,37620,2,0,L|408:152,1,141.999990463257,0|8,0:0|0:0,0:0:0:0:
328,152,38169,1,2,0:0:0:0:
152,152,38351,6,0,P|104:176|152:224,1,141.999990463257,0|8,0:0|0:0,0:0:0:0:
232,224,38900,1,2,0:0:0:0:
320,224,39083,2,0,L|464:224,1,141.999990463257,0|8,0:0|0:0,0:0:0:0:
384,224,39631,1,2,0:0:0:0:
208,224,39814,5,4,0:0:0:0:
48,224,40180,1,8,0:0:0:0:
128,224,40363,1,10,0:0:0:0:
304,224,40546,1,4,0:0:0:0:
456,224,40911,1,8,0:0:0:0:
376,224,41094,1,10,0:0:0:0:
200,224,41277,6,0,P|152:192|200:144,1,141.999990463257,4|8,0:0|0:0,0:0:0:0:
280,144,41825,1,2,0:0:0:0:
364,144,42008,1,0,0:0:0:0:
440,144,42191,1,2,0:0:0:0:
364,144,42374,1,8,0:0:0:0:
72,144,42740,6,0,L|68:288,1,141.999990463257,0|8,0:0|0:0,0:0:0:0:
148,288,43288,1,2,0:0:0:0:
232,288,43471,2,0,P|312:268|348:224,1,141.999990463257,0|8,0:0|0:0,0:0:0:0:
272,160,44019,1,2,0:0:0:0:
96,164,44202,5,0,0:0:0:0:
240,164,44568,1,8,0:0:0:0:
244,92,44751,1,2,0:0:0:0:
164,92,44934,2,0,L|24:120,1,141.999990463257,0|8,0:0|0:0,0:0:0:0:
104,216,45482,1,2,0:0:0:0:
280,216,45665,5,4,0:0:0:0:
440,216,46031,1,8,0:0:0:0:
360,216,46213,1,10,0:0:0:0:
184,216,46396,1,4,0:0:0:0:
24,216,46762,1,8,0:0:0:0:
104,216,46945,1,10,0:0:0:0:
280,216,47128,6,0,L|432:216,1,141.999990463257,4|8,0:0|0:0,0:0:0:0:
264,216,47859,1,2,0:0:0:0:
184,216,48042,1,0,0:0:0:0:
192,136,48225,1,8,0:0:0:0:
272,136,48408,1,0,0:0:0:0:
448,136,48590,6,0,P|496:160|448:208,1,141.999990463257,2|8,0:0|0:0,0:0:0:0:
368,208,49139,1,8,0:0:0:0:
192,208,49322,1,2,0:0:0:0:
40,208,49687,1,8,0:0:0:0:
120,208,49870,1,8,0:0:0:0:
296,208,50053,6,0,P|344:184|296:136,1,141.999990463257,6|8,0:0|0:0,0:0:0:0:
144,136,50784,1,2,0:0:0:0:
216,136,50967,1,0,0:0:0:0:
296,136,51150,1,8,0:0:0:0:
352,136,51333,1,0,0:0:0:0:
176,136,51516,6,0,P|128:160|176:208,1,141.999990463257,2|8,0:0|0:0,0:0:0:0:
320,216,52247,1,2,0:0:0:0:
328,288,52430,1,2,0:0:0:0:
152,288,52613,5,6,0:0:0:0:
