osu file format v14

[General]
AudioFilename: audio.mp3
AudioLeadIn: 0
PreviewTime: 34878
Countdown: 0
SampleSet: Soft
StackLeniency: 0.7
Mode: 2
LetterboxInBreaks: 0
WidescreenStoryboard: 1

[Editor]
DistanceSpacing: 2.5
BeatDivisor: 4
GridSize: 8
TimelineZoom: 1.5

[Metadata]
Title:Take a Hint feat. Victoria Justice & Elizabeth Gillies (Sped Up & Cut Ver.)
TitleUnicode:Take a Hint feat. Victoria Justice & Elizabeth Gillies (Sped Up & Cut Ver.)
Artist:Victorious Cast
ArtistUnicode:Victorious Cast
Creator:Daletto
Version:Rain
Source:VICTORiOUS
Tags:Nickelodeon Original Soundtrack 2.0 More Music from the Hit TV Show Pop Nightcore English rew0825
BeatmapID:2608201
BeatmapSetID:1254985

[Difficulty]
HPDrainRate:5
CircleSize:3.8
OverallDifficulty:9
ApproachRate:9
SliderMultiplier:2
SliderTickRate:2

[Events]
//Background and Video events
0,0,"bg.png",0,0
//Break Periods
//Storyboard Layer 0 (Background)
//Storyboard Layer 1 (Fail)
//Storyboard Layer 2 (Pass)
//Storyboard Layer 3 (Foreground)
//Storyboard Layer 4 (Overlay)
//Storyboard Sound Samples

[TimingPoints]
322,365.673051724453,4,2,1,30,1,0
322,-111.111111111111,4,2,1,30,0,0
6172,-95.2380952380952,4,2,1,60,0,0
12023,-100,4,2,1,45,0,0
17874,-100,4,2,1,50,0,0
20799,-100,4,2,1,55,0,0
21531,-100,4,2,1,50,0,0
22262,-100,4,2,1,45,0,0
22628,-100,4,2,1,40,0,0
22993,-100,4,2,1,35,0,0
23359,-100,4,2,1,30,0,0
23725,-100,4,2,1,50,0,0
29575,-100,4,2,1,55,0,0
32501,-100,4,2,1,60,0,0
33963,-100,4,2,1,65,0,0
35060,-100,4,2,1,70,0,0
35335,-100,4,2,1,5,0,0
35426,-83.3333333333333,4,2,1,85,0,1
39814,-83.3333333333333,4,2,1,90,0,1
41277,-83.3333333333333,4,2,1,85,0,1
45665,-83.3333333333333,4,2,1,90,0,1
47128,-90.9090909090909,4,2,1,60,0,0
48590,-90.9090909090909,4,2,1,70,0,0
50053,-90.9090909090909,4,2,1,60,0,0
51516,-90.9090909090909,4,2,1,55,0,0
52613,-90.9090909090909,4,2,1,60,0,0

[Colours]
Combo1 : 47,73,113
Combo2 : 139,227,243
Combo3 : 17,147,174

[HitObjects]
320,256,322,6,0,L|328:72,1,179.999994506836,2|0,0:0|0:0,0:0:0:0:
240,112,870,1,0,0:0:0:0:
152,112,1053,2,0,L|160:16,1,89.9999972534181,2|0,0:0|0:0,0:0:0:0:
248,64,1419,2,0,L|152:64,1,89.9999972534181,2|0,0:0|0:0,0:0:0:0:
352,224,1784,6,0,P|400:224|400:120,1,179.999994506836,2|0,0:0|0:0,0:0:0:0:
312,112,2333,1,0,0:0:0:0:
224,112,2516,2,0,L|232:16,1,89.9999972534181,2|0,0:0|0:0,0:0:0:0:
320,88,2881,1,0,0:0:0:0:
64,216,3247,6,0,L|248:216,1,179.999994506836,2|0,0:0|0:0,0:0:0:0:
160,176,3795,1,0,0:0:0:0:
72,176,3978,2,0,L|80:80,1,89.9999972534181,2|0,0:0|0:0,0:0:0:0:
168,112,4344,2,0,L|160:16,1,89.9999972534181,2|0,0:0|0:0,0:0:0:0:
344,232,4710,6,0,B|440:240|440:240|448:152,1,179.999994506836,2|0,0:0|0:0,0:0:0:0:
376,112,5258,1,0,0:0:0:0:
304,104,5441,2,0,L|400:104,1,89.9999972534181,2|0,0:0|0:0,0:0:0:0:
472,96,5807,1,2,0:0:0:0:
48,248,6172,6,0,P|48:192|152:88,1,209.999993591309,6|8,0:0|0:0,0:0:0:0:
248,80,6721,1,0,0:0:0:0:
424,88,6904,2,0,L|432:192,1,104.999996795654,2|0,0:0|0:0,0:0:0:0:
256,96,7269,2,0,L|152:96,1,104.999996795654,8|0,0:0|0:0,0:0:0:0:
400,240,7635,6,0,P|440:200|352:112,1,209.999993591309,2|8,0:0|0:0,0:0:0:0:
256,112,8183,1,0,0:0:0:0:
432,120,8366,2,0,L|440:16,1,104.999996795654,2|0,0:0|0:0,0:0:0:0:
264,96,8732,2,0,L|376:96,1,104.999996795654,8|0,0:0|0:0,0:0:0:0:
120,208,9098,6,0,P|64:208|128:144,1,209.999993591309,2|8,0:0|0:0,0:0:0:0:
224,128,9646,1,0,0:0:0:0:
400,144,9829,2,0,L|408:40,1,104.999996795654,2|0,0:0|0:0,0:0:0:0:
232,136,10195,2,0,L|224:32,1,104.999996795654,8|0,0:0|0:0,0:0:0:0:
472,200,10560,6,0,P|472:144|368:40,1,209.999993591309,2|8,0:0|0:0,0:0:0:0:
272,48,11109,1,0,0:0:0:0:
96,176,11292,1,2,0:0:0:0:
200,176,11475,2,0,L|208:120,1,52.4999983978272,8|8,0:0|0:0,0:0:0:0:
128,128,11657,2,0,L|24:128,1,104.999996795654,8|0,0:0|0:0,0:0:0:0:
352,224,12023,6,0,P|408:224|408:104,1,200,6|8,0:0|0:0,0:0:0:0:
320,104,12572,1,0,0:0:0:0:
152,112,12754,2,0,L|256:112,1,100,2|0,0:0|0:0,0:0:0:0:
424,112,13120,2,0,L|432:8,1,100,8|0,0:0|0:0,0:0:0:0:
256,184,13486,5,2,0:0:0:0:
192,184,13669,1,0,0:0:0:0:
256,184,13851,1,8,0:0:0:0:
392,184,14034,1,0,0:0:0:0:
232,168,14217,2,0,L|224:64,1,100,2|8,0:0|0:0,0:0:0:0:
296,112,14491,1,8,0:0:0:0:
368,120,14583,2,0,L|376:232,1,100,8|0,0:0|0:0,0:0:0:0:
112,216,14948,6,0,P|56:216|120:152,1,200,2|8,0:0|0:0,0:0:0:0:
208,136,15497,1,0,0:0:0:0:
40,112,15680,2,0,L|48:216,1,100,2|0,0:0|0:0,0:0:0:0:
216,112,16045,2,0,L|104:112,1,100,8|0,0:0|0:0,0:0:0:0:
288,192,16411,6,0,P|288:136|192:40,1,200,2|8,0:0|0:0,0:0:0:0:
288,56,16960,1,0,0:0:0:0:
120,176,17142,2,0,L|128:72,1,100,2|8,0:0|0:0,0:0:0:0:
280,128,17508,1,8,0:0:0:0:
128,128,17691,1,8,0:0:0:0:
392,208,17874,6,0,L|400:104,1,100,6|0,0:0|0:0,0:0:0:0:
232,160,18239,2,0,L|224:56,1,100,8|0,0:0|0:0,0:0:0:0:
392,136,18605,2,0,L|192:136,1,200,2|8,0:0|0:0,0:0:0:0:
360,160,19154,1,0,0:0:0:0:
96,168,19336,6,0,L|208:168,1,100,2|0,0:0|0:0,0:0:0:0:
360,168,19702,2,0,L|368:64,1,100,8|0,0:0|0:0,0:0:0:0:
200,168,20068,1,2,0:0:0:0:
360,168,20251,1,8,0:0:0:0:
200,168,20434,2,0,L|120:88,1,100,8|8,0:0|0:0,0:0:0:0:
416,184,20799,6,0,L|424:80,1,100,2|0,0:0|0:0,0:0:0:0:
264,144,21165,2,0,L|256:40,1,100,8|0,0:0|0:0,0:0:0:0:
416,152,21531,2,0,L|304:152,1,100,2|0,0:0|0:0,0:0:0:0:
152,144,21896,2,0,L|48:144,1,100,8|0,0:0|0:0,0:0:0:0:
216,160,22262,6,0,B|288:88|288:88|216:16,1,200,2|8,0:0|0:0,0:0:0:0:
136,96,22810,1,0,0:0:0:0:
48,104,22993,2,0,L|40:304,1,200,2|0,0:0|0:0,0:0:0:0:
328,224,23725,6,0,L|336:120,1,100,6|0,0:0|0:0,0:0:0:0:
232,192,24090,2,0,L|224:88,1,100,8|0,0:0|0:0,0:0:0:0:
392,120,24456,1,2,0:0:0:0:
288,120,24639,1,0,0:0:0:0:
392,120,24822,2,0,L|400:232,1,100,8|0,0:0|0:0,0:0:0:0:
152,192,25187,6,0,L|256:192,1,100,2|0,0:0|0:0,0:0:0:0:
160,176,25553,2,0,L|152:72,1,100,8|0,0:0|0:0,0:0:0:0:
320,136,25919,1,2,0:0:0:0:
216,136,26102,1,8,0:0:0:0:
208,128,26193,1,8,0:0:0:0:
216,136,26284,1,8,0:0:0:0:
320,136,26467,1,0,0:0:0:0:
48,240,26650,6,0,L|40:136,1,100,2|0,0:0|0:0,0:0:0:0:
144,176,27016,2,0,L|152:72,1,100,8|0,0:0|0:0,0:0:0:0:
320,216,27381,2,0,L|392:144,1,100,2|0,0:0|0:0,0:0:0:0:
288,144,27747,2,0,L|216:72,1,100,8|0,0:0|0:0,0:0:0:0:
464,168,28113,6,0,L|360:168,1,100,2|0,0:0|0:0,0:0:0:0:
264,168,28478,2,0,L|376:168,1,100,8|0,0:0|0:0,0:0:0:0:
192,208,28844,2,0,L|184:104,1,100,2|8,0:0|0:0,0:0:0:0:
360,136,29210,1,8,0:0:0:0:
184,144,29393,1,8,0:0:0:0:
432,200,29575,6,0,L|440:96,1,100,6|0,0:0|0:0,0:0:0:0:
336,136,29941,1,8,0:0:0:0:
504,136,30124,1,0,0:0:0:0:
336,176,30307,2,0,P|264:104|320:48,1,200,2|8,0:0|0:0,0:0:0:0:
424,48,30855,1,0,0:0:0:0:
160,208,31038,6,0,L|152:104,1,100,2|0,0:0|0:0,0:0:0:0:
320,168,31404,2,0,L|400:88,1,100,8|0,0:0|0:0,0:0:0:0:
224,264,31769,2,0,L|216:64,1,200,2|8,0:0|0:0,0:0:0:0:
384,96,32318,1,0,0:0:0:0:
135,192,32501,6,0,P|176:152|312:152,1,200,2|8,0:0|0:0,0:0:0:0:
216,112,33049,1,0,0:0:0:0:
464,192,33232,2,0,P|423:152|287:152,1,200,2|8,0:0|0:0,0:0:0:0:
384,112,33780,1,0,0:0:0:0:
136,176,33963,6,0,L|128:72,1,100,2|0,0:0|0:0,0:0:0:0:
400,152,34329,2,0,L|296:152,1,100,10|0,0:0|0:0,0:0:0:0:
56,144,34695,1,10,0:0:0:0:
480,176,35060,2,0,P|480:120|416:56,1,150,10|0,0:0|0:0,0:0:0:0:
160,216,35426,6,0,P|96:216|96:72,1,239.999992675781,4|8,0:0|0:0,0:0:0:0:
232,72,35975,1,2,0:0:0:0:
88,64,36157,2,0,L|80:184,1,119.999996337891,0|2,0:0|0:0,0:0:0:0:
232,72,36523,2,0,L|104:72,1,119.999996337891,8|2,0:0|0:0,0:0:0:0:
360,208,36889,6,0,L|480:208,1,119.999996337891,0|2,0:0|0:0,0:0:0:0:
328,152,37254,2,0,L|320:32,1,119.999996337891,8|2,0:0|0:0,0:0:0:0:
480,88,37620,2,0,L|352:88,1,119.999996337891,0|2,0:0|0:0,0:0:0:0:
208,80,37986,2,0,L|216:200,1,119.999996337891,8|2,0:0|0:0,0:0:0:0:
464,192,38351,6,0,L|224:192,1,239.999992675781,0|8,0:0|0:0,0:0:0:0:
360,152,38900,1,2,0:0:0:0:
216,144,39083,2,0,L|208:24,1,119.999996337891,0|2,0:0|0:0,0:0:0:0:
464,88,39449,2,0,L|472:208,1,119.999996337891,8|2,0:0|0:0,0:0:0:0:
176,192,39814,6,0,L|56:192,1,119.999996337891,4|2,0:0|0:0,0:0:0:0:
216,144,40180,1,8,0:0:0:0:
56,152,40363,1,10,0:0:0:0:
416,200,40546,2,0,L|424:80,1,119.999996337891,4|2,0:0|0:0,0:0:0:0:
264,88,40912,1,8,0:0:0:0:
424,96,41095,1,10,0:0:0:0:
144,184,41277,6,0,P|80:184|160:104,1,239.999992675781,4|8,0:0|0:0,0:0:0:0:
280,80,41825,1,2,0:0:0:0:
424,80,42008,2,0,L|432:208,1,119.999996337891,0|2,0:0|0:0,0:0:0:0:
288,152,42374,2,0,L|416:152,1,119.999996337891,8|2,0:0|0:0,0:0:0:0:
120,256,42740,6,0,P|120:192|240:72,1,239.999992675781,0|8,0:0|0:0,0:0:0:0:
104,80,43288,1,2,0:0:0:0:
240,120,43471,2,0,L|248:0,1,119.999996337891,0|2,0:0|0:0,0:0:0:0:
96,184,43837,2,0,L|88:64,1,119.999996337891,8|2,0:0|0:0,0:0:0:0:
336,200,44202,6,0,P|400:200|400:56,1,239.999992675781,0|8,0:0|0:0,0:0:0:0:
264,56,44751,1,2,0:0:0:0:
408,56,44934,2,0,L|280:56,1,119.999996337891,0|2,0:0|0:0,0:0:0:0:
40,176,45299,2,0,L|160:176,1,119.999996337891,8|2,0:0|0:0,0:0:0:0:
456,232,45665,6,0,L|464:112,1,119.999996337891,4|2,0:0|0:0,0:0:0:0:
312,120,46031,1,8,0:0:0:0:
464,120,46213,1,10,0:0:0:0:
168,192,46396,2,0,L|48:192,1,119.999996337891,4|2,0:0|0:0,0:0:0:0:
200,144,46762,1,8,0:0:0:0:
48,144,46945,1,10,0:0:0:0:
360,272,47128,6,0,P|416:272|416:144,1,220.000006713867,4|8,0:0|0:0,0:0:0:0:
312,136,47676,1,0,0:0:0:0:
128,144,47859,2,0,L|136:32,1,110.000003356934,2|0,0:0|0:0,0:0:0:0:
320,96,48225,2,0,L|432:96,1,110.000003356934,8|0,0:0|0:0,0:0:0:0:
120,232,48590,6,0,L|112:120,1,110.000003356934,2|0,0:0|0:0,0:0:0:0:
280,120,48956,1,8,0:0:0:0:
112,120,49138,1,8,0:0:0:0:
360,192,49322,2,0,L|472:192,1,110.000003356934,2|0,0:0|0:0,0:0:0:0:
304,144,49687,1,8,0:0:0:0:
472,144,49870,1,8,0:0:0:0:
176,264,50053,6,0,P|120:264|192:192,1,220.000006713867,6|8,0:0|0:0,0:0:0:0:
280,176,50602,1,0,0:0:0:0:
104,160,50784,2,0,L|96:48,1,110.000003356934,2|0,0:0|0:0,0:0:0:0:
280,112,51150,2,0,L|160:112,1,110.000003356934,8|0,0:0|0:0,0:0:0:0:
456,256,51516,6,0,L|464:32,1,220.000006713867,2|8,0:0|0:0,0:0:0:0:
360,48,52064,1,0,0:0:0:0:
176,104,52247,2,0,L|304:104,1,110.000003356934,2|2,0:0|0:0,0:0:0:0:
40,192,52613,1,6,0:0:0:0:
