osu file format v14

[General]
AudioFilename: audio.mp3
AudioLeadIn: 0
PreviewTime: 34878
Countdown: 0
SampleSet: Soft
StackLeniency: 0.7
Mode: 2
LetterboxInBreaks: 0
WidescreenStoryboard: 1

[Editor]
DistanceSpacing: 2.5
BeatDivisor: 4
GridSize: 8
TimelineZoom: 1.7

[Metadata]
Title:Take a Hint feat. Victoria Justice & Elizabeth Gillies (Sped Up & Cut Ver.)
TitleUnicode:Take a Hint feat. Victoria Justice & Elizabeth Gillies (Sped Up & Cut Ver.)
Artist:Victorious Cast
ArtistUnicode:Victorious Cast
Creator:Daletto
Version:Platter
Source:VICTORiOUS
Tags:Nickelodeon Original Soundtrack 2.0 More Music from the Hit TV Show Pop Nightcore English rew0825
BeatmapID:2608200
BeatmapSetID:1254985

[Difficulty]
HPDrainRate:4
CircleSize:3.4
OverallDifficulty:8
ApproachRate:8
SliderMultiplier:1.8
SliderTickRate:2

[Events]
//Background and Video events
0,0,"bg.png",0,0
//Break Periods
//Storyboard Layer 0 (Background)
//Storyboard Layer 1 (Fail)
//Storyboard Layer 2 (Pass)
//Storyboard Layer 3 (Foreground)
//Storyboard Layer 4 (Overlay)
//Storyboard Sound Samples

[TimingPoints]
322,365.673051724453,4,2,1,30,1,0
322,-111.111111111111,4,2,1,30,0,0
6172,-95.2380952380952,4,2,1,60,0,0
12023,-100,4,2,1,45,0,0
17874,-100,4,2,1,50,0,0
20799,-100,4,2,1,55,0,0
21531,-100,4,2,1,50,0,0
22262,-100,4,2,1,45,0,0
22628,-100,4,2,1,40,0,0
22993,-100,4,2,1,35,0,0
23359,-100,4,2,1,30,0,0
23725,-100,4,2,1,50,0,0
29575,-100,4,2,1,55,0,0
32501,-100,4,2,1,60,0,0
33963,-100,4,2,1,65,0,0
35060,-100,4,2,1,70,0,0
35335,-100,4,2,1,5,0,0
35426,-83.3333333333333,4,2,1,85,0,1
39814,-83.3333333333333,4,2,1,90,0,1
41277,-83.3333333333333,4,2,1,85,0,1
45665,-83.3333333333333,4,2,1,90,0,1
47128,-90.9090909090909,4,2,1,60,0,0
48590,-90.9090909090909,4,2,1,70,0,0
50053,-90.9090909090909,4,2,1,60,0,0
51516,-90.9090909090909,4,2,1,55,0,0
52613,-90.9090909090909,4,2,1,60,0,0

[Colours]
Combo1 : 47,73,113
Combo2 : 139,227,243
Combo3 : 17,147,174

[HitObjects]
112,256,322,6,0,P|72:256|72:160,1,161.999995056152,2|0,0:0|0:0,0:0:0:0:
144,144,870,1,0,0:0:0:0:
216,160,1053,2,0,L|224:80,1,80.9999975280763,2|0,0:0|0:0,0:0:0:0:
152,168,1419,2,0,L|72:88,1,80.9999975280763,2|0,0:0|0:0,0:0:0:0:
280,240,1784,6,0,P|360:240|360:168,1,161.999995056153,2|0,0:0|0:0,0:0:0:0:
288,144,2333,1,0,0:0:0:0:
208,144,2516,2,0,L|120:144,2,80.9999975280763,2|0|0,0:0|0:0|0:0,0:0:0:0:
472,240,3247,6,0,L|464:72,1,161.999995056153,2|0,0:0|0:0,0:0:0:0:
384,104,3795,1,0,0:0:0:0:
304,104,3978,2,0,L|312:184,1,80.9999975280763,2|0,0:0|0:0,0:0:0:0:
392,152,4344,2,0,L|456:88,1,80.9999975280763,2|0,0:0|0:0,0:0:0:0:
264,224,4710,6,0,P|224:224|272:176,1,161.999995056153,2|0,0:0|0:0,0:0:0:0:
352,168,5258,1,0,0:0:0:0:
432,168,5441,2,0,L|440:88,1,80.9999975280763,2|0,0:0|0:0,0:0:0:0:
360,104,5807,1,0,0:0:0:0:
48,240,6172,6,0,P|48:192|144:96,1,188.999994232178,6|8,0:0|0:0,0:0:0:0:
232,96,6721,1,0,0:0:0:0:
392,160,6904,2,0,L|400:64,1,94.499997116089,2|0,0:0|0:0,0:0:0:0:
240,112,7269,2,0,L|136:112,1,94.499997116089,8|0,0:0|0:0,0:0:0:0:
392,264,7635,6,0,P|440:264|440:152,1,188.999994232178,2|8,0:0|0:0,0:0:0:0:
352,144,8183,1,0,0:0:0:0:
200,184,8366,2,0,L|192:88,1,94.499997116089,2|0,0:0|0:0,0:0:0:0:
40,112,8732,2,0,L|144:112,1,94.499997116089,8|0,0:0|0:0,0:0:0:0:
424,224,9098,6,0,L|432:32,1,188.999994232178,2|8,0:0|0:0,0:0:0:0:
344,96,9646,1,0,0:0:0:0:
184,120,9829,2,0,L|256:48,1,94.499997116089,2|0,0:0|0:0,0:0:0:0:
408,112,10195,2,0,L|336:40,1,94.499997116089,8|0,0:0|0:0,0:0:0:0:
96,224,10560,6,0,P|56:184|136:104,1,188.999994232178,2|8,0:0|0:0,0:0:0:0:
216,104,11109,1,0,0:0:0:0:
56,152,11292,2,0,L|64:56,1,94.499997116089,2|8,0:0|0:0,0:0:0:0:
192,96,11657,2,0,L|88:96,1,94.499997116089,8|0,0:0|0:0,0:0:0:0:
368,216,12023,6,0,P|432:152|376:96,1,180,6|8,0:0|0:0,0:0:0:0:
240,120,12754,1,2,0:0:0:0:
184,120,12937,1,0,0:0:0:0:
240,120,13120,1,8,0:0:0:0:
360,120,13303,1,0,0:0:0:0:
184,216,13486,6,0,P|120:152|176:96,1,180,2|8,0:0|0:0,0:0:0:0:
312,176,14217,2,0,L|320:80,1,90,2|8,0:0|0:0,0:0:0:0:
272,96,14491,1,8,0:0:0:0:
224,96,14583,2,0,L|120:96,1,90,8|0,0:0|0:0,0:0:0:0:
384,232,14948,6,0,P|432:232|432:128,1,180,2|8,0:0|0:0,0:0:0:0:
288,184,15680,2,0,L|280:88,1,90,2|0,0:0|0:0,0:0:0:0:
376,128,16045,2,0,L|384:224,1,90,8|0,0:0|0:0,0:0:0:0:
200,232,16411,6,0,P|152:232|208:176,1,180,2|8,0:0|0:0,0:0:0:0:
352,136,17142,2,0,L|256:136,1,90,2|8,0:0|0:0,0:0:0:0:
104,144,17508,2,0,L|208:144,1,90,8|8,0:0|0:0,0:0:0:0:
440,248,17874,6,0,P|440:200|352:112,1,180,6|8,0:0|0:0,0:0:0:0:
272,112,18422,1,0,0:0:0:0:
104,224,18605,2,0,P|104:176|192:88,1,180,2|8,0:0|0:0,0:0:0:0:
272,88,19153,1,0,0:0:0:0:
440,184,19336,6,0,L|448:88,1,90,2|0,0:0|0:0,0:0:0:0:
352,136,19702,2,0,L|360:40,1,90,8|0,0:0|0:0,0:0:0:0:
456,200,20068,2,0,L|352:200,1,90,2|8,0:0|0:0,0:0:0:0:
216,144,20434,2,0,L|328:144,1,90,8|8,0:0|0:0,0:0:0:0:
56,272,20799,6,0,L|48:88,1,180,2|8,0:0|0:0,0:0:0:0:
144,104,21348,1,0,0:0:0:0:
328,264,21531,2,0,L|336:80,1,180,2|8,0:0|0:0,0:0:0:0:
240,96,22080,1,0,0:0:0:0:
424,176,22262,6,0,P|456:144|376:64,1,180,2|8,0:0|0:0,0:0:0:0:
240,184,22993,2,0,L|368:56,1,180,2|0,0:0|0:0,0:0:0:0:
88,208,23725,6,0,P|24:144|80:88,1,180,6|8,0:0|0:0,0:0:0:0:
216,112,24456,2,0,L|224:16,1,90,2|0,0:0|0:0,0:0:0:0:
128,128,24822,2,0,L|120:224,1,90,8|0,0:0|0:0,0:0:0:0:
312,240,25187,6,0,P|360:240|360:136,1,180,2|8,0:0|0:0,0:0:0:0:
216,176,25919,2,0,L|120:176,1,90,2|8,0:0|0:0,0:0:0:0:
192,120,26193,1,8,0:0:0:0:
256,104,26284,2,0,L|144:104,1,90,8|0,0:0|0:0,0:0:0:0:
416,224,26650,6,0,P|416:176|328:88,1,180,2|8,0:0|0:0,0:0:0:0:
184,128,27381,2,0,L|280:128,1,90,2|0,0:0|0:0,0:0:0:0:
432,120,27747,2,0,L|440:24,1,90,8|0,0:0|0:0,0:0:0:0:
248,208,28113,6,0,P|200:208|256:152,1,180,2|8,0:0|0:0,0:0:0:0:
392,136,28844,2,0,L|400:232,1,90,2|8,0:0|0:0,0:0:0:0:
248,152,29210,2,0,L|352:152,1,90,8|8,0:0|0:0,0:0:0:0:
88,144,29575,5,6,0:0:0:0:
176,144,29758,2,0,L|184:48,1,90,0|8,0:0|0:0,0:0:0:0:
32,96,30124,1,0,0:0:0:0:
184,200,30307,2,0,P|232:200|232:96,1,180,2|8,0:0|0:0,0:0:0:0:
144,88,30855,1,0,0:0:0:0:
312,192,31038,6,0,L|408:192,1,90,2|0,0:0|0:0,0:0:0:0:
320,176,31404,2,0,L|312:80,1,90,8|0,0:0|0:0,0:0:0:0:
480,144,31769,2,0,L|488:328,1,180,2|8,0:0|0:0,0:0:0:0:
408,104,32318,1,0,0:0:0:0:
136,208,32501,6,0,P|136:160|224:72,1,180,2|8,0:0|0:0,0:0:0:0:
312,96,33049,1,0,0:0:0:0:
480,208,33232,2,0,L|472:24,1,180,2|8,0:0|0:0,0:0:0:0:
384,96,33780,1,0,0:0:0:0:
136,248,33963,6,0,L|144:152,1,90,2|0,0:0|0:0,0:0:0:0:
304,168,34329,2,0,L|408:168,1,90,10|0,0:0|0:0,0:0:0:0:
232,88,34695,1,10,0:0:0:0:
472,88,35060,1,10,0:0:0:0:
40,248,35426,6,0,L|32:136,1,107.999996704102,4|2,0:0|0:0,0:0:0:0:
192,176,35792,2,0,L|112:96,1,107.999996704102,8|2,0:0|0:0,0:0:0:0:
272,232,36157,2,0,P|328:232|256:160,1,215.999993408203,0|8,0:0|0:0,0:0:0:0:
176,128,36706,1,2,0:0:0:0:
424,200,36889,6,0,P|504:120|440:56,1,215.999993408203,0|8,0:0|0:0,0:0:0:0:
344,64,37437,1,2,0:0:0:0:
184,152,37620,2,0,L|176:40,1,107.999996704102,0|2,0:0|0:0,0:0:0:0:
336,104,37986,2,0,L|416:24,1,107.999996704102,8|2,0:0|0:0,0:0:0:0:
160,224,38351,6,0,L|152:8,1,215.999993408203,0|8,0:0|0:0,0:0:0:0:
256,88,38899,1,2,0:0:0:0:
416,120,39083,2,0,L|328:32,1,107.999996704102,0|2,0:0|0:0,0:0:0:0:
184,136,39449,2,0,L|176:248,1,107.999996704102,8|2,0:0|0:0,0:0:0:0:
424,240,39814,6,0,B|464:200|464:200|424:160,1,107.999996704102,4|2,0:0|0:0,0:0:0:0:
280,136,40180,2,0,L|360:56,1,107.999996704102,8|10,0:0|0:0,0:0:0:0:
104,216,40546,2,0,B|64:173|64:173|104:133,1,107.999996704102,4|2,0:0|0:0,0:0:0:0:
248,120,40911,2,0,L|152:24,1,107.999996704102,8|10,0:0|0:0,0:0:0:0:
424,256,41277,6,0,P|464:216|368:120,1,215.999993408203,4|8,0:0|0:0,0:0:0:0:
280,112,41825,1,2,0:0:0:0:
120,160,42008,2,0,L|112:48,1,107.999996704102,0|2,0:0|0:0,0:0:0:0:
272,112,42374,2,0,L|192:32,1,107.999996704102,8|2,0:0|0:0,0:0:0:0:
448,240,42740,6,0,L|456:24,1,215.999993408203,2|8,0:0|0:0,0:0:0:0:
352,88,43288,1,2,0:0:0:0:
192,192,43471,2,0,L|184:80,1,107.999996704102,0|2,0:0|0:0,0:0:0:0:
344,144,43837,2,0,L|424:64,1,107.999996704102,8|2,0:0|0:0,0:0:0:0:
168,240,44202,6,0,P|112:240|184:168,1,215.999993408203,0|8,0:0|0:0,0:0:0:0:
264,136,44751,1,2,0:0:0:0:
104,160,44934,2,0,L|96:48,1,107.999996704102,0|2,0:0|0:0,0:0:0:0:
256,88,45299,2,0,L|176:8,1,107.999996704102,8|2,0:0|0:0,0:0:0:0:
432,176,45665,6,0,L|440:64,1,107.999996704102,4|2,0:0|0:0,0:0:0:0:
288,96,46031,2,0,L|368:16,1,107.999996704102,8|10,0:0|0:0,0:0:0:0:
112,200,46396,2,0,L|104:88,1,107.999996704102,4|2,0:0|0:0,0:0:0:0:
256,104,46762,2,0,L|168:16,1,107.999996704102,8|10,0:0|0:0,0:0:0:0:
432,232,47128,6,0,L|424:32,1,198.000006042481,4|8,0:0|0:0,0:0:0:0:
320,128,47676,1,0,0:0:0:0:
216,136,47859,2,0,L|320:136,1,99.0000030212403,2|0,0:0|0:0,0:0:0:0:
416,144,48225,2,0,L|424:40,1,99.0000030212403,8|0,0:0|0:0,0:0:0:0:
160,144,48590,6,0,L|152:40,1,99.0000030212403,2|0,0:0|0:0,0:0:0:0:
304,64,48956,2,0,L|232:136,1,99.0000030212403,8|8,0:0|0:0,0:0:0:0:
384,152,49322,2,0,L|392:48,1,99.0000030212403,2|0,0:0|0:0,0:0:0:0:
144,80,49688,2,0,L|32:80,1,99.0000030212403,8|8,0:0|0:0,0:0:0:0:
304,224,50053,6,0,P|344:184|264:104,1,198.000006042481,6|8,0:0|0:0,0:0:0:0:
160,96,50602,1,0,0:0:0:0:
56,96,50784,2,0,L|48:200,1,99.0000030212403,2|0,0:0|0:0,0:0:0:0:
152,208,51150,2,0,L|48:208,1,99.0000030212403,8|0,0:0|0:0,0:0:0:0:
232,224,51516,6,0,B|336:216|336:216|328:120,1,198.000006042481,2|8,0:0|0:0,0:0:0:0:
224,96,52064,1,0,0:0:0:0:
384,48,52247,2,0,L|480:144,1,99.0000030212403,2|2,0:0|0:0,0:0:0:0:
152,176,52613,5,6,0:0:0:0:
