osu file format v14

[General]
AudioFilename: audio.mp3
AudioLeadIn: 0
PreviewTime: 34878
Countdown: 0
SampleSet: Soft
StackLeniency: 0.7
Mode: 2
LetterboxInBreaks: 0
WidescreenStoryboard: 1

[Editor]
DistanceSpacing: 2.5
BeatDivisor: 4
GridSize: 8
TimelineZoom: 1

[Metadata]
Title:Take a Hint feat. Victoria Justice & Elizabeth Gillies (Sped Up & Cut Ver.)
TitleUnicode:Take a Hint feat. Victoria Justice & Elizabeth Gillies (Sped Up & Cut Ver.)
Artist:Victorious Cast
ArtistUnicode:Victorious Cast
Creator:Daletto
Version:Hey!
Source:VICTORiOUS
Tags:Nickelodeon Original Soundtrack 2.0 More Music from the Hit TV Show Pop Nightcore English rew0825
BeatmapID:2608198
BeatmapSetID:1254985

[Difficulty]
HPDrainRate:6
CircleSize:4.2
OverallDifficulty:9.2
ApproachRate:9.2
SliderMultiplier:2.2
SliderTickRate:2

[Events]
//Background and Video events
0,0,"bg.png",0,0
//Break Periods
//Storyboard Layer 0 (Background)
//Storyboard Layer 1 (Fail)
//Storyboard Layer 2 (Pass)
//Storyboard Layer 3 (Foreground)
//Storyboard Layer 4 (Overlay)
//Storyboard Sound Samples

[TimingPoints]
322,365.673051724453,4,2,1,30,1,0
322,-111.111111111111,4,2,1,30,0,0
6172,-95.2380952380952,4,2,1,60,0,0
12023,-100,4,2,1,45,0,0
17874,-100,4,2,1,50,0,0
20799,-100,4,2,1,55,0,0
21531,-100,4,2,1,50,0,0
22262,-100,4,2,1,45,0,0
22628,-100,4,2,1,40,0,0
22993,-100,4,2,1,35,0,0
23359,-100,4,2,1,30,0,0
23725,-100,4,2,1,50,0,0
29575,-100,4,2,1,55,0,0
32501,-100,4,2,1,60,0,0
33963,-100,4,2,1,65,0,0
35060,-100,4,2,1,70,0,0
35335,-100,4,2,1,5,0,0
35426,-83.3333333333333,4,2,1,85,0,1
39814,-83.3333333333333,4,2,1,90,0,1
41277,-83.3333333333333,4,2,1,85,0,1
45665,-83.3333333333333,4,2,1,90,0,1
47128,-90.9090909090909,4,2,1,60,0,0
48590,-90.9090909090909,4,2,1,70,0,0
50053,-90.9090909090909,4,2,1,60,0,0
51516,-90.9090909090909,4,2,1,55,0,0
52613,-90.9090909090909,4,2,1,60,0,0

[Colours]
Combo1 : 47,73,113
Combo2 : 139,227,243
Combo3 : 17,147,174

[HitObjects]
368,304,322,6,0,P|416:304|416:184,1,197.99999395752,2|0,0:0|0:0,0:0:0:0:
328,184,870,1,0,0:0:0:0:
232,184,1053,2,0,L|224:80,1,98.9999969787599,2|0,0:0|0:0,0:0:0:0:
320,144,1419,2,0,L|328:40,1,98.9999969787599,2|0,0:0|0:0,0:0:0:0:
120,232,1784,6,0,P|88:200|176:112,1,197.99999395752,2|0,0:0|0:0,0:0:0:0:
264,120,2333,1,0,0:0:0:0:
168,128,2516,2,0,L|272:128,2,98.9999969787599,2|0|0,0:0|0:0|0:0,0:0:0:0:
464,192,3247,6,0,P|464:144|360:40,1,197.99999395752,2|0,0:0|0:0,0:0:0:0:
272,56,3795,1,0,0:0:0:0:
176,64,3978,2,0,L|248:136,1,98.9999969787599,2|0,0:0|0:0,0:0:0:0:
344,136,4344,2,0,L|272:208,1,98.9999969787599,2|0,0:0|0:0,0:0:0:0:
64,264,4710,6,0,L|56:64,1,197.99999395752,2|0,0:0|0:0,0:0:0:0:
152,104,5258,1,0,0:0:0:0:
56,112,5441,2,0,L|160:112,1,98.9999969787599,2|0,0:0|0:0,0:0:0:0:
48,104,5807,1,2,0:0:0:0:
504,192,6172,6,0,L|248:192,1,230.99999295044,6|8,0:0|0:0,0:0:0:0:
432,176,6721,1,0,0:0:0:0:
272,136,6904,2,0,L|152:136,1,115.49999647522,2|0,0:0|0:0,0:0:0:0:
320,80,7269,1,8,0:0:0:0:
152,80,7452,1,0,0:0:0:0:
416,224,7635,6,0,P|456:184|360:88,1,230.99999295044,2|8,0:0|0:0,0:0:0:0:
192,112,8183,1,0,0:0:0:0:
360,120,8366,2,0,L|240:120,1,115.49999647522,2|0,0:0|0:0,0:0:0:0:
416,176,8732,2,0,L|424:56,1,115.49999647522,8|0,0:0|0:0,0:0:0:0:
88,288,9098,6,0,L|80:56,1,230.99999295044,2|8,0:0|0:0,0:0:0:0:
248,128,9646,1,0,0:0:0:0:
80,120,9829,2,0,L|200:120,1,115.49999647522,2|0,0:0|0:0,0:0:0:0:
360,104,10195,2,0,L|232:104,1,115.49999647522,8|0,0:0|0:0,0:0:0:0:
488,184,10560,6,0,L|248:184,1,230.99999295044,2|8,0:0|0:0,0:0:0:0:
424,160,11109,1,0,0:0:0:0:
280,128,11292,2,0,L|272:248,1,115.49999647522,2|8,0:0|0:0,0:0:0:0:
368,160,11566,1,8,0:0:0:0:
464,176,11657,2,0,L|472:56,1,115.49999647522,8|0,0:0|0:0,0:0:0:0:
144,224,12023,6,0,L|136:112,1,110,6|0,0:0|0:0,0:0:0:0:
296,176,12389,2,0,L|184:176,1,110,8|0,0:0|0:0,0:0:0:0:
344,120,12754,1,2,0:0:0:0:
416,120,12937,1,0,0:0:0:0:
344,120,13120,1,8,0:0:0:0:
184,120,13303,1,0,0:0:0:0:
432,176,13486,6,0,L|320:176,1,110,2|0,0:0|0:0,0:0:0:0:
168,176,13851,2,0,L|280:176,1,110,8|0,0:0|0:0,0:0:0:0:
120,152,14217,2,0,L|112:40,1,110,2|8,0:0|0:0,0:0:0:0:
208,88,14491,1,8,0:0:0:0:
304,88,14583,1,8,0:0:0:0:
56,176,14766,1,0,0:0:0:0:
336,232,14948,6,0,L|456:232,1,110,2|0,0:0|0:0,0:0:0:0:
288,200,15314,2,0,L|280:88,1,110,8|0,0:0|0:0,0:0:0:0:
440,128,15680,1,2,0:0:0:0:
280,128,15863,1,0,0:0:0:0:
440,128,16045,2,0,L|448:240,1,110,8|0,0:0|0:0,0:0:0:0:
160,200,16411,6,0,L|296:200,1,110,2|0,0:0|0:0,0:0:0:0:
112,160,16777,2,0,L|104:48,1,110,8|0,0:0|0:0,0:0:0:0:
360,120,17142,2,0,L|480:120,1,110,2|8,0:0|0:0,0:0:0:0:
224,96,17508,1,8,0:0:0:0:
464,96,17691,1,8,0:0:0:0:
184,192,17874,6,0,L|72:192,1,110,6|0,0:0|0:0,0:0:0:0:
232,184,18239,2,0,L|240:72,1,110,8|0,0:0|0:0,0:0:0:0:
80,240,18605,2,0,P|80:184|192:72,1,220,2|8,0:0|0:0,0:0:0:0:
32,144,19154,1,0,0:0:0:0:
312,168,19336,6,0,L|192:168,1,110,2|0,0:0|0:0,0:0:0:0:
40,160,19702,2,0,L|152:160,1,110,8|0,0:0|0:0,0:0:0:0:
312,192,20068,2,0,L|320:80,1,110,2|8,0:0|0:0,0:0:0:0:
72,144,20434,1,8,0:0:0:0:
312,144,20616,1,8,0:0:0:0:
40,208,20799,6,0,L|48:96,1,110,2|0,0:0|0:0,0:0:0:0:
192,184,21165,2,0,L|184:72,1,110,8|0,0:0|0:0,0:0:0:0:
328,160,21531,2,0,L|336:48,1,110,2|0,0:0|0:0,0:0:0:0:
480,208,21896,2,0,L|472:96,1,110,8|0,0:0|0:0,0:0:0:0:
312,176,22262,6,0,L|232:96,1,110,2|0,0:0|0:0,0:0:0:0:
344,136,22628,2,0,B|384:96|384:96|344:56,1,110,8|0,0:0|0:0,0:0:0:0:
240,104,22993,2,0,L|432:296,1,220,2|0,0:0|0:0,0:0:0:0:
72,192,23725,6,0,L|184:192,1,110,6|0,0:0|0:0,0:0:0:0:
344,168,24090,2,0,L|352:56,1,110,8|0,0:0|0:0,0:0:0:0:
192,104,24456,1,2,0:0:0:0:
352,104,24639,1,0,0:0:0:0:
192,208,24822,2,0,L|80:208,1,110,8|0,0:0|0:0,0:0:0:0:
328,176,25187,5,2,0:0:0:0:
256,176,25370,1,0,0:0:0:0:
328,176,25553,1,8,0:0:0:0:
488,176,25736,1,0,0:0:0:0:
328,200,25919,2,0,L|472:200,1,110,2|8,0:0|0:0,0:0:0:0:
344,168,26193,1,8,0:0:0:0:
248,168,26284,1,8,0:0:0:0:
496,144,26467,1,0,0:0:0:0:
208,192,26650,6,0,L|96:192,1,110,2|0,0:0|0:0,0:0:0:0:
256,120,27016,2,0,L|384:120,1,110,8|0,0:0|0:0,0:0:0:0:
208,104,27381,1,2,0:0:0:0:
136,104,27564,1,0,0:0:0:0:
208,104,27747,1,8,0:0:0:0:
368,104,27930,1,0,0:0:0:0:
88,192,28113,6,0,L|208:192,1,110,2|0,0:0|0:0,0:0:0:0:
40,160,28478,2,0,L|32:48,1,110,8|0,0:0|0:0,0:0:0:0:
192,176,28844,2,0,L|56:176,1,110,2|8,0:0|0:0,0:0:0:0:
328,176,29210,1,8,0:0:0:0:
80,176,29393,1,8,0:0:0:0:
368,208,29575,6,0,L|376:96,1,110,6|0,0:0|0:0,0:0:0:0:
216,112,29941,1,8,0:0:0:0:
480,112,30124,1,0,0:0:0:0:
200,240,30307,2,0,P|200:184|312:72,1,220,2|8,0:0|0:0,0:0:0:0:
152,208,30855,1,0,0:0:0:0:
424,176,31038,6,0,L|304:176,1,110,2|0,0:0|0:0,0:0:0:0:
152,168,31404,2,0,L|160:56,1,110,8|0,0:0|0:0,0:0:0:0:
424,240,31769,2,0,P|424:184|312:72,1,220,2|8,0:0|0:0,0:0:0:0:
480,136,32318,1,0,0:0:0:0:
232,216,32501,6,0,P|176:216|176:88,1,220,2|8,0:0|0:0,0:0:0:0:
336,96,33049,1,0,0:0:0:0:
88,184,33232,2,0,L|320:184,1,220,2|8,0:0|0:0,0:0:0:0:
144,176,33781,1,0,0:0:0:0:
496,176,33963,6,0,L|344:176,1,110,2|0,0:0|0:0,0:0:0:0:
144,176,34329,2,0,L|296:176,1,110,10|0,0:0|0:0,0:0:0:0:
8,184,34695,1,10,0:0:0:0:
432,264,35060,2,0,L|440:96,1,165,10|0,0:0|0:0,0:0:0:0:
176,192,35426,6,0,L|40:192,1,131.99999597168,4|2,0:0|0:0,0:0:0:0:
216,160,35792,2,0,L|360:160,1,131.99999597168,8|2,0:0|0:0,0:0:0:0:
48,192,36157,2,0,L|40:56,1,131.99999597168,0|2,0:0|0:0,0:0:0:0:
216,144,36523,1,8,0:0:0:0:
40,144,36706,1,2,0:0:0:0:
432,192,36889,6,0,L|440:56,1,131.99999597168,0|2,0:0|0:0,0:0:0:0:
264,88,37254,1,8,0:0:0:0:
440,96,37437,1,2,0:0:0:0:
168,176,37620,2,0,L|32:176,1,131.99999597168,0|2,0:0|0:0,0:0:0:0:
312,176,37986,2,0,L|448:176,1,131.99999597168,8|2,0:0|0:0,0:0:0:0:
40,232,38351,6,0,L|32:96,1,131.99999597168,0|2,0:0|0:0,0:0:0:0:
200,136,38717,2,0,L|64:136,1,131.99999597168,8|2,0:0|0:0,0:0:0:0:
320,168,39083,1,0,0:0:0:0:
248,168,39266,1,2,0:0:0:0:
320,168,39449,1,8,0:0:0:0:
480,168,39632,1,2,0:0:0:0:
184,184,39814,6,0,L|40:184,1,131.99999597168,4|2,0:0|0:0,0:0:0:0:
328,168,40180,1,8,0:0:0:0:
48,160,40363,1,10,0:0:0:0:
320,224,40546,2,0,L|176:224,1,131.99999597168,4|2,0:0|0:0,0:0:0:0:
456,208,40912,1,8,0:0:0:0:
184,200,41095,1,10,0:0:0:0:
472,224,41277,6,0,P|472:152|344:24,1,263.99999194336,4|8,0:0|0:0,0:0:0:0:
80,104,41825,1,2,0:0:0:0:
344,136,42008,2,0,L|352:272,1,131.99999597168,0|2,0:0|0:0,0:0:0:0:
176,176,42374,2,0,L|168:40,1,131.99999597168,8|2,0:0|0:0,0:0:0:0:
440,192,42740,6,0,P|488:144|376:32,1,263.99999194336,0|8,0:0|0:0,0:0:0:0:
112,128,43288,1,2,0:0:0:0:
384,136,43471,2,0,L|248:136,1,131.99999597168,0|2,0:0|0:0,0:0:0:0:
424,184,43837,2,0,L|432:48,1,131.99999597168,8|2,0:0|0:0,0:0:0:0:
104,184,44202,6,0,L|368:184,1,263.99999194336,0|8,0:0|0:0,0:0:0:0:
96,176,44751,1,2,0:0:0:0:
368,192,44934,2,0,L|376:56,1,131.99999597168,0|2,0:0|0:0,0:0:0:0:
208,128,45299,2,0,L|64:128,1,131.99999597168,8|2,0:0|0:0,0:0:0:0:
368,192,45665,6,0,L|376:56,1,131.99999597168,4|2,0:0|0:0,0:0:0:0:
128,136,46031,1,8,0:0:0:0:
376,128,46213,1,10,0:0:0:0:
48,224,46396,2,0,L|40:88,1,131.99999597168,4|2,0:0|0:0,0:0:0:0:
288,168,46762,1,8,0:0:0:0:
40,160,46944,1,10,0:0:0:0:
368,200,47128,6,0,P|432:200|432:56,1,242.000007385254,4|8,0:0|0:0,0:0:0:0:
280,64,47676,1,0,0:0:0:0:
440,64,47859,2,0,L|448:192,1,121.000003692627,2|0,0:0|0:0,0:0:0:0:
280,64,48225,2,0,L|288:192,1,121.000003692627,8|0,0:0|0:0,0:0:0:0:
40,72,48590,6,0,L|168:72,1,121.000003692627,2|0,0:0|0:0,0:0:0:0:
408,80,48956,1,8,0:0:0:0:
160,120,49139,1,8,0:0:0:0:
416,112,49322,2,0,L|288:112,1,121.000003692627,2|0,0:0|0:0,0:0:0:0:
48,128,49687,1,8,0:0:0:0:
296,128,49870,1,8,0:0:0:0:
40,192,50053,6,0,L|288:192,1,242.000007385254,6|8,0:0|0:0,0:0:0:0:
120,176,50602,1,0,0:0:0:0:
280,128,50784,2,0,L|288:256,1,121.000003692627,2|0,0:0|0:0,0:0:0:0:
120,208,51150,2,0,L|112:80,1,121.000003692627,8|0,0:0|0:0,0:0:0:0:
384,232,51516,6,0,P|472:144|408:80,1,242.000007385254,2|8,0:0|0:0,0:0:0:0:
240,104,52064,1,0,0:0:0:0:
408,104,52247,2,0,L|416:232,1,121.000003692627,2|2,0:0|0:0,0:0:0:0:
48,184,52613,1,6,0:0:0:0:
