osu file format v14

[General]
AudioFilename: Victoria Justice and Elizabeth Gillies - Take A Hint.mp3
AudioLeadIn: 0
PreviewTime: 34973
Countdown: 0
SampleSet: Normal
StackLeniency: 0.7
Mode: 0
LetterboxInBreaks: 0
WidescreenStoryboard: 1

[Editor]
DistanceSpacing: 1.3
BeatDivisor: 4
GridSize: 4
TimelineZoom: 2.1

[Metadata]
Title:Take A Hint (Speed Up Ver.)
TitleUnicode:Take A Hint (Speed Up Ver.)
Artist:Victoria Justice and Elizabeth Gillies
ArtistUnicode:Victoria Justice and Elizabeth Gillies
Creator:Azulae
Version:Take A Hint!
Source:Victorious
Tags:TV Jade Vanilla Chocola Series Nightcore Mix
BeatmapID:814141
BeatmapSetID:322223

[Difficulty]
HPDrainRate:7.3
CircleSize:4.3
OverallDifficulty:8.3
ApproachRate:9.3
SliderMultiplier:2.00000000596046
SliderTickRate:1

[Events]
//Background and Video events
0,0,"BG.jpg",0,0
//Break Periods
//Storyboard Layer 0 (Background)
//Storyboard Layer 1 (Fail)
//Storyboard Layer 2 (Pass)
//Storyboard Layer 3 (Foreground)
//Storyboard Sound Samples

[TimingPoints]
235,365.673051724453,4,1,1,40,1,0
11936,-100,4,1,1,40,0,0
21444,-111.111111111111,4,1,1,35,0,0
22175,-125,4,1,1,30,0,0
22906,-142.857142857143,4,1,1,25,0,0
23638,-90.9090909090909,4,1,1,55,0,0
34973,-50,4,1,1,80,0,0
35339,-83.3333333333333,4,1,1,70,0,1
39727,-50,4,1,1,100,0,1
40093,-83.3333333333333,4,1,1,70,0,1
47041,-100,4,1,1,40,0,0
58011,-200,4,1,1,20,0,0
58377,-200,4,1,2,100,0,0
58422,-200,4,1,1,35,0,0
58742,-100,4,1,1,50,0,0
64227,-50,4,1,1,80,0,0
64593,-83.3333333333333,4,1,1,70,0,1
68981,-50,4,1,1,100,0,1
69347,-83.3333333333333,4,1,1,70,0,1
76294,-100,4,1,1,40,0,0
94944,-133.333333333333,4,2,1,40,0,0
95309,-200,4,2,1,30,0,0
99698,-50,4,1,1,80,0,0
100063,-100,4,1,1,20,0,0
101160,-66.6666666666667,4,1,1,85,0,1
111399,-66.6666666666667,4,1,1,80,0,0
112862,-66.6666666666667,4,1,1,80,0,1
117250,-50,4,1,1,100,0,1
117616,-66.6666666666667,4,1,1,80,0,1
118713,-100,4,1,1,60,0,0

[Colours]
Combo1 : 255,0,0
Combo2 : 255,0,255
Combo3 : 255,0,128
Combo4 : 128,0,128
Combo5 : 213,0,213

[HitObjects]
196,116,6085,6,0,P|120:188|181:251,1,200.000000596046,2|8,0:0|0:0,0:0:0:0:
316,116,6634,1,0,0:0:0:0:
187,183,6817,1,2,0:0:0:0:
325,49,6999,1,0,0:0:0:0:
178,250,7182,2,0,L|164:349,1,100.000000298023,8|0,0:0|0:0,0:0:0:0:
307,183,7548,6,0,P|410:195|443:135,1,150.000000447035,2|0,0:0|0:0,0:0:0:0:
433,167,7914,1,8,0:0:0:0:
325,49,8096,1,0,0:0:0:0:
365,138,8279,2,0,L|288:144,1,50.0000001490115,2|0,0:0|0:0,0:0:0:0:
405,227,8462,2,0,L|328:233,1,50.0000001490115
445,316,8645,1,8,0:0:0:0:
347,306,8828,1,0,0:0:0:0:
251,297,9011,6,0,P|184:252|184:188,1,150.000000447035,2|0,0:0|0:0,0:0:0:0:
183,188,9376,1,8,0:0:0:0:
311,184,9559,1,0,0:0:0:0:
248,80,9742,2,0,P|296:64|340:80,1,100.000000298023,2|0,0:0|0:0,0:0:0:0:
188,192,10108,2,0,P|171:238|187:284,1,100.000000298023,8|0,0:0|0:0,0:0:0:0:
121,84,10473,5,2,0:0:0:0:
311,184,10656,1,0,0:0:0:0:
248,80,10839,1,8,0:0:0:0:
311,285,11022,1,0,0:0:0:0:
271,196,11205,2,0,L|221:199,1,50.0000001490115,2|0,0:0|0:0,0:0:0:0:
231,107,11388,2,0,L|181:110,1,50.0000001490115
328,116,11570,1,8,0:0:0:0:
231,107,11936,21,2,0:0:0:0:
197,125,12119,1,0,0:0:0:0:
162,142,12302,2,0,P|113:165|65:169,1,100.000000298023,8|0,0:0|0:0,0:0:0:0:
280,157,12667,1,2,0:0:0:0:
245,174,12850,1,0,0:0:0:0:
209,191,13033,2,0,P|164:212|114:218,1,100.000000298023,8|0,0:0|0:0,0:0:0:0:
280,157,13399,6,0,P|324:135|374:129,1,100.000000298023,2|0,0:0|0:0,0:0:0:0:
245,174,13764,1,8,0:0:0:0:
209,191,13947,1,0,0:0:0:0:
373,128,14130,2,0,P|395:172|401:222,1,100.000000298023,2|8,0:0|0:0,0:0:0:0:
401,221,14404,1,8,0:0:0:0:
401,221,14496,1,8,0:0:0:0:
305,198,14679,1,8,0:0:0:0:
277,105,14861,5,2,0:0:0:0:
243,123,15044,1,0,0:0:0:0:
208,140,15227,2,0,P|159:163|111:167,1,100.000000298023,8|0,0:0|0:0,0:0:0:0:
326,155,15592,1,2,0:0:0:0:
291,172,15775,1,0,0:0:0:0:
255,189,15958,2,0,P|210:210|160:216,1,100.000000298023,8|0,0:0|0:0,0:0:0:0:
326,155,16324,6,0,P|371:134|421:128,1,100.000000298023,2|0,0:0|0:0,0:0:0:0:
291,172,16690,1,8,0:0:0:0:
255,189,16873,1,0,0:0:0:0:
420,127,17055,1,2,0:0:0:0:
391,300,17238,1,8,0:0:0:0:
255,189,17421,1,8,0:0:0:0:
92,251,17604,1,8,0:0:0:0:
255,189,17787,21,2,0:0:0:0:
291,172,17970,1,0,0:0:0:0:
326,155,18152,2,0,P|305:110|299:60,1,100.000000298023,8|0,0:0|0:0,0:0:0:0:
255,189,18518,1,2,0:0:0:0:
165,86,18701,1,0,0:0:0:0:
120,215,18884,2,0,P|141:260|147:310,1,100.000000298023,8|0,0:0|0:0,0:0:0:0:
255,189,19249,5,2,0:0:0:0:
291,172,19432,1,0,0:0:0:0:
165,86,19615,2,0,P|148:132|116:172,1,100.000000298023,8|0,0:0|0:0,0:0:0:0:
291,172,19981,1,2,0:0:0:0:
327,155,20164,1,0,0:0:0:0:
259,58,20347,2,0,P|214:79|164:85,1,100.000000298023,8|0,0:0|0:0,0:0:0:0:
191,272,20712,6,0,P|236:251|286:245,1,100.000000298023,2|0,0:0|0:0,0:0:0:0:
304,104,21078,2,0,P|310:153|332:199,1,100.000000298023,8|0,0:0|0:0,0:0:0:0:
194,261,21444,6,0,P|234:242|279:237,1,89.9999975216388,2|0,0:0|0:0,0:0:0:0:
296,110,21809,2,0,P|302:154|321:195,1,89.9999975216388,8|0,0:0|0:0,0:0:0:0:
197,251,22175,22,0,P|233:234|274:229,1,80.0000002384184,2|0,0:0|0:0,0:0:0:0:
289,115,22541,2,0,P|294:155|311:192,1,80.0000002384184,8|0,0:0|0:0,0:0:0:0:
200,243,22906,6,0,P|233:227|269:223,1,69.9999980723857,2|0,0:0|0:0,0:0:0:0:
283,120,23272,1,0,0:0:0:0:
166,137,23638,6,0,L|172:248,1,110.000003684759,2|0,0:0|0:0,0:0:0:0:
264,186,24003,1,8,0:0:0:0:
73,197,24186,1,0,0:0:0:0:
179,357,24369,2,0,L|272:296,1,110.000003684759,2|0,0:0|0:0,0:0:0:0:
172,247,24735,1,8,0:0:0:0:
371,346,24917,1,0,0:0:0:0:
358,125,25100,5,2,0:0:0:0:
264,186,25283,1,0,0:0:0:0:
364,237,25466,1,8,0:0:0:0:
165,136,25649,1,0,0:0:0:0:
352,13,25832,1,2,0:0:0:0:
264,186,26014,2,0,L|210:220,2,55.0000018423795,8|8|8,0:0|0:0|0:0,0:0:0:0:
358,125,26380,1,8,0:0:0:0:
165,136,26563,21,2,0:0:0:0:
364,237,26746,1,0,0:0:0:0:
177,358,26929,2,0,P|126:339|83:305,1,110.000003684759,8|0,0:0|0:0,0:0:0:0:
305,351,27294,1,2,0:0:0:0:
106,250,27477,1,0,0:0:0:0:
293,129,27660,2,0,P|344:148|387:182,1,110.000003684759,8|0,0:0|0:0,0:0:0:0:
165,136,28026,5,2,0:0:0:0:
177,358,28208,1,0,0:0:0:0:
106,250,28391,1,8,0:0:0:0:
305,351,28574,1,0,0:0:0:0:
293,129,28757,1,2,0:0:0:0:
364,237,28940,1,0,0:0:0:0:
165,136,29123,1,8,0:0:0:0:
305,351,29306,1,0,0:0:0:0:
106,250,29488,6,0,B|166:136|166:136|110:159,1,165.000005527139,2|0,0:0|0:0,0:0:0:0:
132,149,29854,1,8,0:0:0:0:
293,129,30037,1,0,0:0:0:0:
229,278,30220,2,0,B|251:287|251:287|169:312,1,110.000003684759,2|0,0:0|0:0,0:0:0:0:
391,259,30585,2,0,B|365:177|365:177|356:199,1,110.000003684759,8|0,0:0|0:0,0:0:0:0:
135,152,30951,6,0,B|187:167|187:167|202:220|202:220|261:237,1,165.000005527139,2|0,0:0|0:0,0:0:0:0:
255,235,31317,1,8,0:0:0:0:
267,89,31500,1,0,0:0:0:0:
123,298,31682,2,0,B|161:260|161:260|215:273|215:273|259:231,1,165.000005527139,2|0,0:0|0:0,0:0:0:0:
255,235,32048,1,8,0:0:0:0:
136,152,32231,1,0,0:0:0:0:
295,299,32414,22,0,P|329:245|215:187,1,220.000007369518,2|8,0:0|0:0,0:0:0:0:
154,257,32962,1,0,0:0:0:0:
101,92,33145,2,0,P|67:146|181:204,1,220.000007369518,2|8,0:0|0:0,0:0:0:0:
241,133,33693,1,0,0:0:0:0:
304,270,33876,5,2,0:0:0:0:
101,92,34059,1,2,0:0:0:0:
356,5,34242,1,10,0:0:0:0:
150,239,34425,1,2,0:0:0:0:
406,152,34608,1,2,0:0:0:0:
410,156,34973,38,2,B|316:116|316:116|130:191|130:191|37:151,1,400.000001192092,10|6,0:0|0:0,0:0:0:0:
312,277,35705,38,0,P|220:281|192:269,1,119.999996695518,8|0,0:0|0:0,0:0:0:0:
195,271,35979,1,0,0:0:0:0:
195,271,36070,2,0,P|191:179|203:151,1,119.999996695518,2|0,0:0|0:0,0:0:0:0:
249,376,36436,1,8,0:0:0:0:
258,172,36619,1,0,0:0:0:0:
430,281,36802,6,0,B|387:195|472:195|430:110,1,179.999995043277,2|0,0:0|0:0,0:0:0:0:
429,109,37167,1,8,0:0:0:0:
258,172,37350,1,0,0:0:0:0:
227,352,37533,1,2,0:0:0:0:
399,289,37716,1,0,0:0:0:0:
233,212,37899,1,8,0:0:0:0:
382,106,38082,1,0,0:0:0:0:
293,298,38264,22,0,P|193:306|127:243,1,179.999995043277,2|0,0:0|0:0,0:0:0:0:
135,258,38630,1,8,0:0:0:0:
293,298,38813,1,0,0:0:0:0:
248,142,38996,1,2,0:0:0:0:
91,103,39179,1,0,0:0:0:0:
293,298,39362,1,8,0:0:0:0:
361,26,39544,1,0,0:0:0:0:
102,228,39727,22,2,B|196:268|196:268|382:193|382:193|475:233,1,400.000001192092,6|8,0:0|0:0,0:0:0:0:
293,298,40276,53,8,0:0:0:0:
219,86,40459,1,2,0:0:0:0:
377,250,40641,1,2,0:0:0:0:
134,133,40824,1,8,0:0:0:0:
408,138,41007,1,8,0:0:0:0:
112,252,41190,6,0,P|112:289|168:345,1,119.999996695518,6|0,0:0|0:0,0:0:0:0:
167,344,41464,1,0,0:0:0:0:
167,344,41556,2,0,P|204:344|260:288,1,119.999996695518,8|0,0:0|0:0,0:0:0:0:
105,245,41921,1,2,0:0:0:0:
220,132,42104,1,0,0:0:0:0:
376,176,42287,1,8,0:0:0:0:
65,89,42470,1,0,0:0:0:0:
259,288,42653,6,0,P|280:216|384:232,1,179.999995043277,2|0,0:0|0:0,0:0:0:0:
372,217,43018,1,8,0:0:0:0:
220,132,43201,1,0,0:0:0:0:
325,268,43384,1,2,0:0:0:0:
268,82,43567,1,0,0:0:0:0:
259,288,43750,1,8,0:0:0:0:
334,62,43932,1,0,0:0:0:0:
310,336,44115,22,0,P|240:356|192:271,1,179.999995043277,2|0,0:0|0:0,0:0:0:0:
190,275,44481,1,8,0:0:0:0:
334,62,44664,1,0,0:0:0:0:
259,288,44847,1,2,0:0:0:0:
268,82,45029,1,0,0:0:0:0:
325,268,45212,1,8,0:0:0:0:
220,132,45395,1,0,0:0:0:0:
376,220,45578,5,2,0:0:0:0:
376,220,45761,1,2,0:0:0:0:
268,82,45944,1,10,0:0:0:0:
203,245,46126,1,2,0:0:0:0:
383,131,46309,5,2,0:0:0:0:
383,131,46492,1,2,0:0:0:0:
157,162,46675,1,10,0:0:0:0:
298,342,46857,1,2,0:0:0:0:
264,80,47041,6,0,P|264:157|316:243,1,150.000000447035,2|0,0:0|0:0,0:0:0:0:
295,221,47406,1,8,0:0:0:0:
157,162,47589,1,0,0:0:0:0:
175,311,47772,2,0,L|272:335,1,100.000000298023,2|0,0:0|0:0,0:0:0:0:
253,186,48138,2,0,L|155:161,1,100.000000298023,8|0,0:0|0:0,0:0:0:0:
236,40,48503,22,0,L|383:77,1,150.000000447035,2|0,0:0|0:0,0:0:0:0:
381,76,48869,1,8,0:0:0:0:
234,40,49052,1,0,0:0:0:0:
274,129,49235,2,0,L|197:135,1,50.0000001490115,2|0,0:0|0:0,0:0:0:0:
314,218,49418,2,0,L|245:223,1,50.0000001490115
354,307,49600,1,8,0:0:0:0:
372,139,49783,1,0,0:0:0:0:
256,192,49966,12,2,51429,0:0:0:0:
160,144,51612,5,0,0:0:0:0:
352,144,51794,1,8,0:0:0:0:
256,310,51977,1,0,0:0:0:0:
255,88,52160,2,0,L|256:36,1,50.0000001490115,2|0,0:0|0:0,0:0:0:0:
351,254,52343,2,0,L|396:280,1,50.0000001490115
160,254,52526,2,0,L|63:309,1,100.000000298023,8|0,0:0|0:0,0:0:0:0:
439,303,52891,5,2,0:0:0:0:
351,254,53074,1,0,0:0:0:0:
353,355,53257,2,0,P|285:332|260:276,1,100.000000298023,8|0,0:0|0:0,0:0:0:0:
146,224,53623,1,2,0:0:0:0:
283,162,53806,1,0,0:0:0:0:
159,74,53988,2,0,P|124:39|76:31,1,100.000000298023,8|0,0:0|0:0,0:0:0:0:
283,162,54354,6,0,B|354:126|354:196|424:162,1,150.000000447035,2|0,0:0|0:0,0:0:0:0:
425,161,54720,1,8,0:0:0:0:
283,162,54903,1,0,0:0:0:0:
354,285,55085,1,2,0:0:0:0:
354,38,55268,1,8,0:0:0:0:
363,86,55359,1,8,0:0:0:0:
345,132,55450,1,8,0:0:0:0:
141,162,55634,1,8,0:0:0:0:
269,324,55817,22,0,P|284:265|355:287,1,150.000000447035,2|0,0:0|0:0,0:0:0:0:
354,285,56182,1,8,0:0:0:0:
345,132,56365,1,0,0:0:0:0:
217,217,56548,1,2,0:0:0:0:
413,177,56731,1,0,0:0:0:0:
223,136,56914,1,8,0:0:0:0:
406,257,57097,1,0,0:0:0:0:
290,78,57279,6,0,P|224:56|148:80,1,150.000000447035,2|0,0:0|0:0,0:0:0:0:
150,78,57645,1,8,0:0:0:0:
290,78,57828,1,0,0:0:0:0:
219,202,58011,6,0,B|255:272|185:272|219:342,1,150.000000447035
304,188,58742,5,2,0:0:0:0:
389,174,58925,1,0,0:0:0:0:
219,202,59108,2,0,P|240:121|312:101,1,150.000000447035,8|0,0:0|0:0,0:0:0:0:
296,99,59474,1,2,0:0:0:0:
312,277,59656,1,0,0:0:0:0:
367,112,59839,1,8,0:0:0:0:
240,263,60021,1,0,0:0:0:0:
412,176,60205,22,0,P|379:219|339:244,1,100.000000298023,2|0,0:0|0:0,0:0:0:0:
340,243,60479,1,0,0:0:0:0:
340,243,60571,1,8,0:0:0:0:
300,103,60753,1,0,0:0:0:0:
277,249,60936,1,2,0:0:0:0:
362,96,61118,1,8,0:0:0:0:
219,201,61302,1,8,0:0:0:0:
420,144,61484,1,8,0:0:0:0:
212,116,61668,6,0,P|138:173|134:229,1,150.000000447035,2|0,0:0|0:0,0:0:0:0:
133,224,62033,1,8,0:0:0:0:
210,117,62216,1,0,0:0:0:0:
264,236,62399,2,0,P|350:271|400:247,1,150.000000447035,2|0,0:0|0:0,0:0:0:0:
397,250,62765,1,8,0:0:0:0:
262,236,62947,1,0,0:0:0:0:
341,126,63130,5,2,0:0:0:0:
133,224,63313,1,2,0:0:0:0:
285,2,63496,1,10,0:0:0:0:
262,236,63679,1,2,0:0:0:0:
421,16,63862,1,2,0:0:0:0:
491,308,64227,22,2,B|437:306|399:262|422:204|422:204|374:224|325:204|325:204|348:262|310:306|256:308,1,400.000001192092,10|6,0:0|0:0,0:0:0:0:
180,128,64959,54,0,P|88:144|64:228,1,179.999995043277,8|0,0:0|0:0,0:0:0:0:
61,217,65324,1,2,0:0:0:0:
119,49,65507,1,0,0:0:0:0:
296,52,65690,1,8,0:0:0:0:
347,222,65873,1,0,0:0:0:0:
201,323,66056,22,0,P|214:236|140:200,1,179.999995043277,2|0,0:0|0:0,0:0:0:0:
142,199,66421,1,8,0:0:0:0:
347,222,66604,1,0,0:0:0:0:
264,33,66787,1,2,0:0:0:0:
238,270,66970,1,0,0:0:0:0:
359,103,67153,1,8,0:0:0:0:
442,291,67336,1,0,0:0:0:0:
252,148,67518,6,0,P|148:98|78:112,1,179.999995043277,2|0,0:0|0:0,0:0:0:0:
87,107,67884,1,8,0:0:0:0:
252,148,68067,1,0,0:0:0:0:
133,270,68250,1,2,0:0:0:0:
417,190,68433,1,0,0:0:0:0:
371,26,68615,1,8,0:0:0:0:
298,311,68798,1,0,0:0:0:0:
87,107,68981,38,2,B|141:109|179:153|156:211|156:211|204:191|253:211|253:211|230:153|268:109|322:107,1,400.000001192092,6|8,0:0|0:0,0:0:0:0:
417,190,69530,37,8,0:0:0:0:
133,270,69712,1,2,0:0:0:0:
347,101,69895,1,2,0:0:0:0:
202,358,70077,1,8,0:0:0:0:
235,88,70261,1,8,0:0:0:0:
315,372,70444,6,0,P|363:318|294:247,1,179.999995043277,6|0,0:0|0:0,0:0:0:0:
304,246,70809,1,8,0:0:0:0:
133,270,70992,1,0,0:0:0:0:
197,109,71175,1,2,0:0:0:0:
358,173,71358,1,0,0:0:0:0:
100,176,71541,1,8,0:0:0:0:
328,267,71724,1,0,0:0:0:0:
259,108,71906,22,0,P|218:48|135:92,1,179.999995043277,2|0,0:0|0:0,0:0:0:0:
136,88,72272,1,8,0:0:0:0:
358,173,72455,1,0,0:0:0:0:
100,176,72638,1,2,0:0:0:0:
328,267,72821,1,0,0:0:0:0:
159,358,73003,1,8,0:0:0:0:
268,84,73186,1,0,0:0:0:0:
450,315,73369,6,0,P|392:363|257:366,1,179.999995043277,2|0,0:0|0:0,0:0:0:0:
290,376,73735,1,8,0:0:0:0:
358,173,73918,1,0,0:0:0:0:
159,358,74100,1,2,0:0:0:0:
268,84,74283,1,0,0:0:0:0:
100,176,74466,1,8,0:0:0:0:
328,267,74649,1,0,0:0:0:0:
130,82,74832,5,2,0:0:0:0:
358,173,75015,1,2,0:0:0:0:
165,324,75197,1,10,0:0:0:0:
165,324,75380,1,2,0:0:0:0:
252,88,75563,5,2,0:0:0:0:
280,283,75746,1,2,0:0:0:0:
98,209,75928,1,10,0:0:0:0:
98,209,76112,1,2,0:0:0:0:
256,92,76294,22,0,P|326:63|416:61,1,150.000000447035,2|0,0:0|0:0,0:0:0:0:
399,58,76660,1,8,0:0:0:0:
256,92,76843,1,0,0:0:0:0:
357,199,77026,1,2,0:0:0:0:
214,233,77209,1,0,0:0:0:0:
113,127,77392,1,8,0:0:0:0:
72,268,77574,1,0,0:0:0:0:
357,199,77757,6,0,P|291:147|256:91,1,150.000000447035,2|0,0:0|0:0,0:0:0:0:
256,92,78123,1,8,0:0:0:0:
399,58,78306,1,0,0:0:0:0:
359,147,78489,2,0,L|436:153,1,50.0000001490115,2|0,0:0|0:0,0:0:0:0:
319,236,78671,2,0,L|396:242,1,50.0000001490115
279,325,78854,1,8,0:0:0:0:
261,156,79037,1,0,0:0:0:0:
256,192,79220,12,2,80683,3:0:0:0:
360,148,80865,5,8,3:0:0:0:
152,236,81048,1,2,0:0:0:0:
333,373,81231,1,0,0:0:0:0:
470,192,81414,1,8,0:0:0:0:
245,164,81597,1,8,3:0:0:0:
453,322,81780,1,8,3:0:0:0:
412,296,81871,1,8,3:0:0:0:
400,248,81962,1,8,3:0:0:0:
424,206,82054,1,8,3:0:0:0:
470,192,82145,6,0,P|491:268|453:321,1,150.000000447035,12|0,3:0|0:0,0:0:0:0:
452,321,82511,1,2,0:0:0:0:
345,247,82694,1,0,0:0:0:0:
248,168,82877,2,0,P|189:175|161:222,1,100.000000298023,2|0,0:0|0:0,0:0:0:0:
165,204,83151,2,0,P|200:237|201:286,1,100.000000298023
201,286,83425,1,0,0:0:0:0:
248,168,83608,22,0,L|397:116,1,150.000000447035,2|0,0:0|0:0,0:0:0:0:
389,118,83974,1,2,0:0:0:0:
248,168,84156,1,0,0:0:0:0:
362,266,84339,2,0,L|220:315,2,150.000000447035,2|0|0,0:0|0:0|0:0,0:0:0:0:
389,118,85071,6,0,P|360:68|276:68,1,150.000000447035,2|0,0:0|0:0,0:0:0:0:
275,68,85436,1,2,0:0:0:0:
339,231,85619,1,0,0:0:0:0:
166,204,85802,1,2,0:0:0:0:
193,31,85985,1,0,0:0:0:0:
329,140,86168,1,2,0:0:0:0:
30,94,86351,1,0,0:0:0:0:
166,204,86533,6,0,P|136:296|139:304,1,100.000000298023,2|0,0:0|0:0,0:0:0:0:
135,292,86808,1,0,0:0:0:0:
135,292,86899,1,2,0:0:0:0:
346,180,87265,2,0,P|376:88|373:80,1,100.000000298023,2|0,0:0|0:0,0:0:0:0:
376,91,87540,1,0,0:0:0:0:
376,91,87631,1,2,0:0:0:0:
256,192,87996,6,0,L|156:216,1,100.000000298023,2|0,0:0|0:0,0:0:0:0:
270,259,88362,2,0,L|368:236,1,100.000000298023,2|0,0:0|0:0,0:0:0:0:
158,215,88727,2,0,L|60:238,1,100.000000298023,2|0,0:0|0:0,0:0:0:0:
368,236,89093,2,0,L|465:212,1,100.000000298023,2|0,0:0|0:0,0:0:0:0:
256,192,89459,22,0,P|220:132|176:112,1,100.000000298023,2|0,0:0|0:0,0:0:0:0:
270,259,89824,2,0,P|306:319|350:339,1,100.000000298023,2|0,0:0|0:0,0:0:0:0:
195,117,90190,2,0,P|146:124|99:107,1,100.000000298023,2|0,0:0|0:0,0:0:0:0:
330,333,90556,2,0,P|378:325|425:342,1,100.000000298023,2|0,0:0|0:0,0:0:0:0:
256,192,90921,6,0,B|280:168|280:168|280:100,1,100.000000298023,2|0,0:0|0:0,0:0:0:0:
270,259,91287,2,0,B|246:283|246:283|246:351,1,100.000000298023,2|0,0:0|0:0,0:0:0:0:
280,101,91653,2,0,B|213:101|213:101|189:77,1,100.000000298023,2|0,0:0|0:0,0:0:0:0:
246,349,92018,2,0,B|312:349|312:349|336:373,1,100.000000298023,2|0,0:0|0:0,0:0:0:0:
256,192,92384,5,2,0:0:0:0:
270,259,93115,1,2,0:0:0:0:
284,326,93847,1,2,0:0:0:0:
256,192,94030,1,0,0:0:0:0:
386,234,94212,1,2,0:0:0:0:
428,104,94395,1,0,0:0:0:0:
295,133,94578,1,2,0:0:0:0:
253,263,94761,1,0,0:0:0:0:
353,80,94944,6,0,P|286:57|224:98,1,150.000006169081,2|2,0:0|0:0,0:0:0:0:
168,132,95492,2,0,L|116:152,1,50.0000001490115
151,211,95858,2,0,L|128:262,1,50.0000001490115
196,280,96224,2,0,L|216:332,1,50.0000001490115
275,296,96589,1,0,0:0:0:0:
229,187,96772,22,0,L|237:131,1,50.0000001490115,2|0,0:0|0:0,0:0:0:0:
288,224,97138,2,0,L|296:168,1,50.0000001490115
347,261,97504,2,0,L|355:205,1,50.0000001490115
406,298,97869,2,0,L|414:242,1,50.0000001490115
229,187,98235,5,2,0:0:0:0:
288,224,98418,1,0,0:0:0:0:
406,298,98601,2,0,L|414:242,1,50.0000001490115
288,224,98966,1,0,0:0:0:0:
229,187,99149,1,0,0:0:0:0:
111,113,99332,2,0,L|119:57,1,50.0000001490115
229,187,99698,38,2,B|185:173|149:239|176:278|232:298|254:321|254:321|276:298|331:278|358:239|323:173|279:187,1,400.000001192092,6|0,0:0|0:0,0:0:0:0:
254,243,100246,37,0,0:0:0:0:
160,128,100429,2,0,P|108:196|128:309,1,200.000000596046
254,243,100977,1,0,0:0:0:0:
388,303,101160,1,6,0:0:0:0:
304,56,101526,5,8,0:0:0:0:
254,243,101709,1,0,0:0:0:0:
117,6,101892,1,2,0:0:0:0:
67,193,102075,1,0,0:0:0:0:
254,143,102257,1,8,0:0:0:0:
204,331,102440,1,0,0:0:0:0:
254,143,102623,22,0,P|392:112|407:41,1,225.000009253621,2|0,0:0|0:0,0:0:0:0:
407,46,102989,1,8,0:0:0:0:
372,241,103171,1,0,0:0:0:0:
304,56,103354,1,2,0:0:0:0:
184,308,103537,1,0,0:0:0:0:
116,123,103720,1,8,0:0:0:0:
310,156,103903,1,0,0:0:0:0:
96,235,104086,6,0,P|200:184|213:76,1,225.000009253621,2|0,0:0|0:0,0:0:0:0:
215,84,104451,1,8,0:0:0:0:
372,241,104634,1,0,0:0:0:0:
293,40,104817,1,2,0:0:0:0:
293,284,105000,1,0,0:0:0:0:
392,64,105183,1,8,0:0:0:0:
202,254,105366,1,0,0:0:0:0:
445,159,105548,5,2,0:0:0:0:
293,40,105731,1,2,0:3:0:0:
306,74,105822,1,2,0:3:0:0:
310,112,105913,1,2,0:3:0:0:
300,148,106005,1,2,0:3:0:0:
284,181,106096,1,2,0:3:0:0:
274,218,106188,1,2,0:3:0:0:
279,255,106279,5,2,0:3:0:0:
293,289,106371,1,2,0:3:0:0:
258,302,106462,1,2,0:3:0:0:
220,306,106553,1,2,0:3:0:0:
184,296,106645,1,2,0:3:0:0:
151,280,106736,1,2,0:3:0:0:
114,270,106828,1,2,0:3:0:0:
77,275,106919,1,2,0:3:0:0:
43,289,107011,22,0,B|27:249|28:216|28:216|80:186|146:189|190:215,1,225.000009253621,6|0,0:0|0:0,0:0:0:0:
172,206,107377,1,8,0:0:0:0:
304,288,107560,1,0,0:0:0:0:
310,133,107742,2,0,B|294:93|295:60|295:60|347:30|413:33|457:59,1,225.000009253621,2|0,0:0|0:0,0:0:0:0:
439,50,108108,1,8,0:0:0:0:
446,203,108291,1,0,0:0:0:0:
176,211,108474,5,2,0:0:0:0:
304,288,108657,1,0,0:0:0:0:
171,140,108839,1,8,0:0:0:0:
215,314,109022,1,0,0:0:0:0:
228,76,109205,1,2,0:0:0:0:
117,261,109388,1,0,0:0:0:0:
330,71,109571,1,8,0:0:0:0:
80,133,109754,1,0,0:0:0:0:
228,76,109936,6,0,P|279:155|401:138,1,225.000009253621,6|0,0:0|0:0,0:0:0:0:
397,140,110302,1,8,0:0:0:0:
257,254,110485,1,0,0:0:0:0:
332,60,110668,1,2,0:0:0:0:
359,237,110851,2,0,P|343:311|275:353,1,150.000006169081,0|8,0:0|0:0,0:0:0:0:
191,173,111216,1,0,0:0:0:0:
332,60,111399,5,2,0:0:0:0:
257,254,111582,2,0,P|184:279|108:244,1,150.000006169081,8|8,0:0|0:0,0:0:0:0:
182,60,112130,21,2,0:0:0:0:
257,254,112313,2,0,P|330:279|406:244,1,150.000006169081,8|8,0:0|0:0,0:0:0:0:
332,60,112862,5,6,0:0:0:0:
182,60,113045,1,0,0:0:0:0:
257,254,113227,1,8,0:0:0:0:
451,179,113410,1,0,0:0:0:0:
290,49,113593,1,2,0:0:0:0:
160,210,113776,1,0,0:0:0:0:
365,243,113959,1,8,0:0:0:0:
85,16,114142,1,0,0:0:0:0:
29,372,114324,6,0,P|107:331|160:200,1,225.000009253621,2|0,0:0|0:0,0:0:0:0:
160,210,114690,1,8,0:0:0:0:
365,243,114873,1,0,0:0:0:0:
167,131,115056,1,2,0:0:0:0:
301,316,115239,1,0,0:0:0:0:
234,75,115422,1,8,0:0:0:0:
59,254,115604,1,0,0:0:0:0:
329,84,115787,6,0,P|257:170|167:131,1,225.000009253621,2|0,0:0|0:0,0:0:0:0:
167,131,116153,1,8,0:0:0:0:
365,243,116336,1,0,0:0:0:0:
139,213,116519,1,2,0:0:0:0:
380,146,116702,1,0,0:0:0:0:
157,344,116884,1,8,0:0:0:0:
341,17,117067,1,0,0:0:0:0:
282,332,117250,6,2,B|326:346|362:280|335:241|279:221|257:198|257:198|235:221|180:241|153:280|188:346|232:332,1,400.000001192092,6|10,0:0|0:0,0:0:0:0:
317,60,117798,5,2,0:0:0:0:
257,276,117981,1,2,0:0:0:0:
417,134,118164,1,2,0:0:0:0:
156,201,118347,1,10,0:0:0:0:
418,302,118530,1,2,0:0:0:0:
154,32,118713,6,0,P|84:36|12:104,1,150.000000447035,6|0,0:0|0:0,0:0:0:0:
22,83,119078,1,8,0:0:0:0:
136,172,119261,1,0,0:0:0:0:
3,225,119444,1,2,0:0:0:0:
56,358,119627,1,0,0:0:0:0:
145,246,119810,1,8,0:0:0:0:
33,157,119992,1,0,0:0:0:0:
234,134,120175,6,0,P|283:193|287:269,1,150.000000447035,2|0,0:0|0:0,0:0:0:0:
288,263,120541,1,8,0:0:0:0:
148,245,120724,1,0,0:0:0:0:
108,156,120907,2,0,L|58:159,1,50.0000001490115,2|0,0:0|0:0,0:0:0:0:
68,67,121089,2,0,L|18:70,1,50.0000001490115
165,76,121272,1,8,0:0:0:0:
148,245,121455,1,0,0:0:0:0:
256,192,121638,12,2,123101,0:0:0:0:
184,120,123283,5,0,0:0:0:0:
288,224,123466,1,8,0:0:0:0:
327,82,123649,1,0,0:0:0:0:
145,262,123832,1,2,0:0:0:0:
132,214,123923,1,0,0:0:0:0:
109,175,124014,1,0,0:0:0:0:
136,134,124106,1,0,0:0:0:0:
183,120,124197,1,8,0:0:0:0:
