osu file format v14

[General]
AudioFilename: Victoria Justice and Elizabeth Gillies - Take A Hint.mp3
AudioLeadIn: 0
PreviewTime: 34973
Countdown: 0
SampleSet: Normal
StackLeniency: 0.4
Mode: 0
LetterboxInBreaks: 0
WidescreenStoryboard: 1

[Editor]
DistanceSpacing: 1.5
BeatDivisor: 4
GridSize: 4
TimelineZoom: 2.699999

[Metadata]
Title:Take A Hint (Speed Up Ver.)
TitleUnicode:Take A Hint (Speed Up Ver.)
Artist:Victoria Justice and Elizabeth Gillies
ArtistUnicode:Victoria Justice and Elizabeth Gillies
Creator:Azulae
Version:Standard
Source:Victorious
Tags:TV Jade Vanilla Chocola Series Nightcore Mix
BeatmapID:779866
BeatmapSetID:322223

[Difficulty]
HPDrainRate:3
CircleSize:3
OverallDifficulty:4
ApproachRate:5
SliderMultiplier:1.20000000596046
SliderTickRate:1

[Events]
//Background and Video events
0,0,"BG.jpg",0,0
//Break Periods
2,6085,10736
2,52891,56811
2,82145,86796
//Storyboard Layer 0 (Background)
//Storyboard Layer 1 (Fail)
//Storyboard Layer 2 (Pass)
//Storyboard Layer 3 (Foreground)
//Storyboard Sound Samples

[TimingPoints]
235,365.673051724453,4,2,1,20,1,0
6085,-100,4,1,1,40,0,0
21444,-100,4,1,1,35,0,0
22175,-100,4,1,1,30,0,0
22906,-100,4,1,1,25,0,0
23638,-100,4,1,1,55,0,0
34973,-100,4,1,1,80,0,0
35339,-100,4,1,1,70,0,1
39727,-100,4,1,1,100,0,1
40093,-100,4,1,1,70,0,1
47041,-100,4,1,1,40,0,0
58011,-133.333333333333,4,1,1,20,0,0
58377,-133.333333333333,4,1,2,100,0,0
58422,-133.333333333333,4,1,1,35,0,0
58742,-100,4,1,1,50,0,0
64227,-100,4,1,1,80,0,0
64593,-100,4,1,1,70,0,1
68981,-100,4,1,1,100,0,1
69347,-100,4,1,1,70,0,1
76294,-100,4,1,1,40,0,0
95309,-100,4,2,1,30,0,0
99698,-100,4,1,1,80,0,0
100063,-100,4,1,1,20,0,0
101160,-83.3333333333333,4,1,1,85,0,1
111399,-83.3333333333333,4,1,1,80,0,0
112862,-83.3333333333333,4,1,1,80,0,1
117250,-83.3333333333333,4,1,1,100,0,1
117616,-83.3333333333333,4,1,1,80,0,1
118713,-100,4,1,1,60,0,0

[Colours]
Combo1 : 213,0,213
Combo2 : 255,0,255
Combo3 : 255,0,128
Combo4 : 128,0,128

[HitObjects]
301,268,235,6,0,B|274:299|274:299|227:283|180:299|180:299|151:266,1,180.000000894069
64,297,966,2,0,P|60:239|95:192,1,120.000000596046
116,68,1697,6,0,B|113:109|113:109|157:130|179:175|179:175|222:171,1,180.000000894069
271,258,2429,2,0,B|151:265,1,120.000000596046
95,192,3160,6,0,B|119:140|112:105|112:105|146:112|198:88,1,180.000000894069
284,56,3891,2,0,P|288:114|253:161,1,120.000000596046
271,258,4623,6,0,B|216:277|196:306|196:306|177:277|123:256,1,180.000000894069
198,194,5354,2,0,L|198:134,2,60.000000298023
284,152,11936,6,0,B|220:216|220:216|220:252,1,120.000000596046,2|8,0:0|0:0,0:0:0:0:
304,330,12667,2,0,B|368:266|368:266|368:230,1,120.000000596046,2|8,0:0|0:0,0:0:0:0:
368,116,13399,6,0,B|344:92|344:92|256:92,1,120.000000596046,2|8,0:0|0:0,0:0:0:0:
215,134,13947,2,0,L|155:194,1,60.000000298023,0|2,0:0|0:0,0:0:0:0:
168,316,14496,1,8,0:0:0:0:
168,316,14861,6,0,B|208:308|208:308|180:268|206:209,1,120.000000596046,2|8,0:0|0:0,0:0:0:0:
309,270,15593,2,0,B|269:262|269:262|297:222|271:163,1,120.000000596046,2|8,0:0|0:0,0:0:0:0:
156,120,16324,6,0,L|108:232,1,120.000000596046,2|8,0:0|0:0,0:0:0:0:
164,252,16873,2,0,L|139:308,1,60.000000298023,0|2,0:0|0:0,0:0:0:0:
309,270,17421,1,8,0:0:0:0:
309,270,17787,6,0,B|337:258|337:258|321:230|337:202|337:202|309:190,1,120.000000596046,2|8,0:0|0:0,0:0:0:0:
203,270,18518,2,0,B|175:258|175:258|191:230|175:202|175:202|203:190,1,120.000000596046,0|8,0:0|0:0,0:0:0:0:
256,56,19249,6,0,B|268:84|268:84|241:113|239:141|251:177,1,120.000000596046,0|8,0:0|0:0,0:0:0:0:
320,140,19798,2,0,L|375:162,1,60.000000298023,0|2,0:0|0:0,0:0:0:0:
290,247,20347,1,8,0:0:0:0:
130,197,20712,6,0,L|174:69,1,120.000000596046,2|8,0:0|0:0,0:0:0:0:
210,222,21444,6,0,L|250:109,1,120.000000596046,2|8,0:0|0:0,0:0:0:0:
290,247,22175,6,0,L|330:134,1,120.000000596046,2|8,0:0|0:0,0:0:0:0:
370,272,22906,6,0,L|412:148,1,120.000000596046,2|0,0:0|0:0,0:0:0:0:
429,63,23638,6,0,L|315:24,1,120.000000596046,2|8,0:0|0:0,0:0:0:0:
315,144,24369,2,0,L|429:183,1,120.000000596046,2|8,0:0|0:0,0:0:0:0:
370,272,25100,6,0,P|306:320|266:320,1,120.000000596046,2|8,0:0|0:0,0:0:0:0:
156,288,25832,2,0,L|117:174,1,120.000000596046,2|8,0:0|0:0,0:0:0:0:
172,68,26563,6,0,L|211:182,1,120.000000596046,2|8,0:0|0:0,0:0:0:0:
330,181,27294,2,0,L|291:295,1,120.000000596046,2|8,0:0|0:0,0:0:0:0:
234,274,27843,1,0,0:0:0:0:
177,254,28026,6,0,P|112:238|83:179,1,120.000000596046,2|8,0:0|0:0,0:0:0:0:
160,180,28574,2,0,L|192:128,1,60.000000298023,0|2,0:0|0:0,0:0:0:0:
307,147,29123,1,8,0:0:0:0:
423,129,29488,6,0,P|407:194|348:223,1,120.000000596046,2|8,0:0|0:0,0:0:0:0:
244,220,30220,2,0,P|260:155|319:126,1,120.000000596046,2|8,0:0|0:0,0:0:0:0:
207,57,30951,6,0,P|191:122|132:151,1,120.000000596046,2|8,0:0|0:0,0:0:0:0:
28,148,31682,2,0,P|44:83|103:54,1,120.000000596046,2|8,0:0|0:0,0:0:0:0:
143,37,32231,1,0,0:0:0:0:
200,57,32414,6,0,B|201:111|201:111|198:131|198:131|200:177,1,120.000000596046,2|8,0:0|0:0,0:0:0:0:
320,176,33145,2,0,B|282:215|282:215|266:227|266:227|235:260,1,120.000000596046,2|8,0:0|0:0,0:0:0:0:
115,260,33876,5,2,0:0:0:0:
115,139,34242,2,0,L|200:177,2,60.000000298023,10|2|2,0:0|0:0|0:0,0:0:0:0:
96,248,34973,1,10,0:0:0:0:
198,267,35339,5,6,0:0:0:0:
307,245,35705,2,0,L|346:157,1,60.000000298023,8|0,0:0|0:0,0:0:0:0:
380,80,36070,2,0,L|438:211,1,120.000000596046,2|8,0:0|0:0,0:0:0:0:
379,299,36802,6,0,B|330:331|330:331|269:327,1,120.000000596046,2|8,0:0|0:0,0:0:0:0:
181,322,37350,2,0,L|150:254,1,60.000000298023,0|2,0:0|0:0,0:0:0:0:
107,157,37899,1,8,0:0:0:0:
218,108,38264,6,0,L|273:233,1,120.000000596046,2|8,0:0|0:0,0:0:0:0:
303,301,38813,2,0,L|359:279,1,60.000000298023,0|2,0:0|0:0,0:0:0:0:
402,165,39362,1,8,0:0:0:0:
360,51,39727,6,2,L|240:96,1,120.000000596046,6|8,0:0|0:0,0:0:0:0:
247,184,40276,2,0,L|247:272,1,60.000000298023,8|2,0:0|0:0,0:0:0:0:
76,188,40824,2,0,L|76:100,1,60.000000298023,8|8,0:0|0:0,0:0:0:0:
76,37,41190,5,6,0:0:0:0:
247,41,41556,2,0,L|303:63,2,60.000000298023,8|0|2,0:0|0:0|0:0,0:0:0:0:
95,49,42287,1,8,0:0:0:0:
95,200,42653,6,0,B|123:228|123:228|123:316,1,120.000000596046,2|8,0:0|0:0,0:0:0:0:
204,292,43201,2,0,L|204:232,1,60.000000298023,0|2,0:0|0:0,0:0:0:0:
43,265,43750,1,8,0:0:0:0:
164,160,44115,6,0,B|192:132|192:132|272:132,1,120.000000596046,2|8,0:0|0:0,0:0:0:0:
362,132,44664,2,0,B|376:132|376:132|408:100,1,60.000000298023,0|2,0:0|0:0,0:0:0:0:
272,52,45212,1,8,0:0:0:0:
136,76,45578,6,0,L|88:124,2,60.000000298023,2|2|8,0:0|0:0|0:0,0:0:0:0:
194,214,46309,2,0,L|152:172,2,60.000000298023,2|2|8,0:0|0:0|0:0,0:0:0:0:
249,157,47041,6,0,L|334:73,1,120.000000596046,2|8,0:0|0:0,0:0:0:0:
418,157,47772,2,0,B|442:181|442:181|418:265,1,120.000000596046,2|8,0:0|0:0,0:0:0:0:
298,263,48503,6,0,B|256:338|256:338|222:338,1,120.000000596046,2|8,0:0|0:0,0:0:0:0:
137,253,49235,2,0,L|221:168,1,120.000000596046,2|8,0:0|0:0,0:0:0:0:
256,192,49966,12,2,51429,0:0:0:0:
216,128,58011,6,0,B|237:215|237:215|180:229,1,135.000005820393
328,236,58742,6,0,L|312:169,1,60.000000298023,2|0,0:0|0:0,0:0:0:0:
294,105,59108,2,0,P|252:55|190:48,2,120.000000596046,8|2|8,0:0|0:0|0:0,0:0:0:0:
368,124,60022,1,0,0:0:0:0:
396,196,60205,6,0,L|426:325,1,120.000000596046,2|8,0:0|0:0,0:0:0:0:
356,348,60753,1,0,0:0:0:0:
288,312,60936,2,0,L|257:182,1,120.000000596046,2|8,0:0|0:0,0:0:0:0:
450,139,61668,6,0,P|437:81|391:46,1,120.000000596046,2|8,0:0|0:0,0:0:0:0:
345,202,62399,2,0,P|298:166|286:109,1,120.000000596046,2|8,0:0|0:0,0:0:0:0:
218,74,62947,1,0,0:0:0:0:
151,110,63130,6,0,L|98:143,1,60.000000298023,2|2,0:0|0:0,0:0:0:0:
136,209,63496,2,0,L|202:313,1,120.000000596046,10|2,0:0|0:0,0:0:0:0:
311,310,64227,1,10,0:0:0:0:
311,199,64593,5,6,0:0:0:0:
232,176,64959,2,0,L|277:102,1,60.000000298023,8|0,0:0|0:0,0:0:0:0:
153,153,65324,2,0,L|217:51,1,120.000000596046,2|8,0:0|0:0,0:0:0:0:
331,87,66056,6,0,B|331:178|331:178|307:202,1,120.000000596046,2|8,0:0|0:0,0:0:0:0:
246,262,66604,2,0,B|194:313,1,60.000000298023,0|2,0:0|0:0,0:0:0:0:
332,284,67153,1,8,0:0:0:0:
417,262,67518,6,0,L|413:127,1,120.000000596046,2|8,0:0|0:0,0:0:0:0:
335,179,68067,2,0,L|338:239,1,60.000000298023,0|2,0:0|0:0,0:0:0:0:
259,216,68615,1,8,0:0:0:0:
345,100,68981,5,6,0:0:0:0:
167,100,69347,2,0,L|147:162,1,60.000000298023,8|8,0:0|0:0,0:0:0:0:
187,231,69712,2,0,L|72:194,1,120.000000596046,2|8,0:0|0:0,0:0:0:0:
109,80,70261,2,0,L|90:136,1,60.000000298023,8|6,0:0|0:0,0:0:0:0:
226,165,70809,6,0,L|246:103,1,60.000000298023,8|0,0:0|0:0,0:0:0:0:
305,188,71175,2,0,L|267:305,1,120.000000596046,2|8,0:0|0:0,0:0:0:0:
189,279,71906,6,0,L|132:168,1,120.000000596046,2|8,0:0|0:0,0:0:0:0:
226,165,72455,2,0,L|206:103,1,60.000000298023,0|2,0:0|0:0,0:0:0:0:
305,188,73003,1,8,0:0:0:0:
170,38,73369,6,0,L|208:158,1,120.000000596046,2|8,0:0|0:0,0:0:0:0:
234,237,73918,2,0,L|176:255,1,60.000000298023,0|2,0:0|0:0,0:0:0:0:
285,175,74466,1,8,0:0:0:0:
234,113,74832,6,0,L|176:94,2,60.000000298023,2|2|8,0:0|0:0|0:0,0:0:0:0:
234,271,75563,2,0,L|176:289,2,60.000000298023,2|2|8,0:0|0:0|0:0,0:0:0:0:
284,192,76294,6,0,L|416:192,1,120.000000596046,2|8,0:0|0:0,0:0:0:0:
318,106,77026,2,0,B|318:72|318:72|243:30,1,120.000000596046,2|8,0:0|0:0,0:0:0:0:
158,114,77757,6,0,L|64:207,1,120.000000596046,2|8,0:0|0:0,0:0:0:0:
158,284,78489,2,0,B|182:308|182:308|264:284,1,120.000000596046,2|8,0:0|0:0,0:0:0:0:
256,192,79220,12,0,80683,3:0:0:0:
340,104,87996,6,0,L|376:220,1,120.000000596046,2|2,0:0|0:0,0:0:0:0:
284,192,88727,2,0,L|248:308,1,120.000000596046,2|2,0:0|0:0,0:0:0:0:
211,157,89459,6,0,L|176:272,1,120.000000596046,2|2,0:0|0:0,0:0:0:0:
88,339,90190,2,0,L|194:283,1,120.000000596046,2|2,0:0|0:0,0:0:0:0:
62,264,90921,6,0,L|169:207,1,120.000000596046,2|2,0:0|0:0,0:0:0:0:
284,168,91653,2,0,L|169:132,1,120.000000596046,2|2,0:0|0:0,0:0:0:0:
328,96,92384,5,2,0:0:0:0:
347,108,93115,1,2,0:0:0:0:
368,120,93847,2,0,B|396:172|396:172|368:228|368:228|396:280|396:280|368:332,1,240.000001192092,2|2,0:0|0:0,0:0:0:0:
308,176,94944,5,2,2:2:0:0:
308,280,95309,1,2,0:0:0:0:
456,228,96772,5,2,0:0:0:0:
228,228,98235,5,2,0:0:0:0:
311,199,99698,5,14,0:0:0:0:
232,176,100063,2,0,L|277:102,1,60.000000298023
153,153,100429,2,0,L|217:51,1,120.000000596046
293,73,100977,2,0,L|262:125,1,60.000000298023,0|6,0:0|0:0,0:0:0:0:
194,237,101526,6,0,L|232:176,1,71.999998160362,8|0,0:0|0:0,0:0:0:0:
248,323,101892,2,0,L|325:202,1,143.999996320724,2|8,0:0|0:0,0:0:0:0:
304,132,102440,1,0,0:0:0:0:
282,62,102623,6,0,L|142:93,1,143.999996320724,2|8,0:0|0:0,0:0:0:0:
190,179,103171,2,0,L|260:162,2,71.999998160362,0|2|0,0:0|0:0|0:0,0:0:0:0:
96,176,103720,2,0,L|26:158,1,71.999998160362,8|0,0:0|0:0,0:0:0:0:
5,59,104086,6,0,L|144:90,1,143.999996320724,2|8,0:0|0:0,0:0:0:0:
190,179,104634,2,0,L|207:249,2,71.999998160362,0|2|0,0:0|0:0|0:0,0:0:0:0:
283,209,105183,2,0,L|300:278,1,71.999998160362,8|0,0:0|0:0,0:0:0:0:
375,238,105548,6,0,L|357:168,1,71.999998160362,2|2,3:0|3:0,0:0:0:0:
265,139,105914,2,0,L|247:69,1,71.999998160362,2|2,3:0|3:0,0:0:0:0:
173,168,106280,2,0,L|193:251,1,71.999998160362,2|2,3:0|3:0,0:0:0:0:
98,266,106645,2,0,L|115:335,1,71.999998160362,2|2,3:0|3:0,0:0:0:0:
207,307,107011,6,0,L|368:268,1,143.999996320724,6|8,0:0|0:0,0:0:0:0:
312,134,107742,2,0,L|151:173,1,143.999996320724,2|8,0:0|0:0,0:0:0:0:
160,245,108291,1,0,0:0:0:0:
207,307,108474,6,0,L|287:287,1,71.999998160362,2|0,0:0|0:0,0:0:0:0:
328,203,108839,2,0,L|308:122,2,71.999998160362,8|0|2,0:0|0:0|0:0,0:0:0:0:
184,203,109571,2,0,L|203:122,1,71.999998160362,8|0,0:0|0:0,0:0:0:0:
256,232,109936,6,0,B|256:332|256:332|288:364,1,143.999996320724,6|8,0:0|0:0,0:0:0:0:
336,300,110485,1,0,0:0:0:0:
416,232,110668,2,0,B|416:332|416:332|384:364,1,143.999996320724,2|8,0:0|0:0,0:0:0:0:
336,300,111216,1,0,0:0:0:0:
336,220,111399,6,0,L|316:140,2,71.999998160362,2|8|8,0:0|0:0|0:0,0:0:0:0:
176,220,112130,2,0,L|196:140,2,71.999998160362,2|8|8,0:0|0:0|0:0,0:0:0:0:
256,88,112862,5,6,0:0:0:0:
255,240,113227,2,0,L|255:312,1,71.999998160362,8|0,0:0|0:0,0:0:0:0:
171,302,113593,2,0,P|118:278|100:190,1,143.999996320724,2|8,0:0|0:0,0:0:0:0:
176,220,114142,1,0,0:0:0:0:
180,137,114324,6,0,P|233:161|251:249,1,143.999996320724,2|8,0:0|0:0,0:0:0:0:
341,242,114873,2,0,L|400:184,2,71.999998160362,0|2|0,0:0|0:0|0:0,0:0:0:0:
256,324,115422,2,0,L|174:336,1,71.999998160362,8|0,0:0|0:0,0:0:0:0:
93,216,115787,6,0,P|117:163|205:145,1,143.999996320724,2|8,0:0|0:0,0:0:0:0:
176,220,116336,1,0,0:0:0:0:
256,196,116519,2,0,L|322:147,1,71.999998160362,2|0,0:0|0:0,0:0:0:0:
340,241,116884,2,0,L|412:253,1,71.999998160362,8|0,0:0|0:0,0:0:0:0:
367,333,117250,5,6,0:0:0:0:
216,344,117616,2,0,L|145:333,1,71.999998160362,10|2,0:0|0:0,0:0:0:0:
171,241,117981,2,0,L|183:170,1,71.999998160362,2|2,0:0|0:0,0:0:0:0:
329,170,118347,2,0,L|340:241,1,71.999998160362,10|2,0:0|0:0,0:0:0:0:
256,248,118713,6,0,L|256:128,1,120.000000596046,6|8,0:0|0:0,0:0:0:0:
340,92,119261,1,0,0:0:0:0:
424,128,119444,2,0,B|424:210|424:210|397:237,1,120.000000596046,2|8,0:0|0:0,0:0:0:0:
333,300,119992,2,0,L|289:344,1,60.000000298023,0|2,0:0|0:0,0:0:0:0:
300,220,120541,5,8,0:0:0:0:
208,224,120724,2,0,L|192:160,1,60.000000298023,0|2,0:0|0:0,0:0:0:0:
304,224,121089,2,0,L|320:160,1,60.000000298023,0|8,0:0|0:0,0:0:0:0:
256,192,121638,12,2,123101,0:0:0:0:
256,192,123466,5,8,0:0:0:0:
343,155,123649,2,0,L|323:236,1,60.000000298023,0|2,0:0|0:0,0:0:0:0:
169,155,124015,2,0,L|189:236,1,60.000000298023,0|8,0:0|0:0,0:0:0:0:
