osu file format v14

[General]
AudioFilename: Nightcore - Take A Hint.mp3
AudioLeadIn: 0
PreviewTime: -1
Countdown: 0
SampleSet: None
StackLeniency: 0.7
Mode: 0
LetterboxInBreaks: 0
WidescreenStoryboard: 0

[Editor]
DistanceSpacing: 1.8
BeatDivisor: 2
GridSize: 4
TimelineZoom: 1.4

[Metadata]
Title:Take A Hint (Nightcore)
TitleUnicode:Take A Hint (Nightcore)
Artist:Victoria Justice and Elizabeth Gillies
ArtistUnicode:Victoria Justice and Elizabeth Gillies
Creator:Sh0keR
Version:Insane
Source:
Tags:
BeatmapID:1411242
BeatmapSetID:666878

[Difficulty]
HPDrainRate:7
CircleSize:5.2
OverallDifficulty:8
ApproachRate:9.2
SliderMultiplier:1.6
SliderTickRate:1

[Events]
//Background and Video events
//Break Periods
2,47445,52163
//Storyboard Layer 0 (Background)
//Storyboard Layer 1 (Fail)
//Storyboard Layer 2 (Pass)
//Storyboard Layer 3 (Foreground)
//Storyboard Sound Samples

[TimingPoints]
6100,365.753658536585,4,2,0,100,1,0
11845,-76.9230769230769,4,2,0,60,0,0
17149,-100,4,1,0,60,0,0
20715,-76.9230769230769,4,2,0,56,0,0
23549,-100,4,1,0,60,0,0
29218,-200,4,2,0,60,0,0
33699,-100,4,1,0,60,0,0
34796,-66.6666666666667,4,2,0,60,0,0
35345,-66.6666666666667,4,1,0,80,0,1
47430,-100,4,2,0,60,0,0
52733,-100,4,2,0,34,0,0
64254,-76.9230769230769,4,1,0,70,0,1

[HitObjects]
96,148,6084,6,0,P|128:224|200:240,1,160
248,176,6648,1,0,0:0:0:0:
328,164,6831,1,0,0:0:0:0:
360,236,7014,1,0,0:0:0:0:
360,236,7197,1,0,0:0:0:0:
440,224,7380,1,0,0:0:0:0:
484,136,7563,2,0,P|356:100|312:112,1,160
116,252,8111,5,0,0:0:0:0:
196,264,8294,1,0,0:0:0:0:
276,260,8477,1,0,0:0:0:0:
356,248,8660,1,0,0:0:0:0:
444,56,9026,6,0,B|468:108|488:124|388:176,1,160
316,140,9574,1,0,0:0:0:0:
264,200,9757,1,0,0:0:0:0:
212,140,9940,1,0,0:0:0:0:
160,200,10123,1,0,0:0:0:0:
220,252,10306,1,0,0:0:0:0:
220,252,10489,2,0,P|320:256|360:216,1,160
412,156,11037,5,0,0:0:0:0:
340,124,11220,2,0,P|244:84|240:84,2,80
100,252,11952,6,0,P|160:296|204:304,1,103.999995239258
368,108,12317,2,0,P|308:64|264:56,1,103.999995239258
140,124,12683,2,0,P|104:196|120:244,1,103.999995239258
284,344,13049,2,0,P|356:336|388:300,1,103.999995239258
240,120,13415,2,0,P|340:104|364:136,1,103.999995239258
408,168,13780,2,0,P|340:220|308:224,1,103.999995239258
220,224,14146,1,0,0:0:0:0:
276,156,14329,1,8,0:0:0:0:
304,125,14420,1,8,0:0:0:0:
332,94,14511,1,8,0:0:0:0:
480,112,14695,6,0,L|504:216,1,103.999995239258
300,252,15060,2,0,L|264:148,1,103.999995239258
480,112,15426,2,0,L|504:216,1,103.999995239258
304,284,15792,2,0,L|200:224,1,103.999995239258
324,52,16158,2,0,L|448:128,1,103.999995239258
472,208,16523,2,0,L|360:256,1,103.999995239258
168,240,16889,2,0,L|108:148,1,103.999995239258
264,92,17255,5,8,0:0:0:0:
472,224,17438,1,8,0:0:0:0:
260,96,17621,1,0,0:0:0:0:
184,68,17804,2,0,P|176:128|200:176,1,80
200,208,18169,1,0,0:0:0:0:
252,244,18352,1,0,0:0:0:0:
312,264,18535,2,0,B|408:204|344:144|456:164,1,160
428,96,19084,6,0,P|356:92|340:72,1,80
304,52,19450,2,0,P|267:36|229:46,1,80
240,108,19815,2,0,P|168:104|152:84,1,80
165,101,20181,1,0,0:0:0:0:
165,101,20364,1,0,0:0:0:0:
165,101,20547,1,0,0:0:0:0:
172,184,20730,6,0,L|276:236,1,103.999995239258
384,128,21095,2,0,L|284:80,1,103.999995239258
144,136,21461,2,0,L|176:272,1,103.999995239258
292,336,21827,2,0,L|424:312,1,103.999995239258
388,160,22193,2,0,L|288:200,1,103.999995239258
332,256,22558,2,0,L|440:212,1,103.999995239258
476,140,22924,2,0,L|436:28,1,103.999995239258
288,72,23290,2,0,L|208:192,1,103.999995239258
44,344,23656,5,0,0:0:0:0:
44,344,23839,1,0,0:0:0:0:
44,344,24021,1,0,0:0:0:0:
44,344,24204,1,0,0:0:0:0:
144,292,24387,2,0,P|216:308|252:300,1,80
304,272,24753,2,0,P|336:212|312:184,1,80
276,140,25119,2,0,P|208:176|208:200,1,80
232,256,25484,2,0,P|300:252|324:224,1,80
380,200,25850,1,0,0:0:0:0:
344,120,26033,1,8,0:0:0:0:
304,100,26125,1,8,0:0:0:0:
276,136,26216,1,8,0:0:0:0:
136,168,26399,6,0,B|148:228|104:252|160:256,1,80
240,340,26765,2,0,B|300:328|324:372|328:316,1,80
404,200,27130,2,0,B|392:140|436:116|380:112,1,80
160,40,27496,2,0,B|100:52|76:8|72:64,1,80
8,160,27862,2,0,B|20:220|-24:244|32:248,1,80
168,288,28228,2,0,B|228:276|252:320|256:264,1,80
336,144,28593,2,0,B|348:88|268:76,1,80
176,96,28959,1,0,0:0:0:0:
120,120,29051,1,0,0:0:0:0:
120,180,29142,1,0,0:0:0:0:
208,260,29325,6,0,P|272:260|304:248,1,80
288,184,29873,1,0,0:0:0:0:
228,184,30056,2,0,P|164:192|144:216,1,80
184,256,30605,1,0,0:0:0:0:
240,276,30788,1,0,0:0:0:0:
300,264,30971,2,0,P|360:260|388:236,1,80
344,200,31519,1,0,0:0:0:0:
296,164,31702,1,0,0:0:0:0:
240,144,31885,2,0,B|184:156|200:152,1,40
220,212,32251,6,0,L|260:244,2,40
324,152,32982,2,0,L|288:116,2,40
152,152,33714,6,0,L|220:216,1,80
304,232,34080,2,0,L|364:152,1,80
264,128,34445,2,0,L|156:128,1,80
148,204,34811,2,0,P|176:304|308:288,1,240.000009155274
396,200,35360,6,0,L|300:116,1,120.000004577637
84,72,35726,1,0,0:0:0:0:
276,196,35908,1,0,0:0:0:0:
76,304,36091,1,0,0:0:0:0:
304,312,36274,1,0,0:0:0:0:
376,248,36457,2,0,P|436:224|464:164,1,120.000004577637
352,100,36823,2,0,P|260:92|208:112,1,120.000004577637
64,252,37189,5,0,0:0:0:0:
280,316,37371,1,0,0:0:0:0:
144,136,37554,1,0,0:0:0:0:
364,196,37737,1,0,0:0:0:0:
476,128,37920,2,0,P|448:72|372:28,1,120.000004577637
248,60,38286,2,0,P|192:88|148:164,1,120.000004577637
224,260,38652,5,0,0:0:0:0:
452,100,38834,1,0,0:0:0:0:
320,184,39017,1,0,0:0:0:0:
316,164,39200,1,0,0:0:0:0:
316,164,39383,1,0,0:0:0:0:
160,176,39566,1,0,0:0:0:0:
248,304,39749,2,0,P|316:284|360:232,1,120.000004577637
372,184,40115,5,0,0:0:0:0:
280,32,40298,1,0,0:0:0:0:
144,100,40480,2,0,P|128:164|164:224,1,120.000004577637
272,200,40846,5,0,0:0:0:0:
160,52,41029,1,0,0:0:0:0:
24,120,41211,2,0,P|8:184|44:244,1,120.000004577637
144,200,41578,5,0,0:0:0:0:
352,68,41760,1,0,0:0:0:0:
504,144,41943,1,0,0:0:0:0:
472,284,42126,1,0,0:0:0:0:
472,284,42309,1,0,0:0:0:0:
472,284,42492,2,0,P|360:344|344:344,1,120.000004577637
68,336,42858,5,0,0:0:0:0:
288,272,43041,1,0,0:0:0:0:
76,192,43223,1,0,0:0:0:0:
300,148,43406,1,0,0:0:0:0:
88,68,43589,1,0,0:0:0:0:
316,68,43772,1,0,0:0:0:0:
316,68,43955,1,0,0:0:0:0:
316,68,44138,2,0,P|376:96|404:168,1,120.000004577637
344,260,44504,6,0,P|264:268|200:224,1,120.000004577637
120,52,44869,1,0,0:0:0:0:
120,52,45052,1,0,0:0:0:0:
116,56,45235,2,0,P|196:48|260:92,1,120.000004577637
372,244,45601,2,0,P|312:292|232:304,1,120.000004577637
92,164,45967,5,0,0:0:0:0:
292,28,46150,1,0,0:0:0:0:
432,144,46332,2,0,P|420:204|344:248,1,120.000004577637
172,232,46698,5,0,0:0:0:0:
372,96,46881,1,0,0:0:0:0:
512,212,47063,2,0,P|500:272|424:316,1,120.000004577637
395,124,52733,6,0,L|326:193,1,80
260,131,53099,1,0,0:0:0:0:
185,113,53282,2,0,P|162:159|174:220,1,80
258,174,53647,1,0,0:0:0:0:
291,84,53830,1,0,0:0:0:0:
209,234,54013,6,0,L|131:176,1,80
137,111,54379,2,0,L|258:74,1,80
309,97,54745,2,0,P|351:151|353:197,2,80
309,97,55202,1,0,0:0:0:0:
309,97,55293,1,0,0:0:0:0:
309,97,55385,1,0,0:0:0:0:
126,92,55659,6,0,P|140:139|229:173,1,80
195,232,56025,1,0,0:0:0:0:
251,135,56208,1,0,0:0:0:0:
153,79,56391,1,0,0:0:0:0:
90,172,56574,1,0,0:0:0:0:
90,172,56756,2,0,P|159:228|172:227,1,80
256,225,57122,1,0,0:0:0:0:
368,223,57305,1,0,0:0:0:0:
368,223,57488,2,0,P|396:180|382:132,1,80
256,192,57854,12,0,58402,0:0:0:0:
130,68,58585,6,0,P|93:117|106:156,1,80
174,185,58951,1,0,0:0:0:0:
269,173,59134,1,0,0:0:0:0:
191,115,59317,1,0,0:0:0:0:
285,97,59500,1,0,0:0:0:0:
380,98,59682,2,0,P|414:175|408:192,2,80
255,78,60231,6,0,L|176:123,1,80
215,164,60597,1,0,0:0:0:0:
245,204,60780,1,0,0:0:0:0:
281,236,60963,2,0,B|341:258|361:217|366:250|376:233|391:226|403:219|403:219|395:239|395:245|464:236,1,160
476,303,61511,6,0,L|352:333,1,80
260,55,62243,2,0,L|165:109,1,80
446,227,62974,6,0,L|363:268,1,80
379,166,63340,2,0,L|282:214,1,80
236,135,63706,2,0,L|156:196,1,80
298,77,64254,6,2,B|346:130|239:158|347:168|207:169|312:217|191:187|238:216|221:257,1,207.999990478516
316,267,64803,1,0,0:0:0:0:
452,194,64986,1,0,0:0:0:0:
289,168,65169,1,0,0:0:0:0:
436,67,65352,1,0,0:0:0:0:
281,50,65534,1,0,0:0:0:0:
375,249,65717,2,0,P|454:169|440:135,1,103.999995239258
310,56,66083,2,0,P|240:68|205:108,1,103.999995239258
116,208,66449,5,0,0:0:0:0:
236,304,66632,1,0,0:0:0:0:
388,332,66815,1,0,0:0:0:0:
508,236,66997,1,0,0:0:0:0:
290,290,67180,1,0,0:0:0:0:
290,290,67363,2,0,L|398:277,2,103.999995239258
132,292,67912,5,0,0:0:0:0:
296,200,68095,1,0,0:0:0:0:
120,136,68278,1,0,0:0:0:0:
300,92,68460,1,0,0:0:0:0:
276,312,68643,1,0,0:0:0:0:
276,312,68826,1,0,0:0:0:0:
400,100,69009,2,0,P|436:201|406:217,1,103.999995239258
282,280,69375,5,0,0:0:0:0:
113,157,69558,1,0,0:0:0:0:
303,73,69741,2,0,L|383:160,1,103.999995239258
229,299,70106,5,0,0:0:0:0:
60,176,70289,1,0,0:0:0:0:
250,92,70472,2,0,L|330:179,1,103.999995239258
