osu file format v14

[General]
AudioFilename: Victorious Theme.mp3
AudioLeadIn: 0
PreviewTime: 28255
Countdown: 0
SampleSet: Soft
StackLeniency: 0.7
Mode: 0
LetterboxInBreaks: 0
WidescreenStoryboard: 0

[Editor]
DistanceSpacing: 1
BeatDivisor: 4
GridSize: 4
TimelineZoom: 1

[Metadata]
Title:Make It Shine
TitleUnicode:Make It Shine
Artist:Victoria Justice
ArtistUnicode:Victoria Justice
Creator:MkGuh
Version:Rocket's Easy
Source:Victorious
Tags:Ariana Grande Leon Thomas III Matt Bennett Elizabeth Gillies Avan Jogia Daniella Monet ezek happyrocket88 gero nickelodeon nick tv show serie kids teen teenager dan schneider english pop sitcom Tori Vega Andre Harris Robbie Shapiro Jade West Cat Valentine Beck Oliver Trina Vega hollywood art arts music talent
BeatmapID:1404806
BeatmapSetID:663704

[Difficulty]
HPDrainRate:2
CircleSize:2
OverallDifficulty:2
ApproachRate:2
SliderMultiplier:1
SliderTickRate:1

[Events]
//Background and Video events
Video,1842,"ViDeO.avi"
0,0,"MkTorious.jpg",0,0
//Break Periods
//Storyboard Layer 0 (Background)
//Storyboard Layer 1 (Fail)
//Storyboard Layer 2 (Pass)
//Storyboard Layer 3 (Foreground)
//Storyboard Sound Samples

[TimingPoints]
795,437.956204379562,4,2,0,60,1,0
14792,437.956204379562,4,2,0,70,1,0
28814,437.956204379562,4,2,0,80,1,1
41952,-100,4,2,0,80,0,0
42838,437.956204379562,4,2,0,80,1,1
56851,437.956204379562,4,2,0,70,1,0

[Colours]
Combo1 : 255,128,192
Combo2 : 60,255,60
Combo3 : 0,128,255
Combo4 : 255,128,0

[HitObjects]
266,172,795,6,0,P|357:154|417:252,1,200,2|2,0:0|0:0,0:0:0:0:
369,330,2108,1,4,3:0:0:0:
327,239,2546,2,0,B|314:190|262:170|262:170|204:156|193:84,1,200,2|2,0:0|0:0,0:0:0:0:
225,4,3860,1,4,3:0:0:0:
287,82,4298,6,0,B|303:135|256:173|256:173|217:213|227:262,1,200,2|2,0:0|0:0,0:0:0:0:
167,341,5612,1,4,3:0:0:0:
90,276,6050,2,0,P|44:255|-8:263,1,100,2|4,0:0|3:0,0:0:0:0:
29,355,6926,2,0,P|75:376|127:368,1,100,2|4,0:0|3:0,0:0:0:0:
184,290,7802,6,0,B|195:243|154:200|154:200|209:184|222:121,1,200,2|2,0:0|0:0,0:0:0:0:
192,32,9116,1,4,3:0:0:0:
94,17,9554,2,0,P|101:76|138:119,1,100,2|4,0:0|3:0,0:0:0:0:
219,130,10430,2,0,P|261:107|287:50,1,100,2|4,0:0|3:0,0:0:0:0:
370,105,11305,6,0,B|397:154|452:152|452:152|418:180|429:245|429:245|374:239|342:282|342:282|334:227|278:205,1,400,2|2,0:0|0:0,0:0:0:0:
185,222,13495,2,0,P|148:267|145:314,1,100,4|2,3:0|0:0,0:0:0:0:
245,300,14371,1,8,0:0:0:0:
283,207,14792,6,0,P|257:151|207:121,1,100,4|0,0:0|1:0,0:0:0:0:
133,152,15667,2,0,P|78:163|23:136,1,100,2|0,0:0|1:0,0:0:0:0:
91,64,16543,2,0,L|238:134,2,150,2|0|0,0:0|0:0|1:0,0:0:0:0:
37,148,18295,6,0,P|17:196|33:248,1,100,2|0,0:0|1:0,0:0:0:0:
116,292,19171,2,0,P|136:244|120:192,1,100,2|0,0:0|1:0,0:0:0:0:
28,240,20047,2,0,P|9:308|53:380,1,150,2|4,0:0|3:0,0:0:0:0:
116,292,21142,1,4,3:0:0:0:
208,336,21580,6,0,B|234:301|234:301|248:364|316:380,1,150,4|0,3:0|1:0,0:0:0:0:
328,280,22675,2,0,P|292:224|260:208,1,100,2|0,0:0|1:0,0:0:0:0:
168,232,23551,2,0,B|132:248|92:232|92:232|48:212|8:244,2,150,2|0|0,0:0|0:0|1:0,0:0:0:0:
256,192,25083,12,4,27054,0:0:0:0:
184,244,28368,5,8,0:0:0:0:
280,216,28814,2,0,P|320:252|328:304,1,100,4|0,0:0|1:0,0:0:0:0:
428,304,29689,2,0,P|439:256|477:224,1,100,2|0,0:0|1:0,0:0:0:0:
448,128,30565,2,0,B|380:164|380:164|308:120,2,150,2|2|0,0:0|0:0|1:0,0:0:0:0:
384,52,32317,5,2,0:0:0:0:
284,36,32755,1,0,1:0:0:0:
220,112,33193,1,2,0:0:0:0:
132,68,33631,1,0,1:0:0:0:
140,168,34069,2,0,B|148:220|148:220|112:264,1,100,2|0,0:0|1:0,0:0:0:0:
44,188,34945,2,0,L|32:128,2,50,0|0|0,0:0|1:0|1:0,0:0:0:0:
24,288,35821,6,0,P|60:336|200:312,1,200,4|2,0:0|0:0,0:0:0:0:
256,256,37135,1,0,1:0:0:0:
328,184,37573,2,0,P|420:158|491:222,1,200,2|2,0:0|0:0,0:0:0:0:
472,320,38886,1,0,1:0:0:0:
400,252,39324,6,0,B|316:240|316:240|276:240|248:272,1,150,2|2,0:0|0:0,0:0:0:0:
180,328,40419,1,2,0:0:0:0:
168,228,40857,2,0,B|178:199|158:165|158:165|105:98,1,150,2|2,0:0|0:0,0:0:0:0:
188,44,41952,2,0,L|256:132,1,100
308,204,42838,5,4,0:0:0:0:
404,180,43275,1,4,1:0:0:0:
408,80,43713,1,2,0:0:0:0:
316,44,44151,1,0,1:0:0:0:
248,120,44589,2,0,P|172:132|116:88,2,150,2|2|0,0:0|0:0|1:0,0:0:0:0:
316,44,46341,5,2,0:0:0:0:
408,80,46779,1,0,1:0:0:0:
404,180,47217,1,2,0:0:0:0:
308,204,47655,1,0,1:0:0:0:
248,120,48093,2,0,P|172:108|112:152,2,150,2|2|0,0:0|0:0|1:0,0:0:0:0:
196,204,49845,6,0,B|96:200|96:200|40:200|8:252,1,200,4|2,0:0|0:0,0:0:0:0:
96,300,51159,1,0,1:0:0:0:
196,308,51597,2,0,B|248:311|280:264|280:264|316:320|388:304,1,200,2|2,0:0|0:0,0:0:0:0:
452,252,52910,1,0,1:0:0:0:
444,152,53348,6,0,P|388:112|296:136,1,150,2|2,0:0|0:0,0:0:0:0:
364,208,54443,1,2,0:0:0:0:
284,264,54881,2,0,B|245:323|156:298|142:223|195:174|195:174|240:133|222:51|134:38|93:106,1,450,0|4,0:0|1:0,0:0:0:0:
256,192,57069,12,4,59697,1:0:0:0:
