osu file format v14

[General]
AudioFilename: Victorious Theme.mp3
AudioLeadIn: 0
PreviewTime: 28255
Countdown: 0
SampleSet: Soft
StackLeniency: 0.4
Mode: 0
LetterboxInBreaks: 0
WidescreenStoryboard: 1

[Editor]
DistanceSpacing: 1.2
BeatDivisor: 4
GridSize: 4
TimelineZoom: 1

[Metadata]
Title:Make It Shine
TitleUnicode:Make It Shine
Artist:Victoria Justice
ArtistUnicode:Victoria Justice
Creator:MkGuh
Version:Insane
Source:Victorious
Tags:Ariana Grande Leon Thomas III Matt Bennett Elizabeth Gillies Avan Jogia Daniella Monet ezek happyrocket88 gero nickelodeon nick tv show serie kids teen teenager dan schneider english pop sitcom Tori Vega Andre Harris Robbie Shapiro Jade West Cat Valentine Beck Oliver Trina Vega hollywood art arts music talent
BeatmapID:1404804
BeatmapSetID:663704

[Difficulty]
HPDrainRate:6
CircleSize:4.5
OverallDifficulty:7.7
ApproachRate:8.5
SliderMultiplier:1.8
SliderTickRate:1

[Events]
//Background and Video events
Video,1842,"ViDeO.avi"
0,0,"MkTorious.jpg",0,0
//Break Periods
//Storyboard Layer 0 (Background)
//Storyboard Layer 1 (Fail)
//Storyboard Layer 2 (Pass)
//Storyboard Layer 3 (Foreground)
//Storyboard Sound Samples

[TimingPoints]
795,437.956204379562,4,2,0,60,1,0
795,-133.333333333333,4,2,0,60,0,0
14792,437.956204379562,4,2,0,70,1,0
17529,-100,4,2,0,5,0,0
17638,-100,4,2,0,70,0,0
24536,-100,4,2,0,5,0,0
24646,-100,4,2,0,70,0,0
28814,437.956204379562,4,2,0,80,1,1
28814,-83.3333333333333,4,2,0,80,0,1
41952,-83.3333333333333,4,2,0,80,0,0
42838,437.956204379562,4,2,0,80,1,1
42838,-83.3333333333333,4,2,0,80,0,1
56851,437.956204379562,4,2,0,70,1,0

[Colours]
Combo1 : 128,128,128
Combo2 : 203,39,39
Combo3 : 120,113,255
Combo4 : 255,121,188
Combo5 : 255,157,60

[HitObjects]
48,112,795,6,0,P|72:68|112:53,1,67.5000025749208,2|0,0:0|0:0,0:0:0:0:
136,134,1232,1,4,3:0:0:0:
213,87,1451,1,0,0:0:0:0:
279,147,1670,2,0,P|315:183|345:182,1,67.5000025749208,2|0,0:0|0:0,0:0:0:0:
444,313,2108,2,0,P|408:277|378:278,1,67.5000025749208,4|0,3:0|0:0,0:0:0:0:
238,278,2546,6,0,L|140:288,1,67.5000025749208,2|0,0:0|0:0,0:0:0:0:
73,292,2984,1,4,3:0:0:0:
3,234,3203,1,0,0:0:0:0:
25,146,3422,2,0,P|55:123|64:84,1,67.5000025749208,2|0,0:0|0:0,0:0:0:0:
202,26,3860,2,0,P|172:49|163:88,1,67.5000025749208,4|0,3:0|0:0,0:0:0:0:
248,207,4298,5,2,0:0:0:0:
345,198,4517,1,0,0:0:0:0:
268,313,4736,2,0,L|192:301,1,67.5000025749208,4|0,3:0|0:0,0:0:0:0:
83,186,5174,2,0,L|167:174,1,67.5000025749208,2|0,0:0|0:0,0:0:0:0:
293,90,5612,2,0,L|209:78,1,67.5000025749208,4|0,3:0|0:0,0:0:0:0:
371,158,6050,6,0,P|395:107|389:66,1,67.5000025749208,2|0,0:0|0:0,0:0:0:0:
264,196,6488,2,0,P|240:247|246:288,1,67.5000025749208,4|0,3:0|0:0,0:0:0:0:
426,327,6926,1,2,0:0:0:0:
353,267,7145,1,0,0:0:0:0:
216,360,7364,1,4,3:0:0:0:
143,300,7583,1,0,0:0:0:0:
234,152,7802,6,0,L|328:160,1,67.5000025749208,2|0,0:0|0:0,0:0:0:0:
109,139,8240,1,4,3:0:0:0:
178,60,8459,1,0,0:0:0:0:
143,228,8678,2,0,P|96:232|52:216,1,67.5000025749208,2|0,0:0|0:0,0:0:0:0:
234,152,9116,1,4,3:0:0:0:
278,310,9335,1,0,0:0:0:0:
420,158,9554,6,0,P|426:121|416:81,1,67.5000025749208,2|0,0:0|0:0,0:0:0:0:
267,12,9992,2,0,P|261:49|271:89,1,67.5000025749208,4|0,3:0|0:0,0:0:0:0:
420,158,10430,2,0,L|496:154,1,67.5000025749208,2|0,0:0|0:0,0:0:0:0:
280,228,10867,2,0,L|360:236,1,67.5000025749208,4|0,3:0|0:0,0:0:0:0:
192,128,11305,6,0,P|200:96|184:48,1,67.5000025749208,2|0,0:0|0:0,0:0:0:0:
52,140,11743,2,0,P|44:176|56:222,1,67.5000025749208,4|0,3:0|0:0,0:0:0:0:
212,284,12181,2,0,P|160:268|104:288,1,101.250003862381,2|0,0:0|0:0,0:0:0:0:
110,268,12619,2,0,L|104:336,1,67.5000025749208,4|0,3:0|0:0,0:0:0:0:
208,180,13057,6,0,P|204:144|214:100,1,67.5000025749208,2|0,0:0|0:0,0:0:0:0:
336,72,13495,1,4,3:0:0:0:
248,256,13714,2,0,L|176:248,1,67.5000025749208,2|0,0:0|0:0,0:0:0:0:
64,236,14152,1,0,0:0:0:0:
280,357,14371,6,0,B|314:350|314:350|346:355|346:355|393:343,1,101.250003862381,8|0,0:0|0:0,0:0:0:0:
436,287,14792,6,0,P|426:241|439:191,1,90,4|0,0:0|0:0,0:0:0:0:
453,63,15229,1,0,1:0:0:0:
326,120,15448,1,0,0:0:0:0:
193,63,15667,2,0,L|88:73,1,90,2|0,0:0|0:0,0:0:0:0:
195,235,16105,2,0,L|300:245,1,90,0|0,1:0|0:0,0:0:0:0:
56,284,16543,6,0,P|45:229|61:177,1,90,2|0,0:0|0:0,0:0:0:0:
103,71,16981,1,0,1:0:0:0:
232,128,17200,2,0,P|296:140|348:92,1,135,2|0,0:0|0:0,0:0:0:0:
356,72,17638,1,0,0:0:0:0:
236,216,17857,1,0,1:0:0:0:
276,72,18076,1,0,0:0:0:0:
432,228,18295,5,2,0:0:0:0:
332,332,18514,1,0,0:0:0:0:
280,216,18733,2,0,L|288:116,1,90,0|0,1:0|0:0,0:0:0:0:
156,32,19171,1,2,0:0:0:0:
288,12,19390,1,0,0:0:0:0:
200,184,19609,1,0,1:0:0:0:
72,144,19828,1,0,0:0:0:0:
224,316,20047,6,0,P|272:304|304:264,1,90,2|0,0:0|0:0,0:0:0:0:
304,144,20485,1,0,1:0:0:0:
492,280,20704,6,0,L|392:292,1,90,4|0,3:0|0:0,0:0:0:0:
214,133,21142,2,0,L|314:145,1,90,4|0,3:0|0:0,0:0:0:0:
472,168,21580,1,4,3:0:0:0:
276,308,21799,6,0,P|200:292|168:312,1,90,4|0,0:0|0:0,0:0:0:0:
73,352,22237,1,0,1:0:0:0:
0,247,22456,1,0,0:0:0:0:
48,118,22675,2,0,L|156:106,1,90,2|0,0:0|0:0,0:0:0:0:
344,184,23113,2,0,L|246:196,1,90,0|0,1:0|0:0,0:0:0:0:
112,324,23551,6,0,P|100:276|116:224,1,90,2|0,0:0|0:0,0:0:0:0:
200,104,23989,1,0,1:0:0:0:
364,224,24208,2,0,B|336:236|304:224|304:224|272:208|224:224,1,135,2|0,0:0|0:0,0:0:0:0:
208,228,24646,1,0,0:0:0:0:
64,172,24864,1,0,1:0:0:0:
200,104,25083,1,0,0:0:0:0:
260,304,25302,5,2,0:0:0:0:
256,192,25412,12,4,27054,0:0:0:0:
332,264,28368,5,8,0:0:0:0:
180,264,28587,1,2,0:0:0:0:
320,140,28814,6,0,P|352:128|380:56,1,107.999996704102,4|0,0:0|0:0,0:0:0:0:
192,140,29251,2,0,P|180:108|108:80,1,107.999996704102,0|2,1:0|0:0,0:0:0:0:
255,251,29689,2,0,P|267:283|337:315,1,107.999996704102,2|2,0:0|0:0,0:0:0:0:
192,140,30127,1,0,1:0:0:0:
116,244,30346,1,2,0:0:0:0:
328,244,30565,6,0,P|368:148|316:56,1,215.999993408203,2|0,0:0|1:0,0:0:0:0:
195,56,31222,2,0,P|144:147|184:244,1,215.999993408203,2|2,0:0|0:0,0:0:0:0:
256,348,31879,1,0,1:0:0:0:
183,243,32098,1,0,0:0:0:0:
385,47,32317,5,2,0:0:0:0:
223,154,32536,1,0,0:0:0:0:
419,211,32755,1,0,1:0:0:0:
281,47,32974,1,0,0:0:0:0:
298,249,33193,1,2,0:0:0:0:
436,112,33412,1,0,0:0:0:0:
478,303,33631,1,0,1:0:0:0:
436,112,33850,1,0,0:0:0:0:
298,249,34069,6,0,P|282:141|186:93,1,215.999993408203,2|0,0:0|1:0,0:0:0:0:
62,180,34726,2,0,P|78:288|174:336,1,215.999993408203,2|0,0:0|1:0,0:0:0:0:
421,302,35383,1,0,1:0:0:0:
294,324,35602,1,0,0:0:0:0:
379,175,35821,5,4,0:0:0:0:
255,12,36259,1,0,1:0:0:0:
158,99,36478,1,0,0:0:0:0:
30,73,36697,2,0,P|27:126|47:176,1,107.999996704102,2|0,0:0|0:0,0:0:0:0:
174,201,37135,2,0,P|177:148|157:98,1,107.999996704102,0|0,1:0|0:0,0:0:0:0:
70,294,37573,5,2,0:0:0:0:
190,342,37792,1,0,0:0:0:0:
310,293,38011,2,0,L|428:283,1,107.999996704102,0|0,1:0|0:0,0:0:0:0:
281,192,38449,2,0,L|163:202,1,107.999996704102,2|0,0:0|0:0,0:0:0:0:
309,98,38886,2,0,P|325:44|306:-11,1,107.999996704102,0|0,1:0|0:0,0:0:0:0:
173,201,39324,6,0,P|205:283|354:268,1,215.999993408203,2|0,0:0|1:0,0:0:0:0:
461,247,39981,2,0,P|429:165|280:180,1,215.999993408203,2|2,0:0|0:0,0:0:0:0:
60,200,40638,2,0,P|64:256|96:308,1,107.999996704102,4|0,1:1|0:0,0:0:0:0:
176,28,41076,5,2,0:0:0:0:
173,201,41295,1,2,0:0:0:0:
16,112,41514,1,0,1:0:0:0:
173,201,41733,1,0,0:0:0:0:
306,60,41952,6,0,P|316:108|298:167,1,107.999996704102,0|0,1:0|0:0,0:0:0:0:
222,354,42390,1,0,1:0:0:0:
260,365,42500,1,0,1:0:0:0:
300,362,42609,1,0,1:0:0:0:
336,346,42719,1,0,1:0:0:0:
366,317,42838,6,0,L|360:197,1,107.999996704102,4|0,0:0|0:0,0:0:0:0:
256,61,43275,2,0,L|248:168,1,107.999996704102,4|0,1:0|0:0,0:0:0:0:
140,324,43713,1,2,0:0:0:0:
64,148,43932,1,0,0:0:0:0:
247,168,44151,1,0,1:0:0:0:
140,324,44370,1,0,0:0:0:0:
64,148,44589,6,0,B|40:100|76:44|76:44|124:76|176:56,1,215.999993408203,2|0,0:0|1:0,0:0:0:0:
448,148,45246,2,0,B|472:100|436:44|436:44|388:76|336:56,1,215.999993408203,2|0,0:0|0:0,0:0:0:0:
204,184,45903,2,0,P|256:204|304:188,1,107.999996704102,0|0,1:0|0:0,0:0:0:0:
207,312,46341,5,2,0:0:0:0:
94,146,46560,1,0,0:0:0:0:
13,329,46779,1,0,1:0:0:0:
207,312,46998,1,0,0:0:0:0:
94,146,47217,2,0,L|82:18,1,107.999996704102,2|0,0:0|0:0,0:0:0:0:
284,12,47655,2,0,L|266:134,1,107.999996704102,0|0,1:0|0:0,0:0:0:0:
430,241,48093,6,0,P|475:145|448:43,1,215.999993408203,2|0,0:0|1:0,0:0:0:0:
345,133,48750,2,0,B|297:102|246:131|249:133|253:136|198:167|138:133,1,215.999993408203,2|0,0:0|1:0,0:0:0:0:
18,321,49407,2,0,L|135:316,1,107.999996704102,0|0,1:0|0:0,0:0:0:0:
253,303,49845,5,4,0:0:0:0:
64,92,50283,1,0,1:0:0:0:
170,18,50502,1,0,0:0:0:0:
300,44,50721,2,0,P|332:92|404:104,1,107.999996704102,2|0,0:0|0:0,0:0:0:0:
453,299,51159,2,0,P|425:254|376:236,1,107.999996704102,0|0,1:0|0:0,0:0:0:0:
256,232,51597,5,2,0:0:0:0:
128,256,51816,1,0,0:0:0:0:
80,136,52035,2,0,P|120:84|172:64,1,107.999996704102,0|0,1:0|0:0,0:0:0:0:
324,172,52473,1,2,0:0:0:0:
188,172,52692,1,0,0:0:0:0:
354,66,52910,2,0,P|401:91|432:136,1,107.999996704102,0|0,1:0|0:0,0:0:0:0:
356,292,53348,6,0,P|256:328|156:288,1,215.999993408203,2|0,0:0|1:0,0:0:0:0:
156,88,54005,2,0,P|256:52|356:92,1,215.999993408203,2|2,0:0|0:0,0:0:0:0:
484,140,54662,2,0,L|484:260,1,107.999996704102,0|0,1:0|0:0,0:0:0:0:
225,358,55100,5,4,0:0:0:0:
439,345,55319,1,0,0:0:0:0:
318,167,55538,1,0,1:0:0:0:
331,362,55757,1,0,0:0:0:0:
429,209,55976,1,2,0:0:0:0:
215,223,56195,1,0,0:0:0:0:
395,66,56414,5,0,1:0:0:0:
353,43,56524,1,0,1:0:0:0:
306,34,56633,1,0,1:0:0:0:
261,47,56743,1,0,1:0:0:0:
225,78,56852,1,4,0:0:0:0:
256,192,56960,12,0,59697,1:0:0:0:
