osu file format v14

[General]
AudioFilename: Victorious Theme.mp3
AudioLeadIn: 0
PreviewTime: 28255
Countdown: 0
SampleSet: Soft
StackLeniency: 0.7
Mode: 0
LetterboxInBreaks: 0
WidescreenStoryboard: 0

[Editor]
DistanceSpacing: 1.2
BeatDivisor: 4
GridSize: 4
TimelineZoom: 1

[Metadata]
Title:Make It Shine
TitleUnicode:Make It Shine
Artist:Victoria Justice
ArtistUnicode:Victoria Justice
Creator:MkGuh
Version:Hard
Source:Victorious
Tags:Ariana Grande Leon Thomas III Matt Bennett Elizabeth Gillies Avan Jogia Daniella Monet ezek happyrocket88 gero nickelodeon nick tv show serie kids teen teenager dan schneider english pop sitcom Tori Vega Andre Harris Robbie Shapiro Jade West Cat Valentine Beck Oliver Trina Vega hollywood art arts music talent
BeatmapID:1404803
BeatmapSetID:663704

[Difficulty]
HPDrainRate:6
CircleSize:4.3
OverallDifficulty:6
ApproachRate:7.5
SliderMultiplier:1.6
SliderTickRate:1

[Events]
//Background and Video events
Video,1842,"ViDeO.avi"
0,0,"MkTorious.jpg",0,0
//Break Periods
//Storyboard Layer 0 (Background)
//Storyboard Layer 1 (Fail)
//Storyboard Layer 2 (Pass)
//Storyboard Layer 3 (Foreground)
//Storyboard Sound Samples

[TimingPoints]
795,437.956204379562,4,2,0,60,1,0
14792,437.956204379562,4,2,0,70,1,0
28814,437.956204379562,4,2,0,80,1,1
41952,-100,4,2,0,80,0,0
42838,437.956204379562,4,2,0,80,1,1
56851,437.956204379562,4,2,0,70,1,0

[Colours]
Combo1 : 128,128,128
Combo2 : 203,39,39
Combo3 : 120,113,255
Combo4 : 255,121,188
Combo5 : 255,157,60

[HitObjects]
96,121,795,6,0,P|61:192|91:263,1,160,2|4,0:0|3:0,0:0:0:0:
176,224,1451,1,0,0:0:0:0:
200,316,1670,2,0,P|255:363|311:316,1,160,2|4,0:0|3:0,0:0:0:0:
336,224,2327,1,0,0:0:0:0:
421,262,2546,6,0,P|450:190|416:121,1,160,2|4,0:0|3:0,0:0:0:0:
336,68,3203,1,0,0:0:0:0:
256,16,3422,1,2,0:0:0:0:
140,168,3860,1,4,3:0:0:0:
216,228,4079,1,0,0:0:0:0:
140,168,4298,6,0,P|80:124|12:184,1,160,2|4,0:0|3:0,0:0:0:0:
60,252,4955,1,0,0:0:0:0:
112,332,5174,2,0,P|156:340|196:328,1,80,2|0,0:0|0:0,0:0:0:0:
256,264,5612,1,4,3:0:0:0:
328,328,5831,1,0,0:0:0:0:
420,264,6050,6,0,P|452:204|412:108,1,160,2|4,0:0|3:0,0:0:0:0:
356,56,6707,1,0,0:0:0:0:
284,120,6926,2,0,P|256:193|289:263,1,160,2|4,0:0|3:0,0:0:0:0:
252,352,7583,1,0,0:0:0:0:
168,304,7802,6,0,L|-4:296,1,160,2|4,0:0|3:0,0:0:0:0:
32,204,8459,1,0,0:0:0:0:
20,108,8678,2,0,L|192:116,1,160,2|4,0:0|3:0,0:0:0:0:
276,116,9335,1,0,0:0:0:0:
240,204,9554,5,2,0:0:0:0:
360,52,9992,1,4,3:0:0:0:
428,120,10211,1,0,0:0:0:0:
496,188,10430,1,2,0:0:0:0:
332,284,10867,1,4,3:0:0:0:
344,188,11086,1,0,0:0:0:0:
256,228,11305,6,0,P|200:268|196:364,2,160,2|4|2,0:0|3:0|0:0,0:0:0:0:
352,216,12400,1,0,0:0:0:0:
408,136,12619,1,4,3:0:0:0:
348,60,12838,1,0,0:0:0:0:
252,52,13057,6,0,L|64:72,1,160,2|4,0:0|3:0,0:0:0:0:
20,136,13714,1,0,0:0:0:0:
104,180,13933,2,0,P|108:224|100:268,1,80,2|0,0:0|0:0,0:0:0:0:
232,224,14371,2,0,L|380:208,1,120,8|0,0:0|0:0,0:0:0:0:
392,203,14792,6,0,P|419:130|390:51,1,160,4|0,0:0|1:0,0:0:0:0:
303,90,15448,1,0,0:0:0:0:
212,57,15667,2,0,B|129:37|141:97|51:73,1,160,2|0,0:0|1:0,0:0:0:0:
4,156,16324,1,0,0:0:0:0:
44,244,16543,6,0,P|52:286|41:333,2,80,2|0|0,0:0|0:0|1:0,0:0:0:0:
120,184,17200,2,0,L|288:200,1,160,2|0,0:0|0:0,0:0:0:0:
364,244,17857,1,0,1:0:0:0:
356,148,18076,6,0,P|335:90|391:14,1,160,2|0,0:0|0:0,0:0:0:0:
428,196,18733,2,0,L|248:176,1,160,0|2,1:0|0:0,0:0:0:0:
193,110,19390,1,0,0:0:0:0:
123,176,19609,1,0,1:0:0:0:
56,106,19828,2,0,P|30:178|81:266,1,160,2|0,0:0|0:0,0:0:0:0:
140,307,20485,1,0,1:0:0:0:
295,220,20704,6,0,L|199:226,1,80,4|0,3:0|0:0,0:0:0:0:
313,339,21142,2,0,L|394:343,1,80,4|0,3:0|0:0,0:0:0:0:
463,282,21580,1,4,3:0:0:0:
405,163,21799,6,0,P|402:109|416:66,1,80,4|0,0:0|0:0,0:0:0:0:
330,27,22237,2,0,P|271:56|168:27,2,160,0|2|0,1:0|0:0|1:0,0:0:0:0:
420,0,23332,1,0,0:0:0:0:
481,115,23551,6,0,L|491:206,1,80,2|0,0:0|0:0,0:0:0:0:
445,280,23989,1,0,1:0:0:0:
363,218,24208,2,0,P|291:192|212:225,1,160,2|0,0:0|0:0,0:0:0:0:
144,284,24864,1,0,1:0:0:0:
68,228,25083,1,0,0:0:0:0:
184,120,25302,5,2,0:0:0:0:
256,192,25412,12,4,27054,0:0:0:0:
256,44,28368,5,8,0:0:0:0:
256,44,28587,1,0,0:0:0:0:
384,112,28814,6,0,P|404:148|404:196,1,80,4|0,0:0|0:0,0:0:0:0:
308,184,29251,2,0,P|296:232|252:268,1,80,0|0,1:0|0:0,0:0:0:0:
188,212,29689,1,2,0:0:0:0:
120,280,29908,1,0,0:0:0:0:
52,212,30127,1,0,1:0:0:0:
52,212,30346,1,2,0:0:0:0:
112,88,30565,6,0,B|196:72|192:120|268:104,1,160,2|0,0:0|1:0,0:0:0:0:
360,132,31222,1,2,0:0:0:0:
304,208,31441,2,0,P|296:252|304:292,1,80,0|2,0:0|0:0,0:0:0:0:
412,352,31879,2,0,P|420:308|412:268,1,80,0|0,1:0|0:0,0:0:0:0:
295,374,32317,6,0,L|215:374,1,80,2|0,0:0|0:0,0:0:0:0:
128,330,32755,1,0,1:0:0:0:
208,277,32974,1,0,0:0:0:0:
164,160,33193,2,0,L|84:160,1,80,2|0,0:0|0:0,0:0:0:0:
0,201,33631,1,0,1:0:0:0:
77,257,33850,1,0,0:0:0:0:
228,232,34069,6,0,P|256:160|208:72,1,160,2|0,0:0|1:0,0:0:0:0:
164,12,34726,1,2,0:0:0:0:
164,160,34945,1,0,0:0:0:0:
236,60,35164,1,0,1:0:0:0:
60,116,35383,2,0,L|64:244,1,120,0|0,1:0|0:0,0:0:0:0:
67,283,35821,6,0,P|143:283|207:335,1,160,4|0,0:0|1:0,0:0:0:0:
283,276,36478,1,0,0:0:0:0:
353,341,36697,2,0,P|410:349|446:335,2,80,2|0|0,0:0|0:0|1:0,0:0:0:0:
283,276,37354,1,0,0:0:0:0:
396,248,37573,6,0,L|438:73,1,160,2|0,0:0|1:0,0:0:0:0:
366,22,38230,1,0,0:0:0:0:
366,22,38449,2,0,B|327:8|327:8|264:29,1,80,2|0,0:0|0:0,0:0:0:0:
176,123,38886,2,0,B|215:137|215:137|278:116,1,80,0|0,1:0|0:0,0:0:0:0:
87,93,39324,6,0,B|71:134|90:171|90:171|114:209|95:260,1,160,2|0,0:0|1:0,0:0:0:0:
15,295,39981,2,0,P|64:269|156:328,1,160,2|2,0:0|0:0,0:0:0:0:
210,238,40638,1,0,1:0:0:0:
305,238,40857,1,0,0:0:0:0:
361,313,41076,6,0,P|424:268|497:295,2,160,2|0|2,0:0|1:0|0:0,0:0:0:0:
284,260,42171,1,0,0:0:0:0:
208,200,42390,1,0,1:0:0:0:
204,181,42500,1,0,1:0:0:0:
200,161,42609,1,0,1:0:0:0:
196,141,42719,1,0,1:0:0:0:
192,122,42838,6,0,B|86:144,1,80,4|0,0:0|0:0,0:0:0:0:
28,284,43275,2,0,B|134:262,1,80,4|0,1:0|0:0,0:0:0:0:
180,208,43713,1,2,0:0:0:0:
260,260,43932,1,0,0:0:0:0:
320,180,44151,2,0,P|359:172|407:185,1,80,0|0,1:0|0:0,0:0:0:0:
463,250,44589,6,0,P|428:203|454:97,1,160,2|0,0:0|1:0,0:0:0:0:
500,24,45246,1,0,0:0:0:0:
404,12,45465,2,0,L|324:24,1,80,2|0,0:0|0:0,0:0:0:0:
228,36,45903,1,0,1:0:0:0:
282,123,46122,1,0,0:0:0:0:
282,123,46341,6,0,L|292:232,1,80,2|0,0:0|0:0,0:0:0:0:
300,300,46779,1,0,1:0:0:0:
220,352,46998,1,0,0:0:0:0:
140,296,47217,2,0,B|103:287|103:287|50:300,1,80,2|0,0:0|0:0,0:0:0:0:
9,176,47655,2,0,B|46:185|46:185|99:172,1,80,0|0,1:0|0:0,0:0:0:0:
156,108,48093,6,0,P|217:78|308:120,1,160,2|0,0:0|1:0,0:0:0:0:
384,60,48750,1,0,0:0:0:0:
424,148,48969,2,0,P|416:196|424:248,1,80,0|0,0:0|1:0,0:0:0:0:
340,284,49407,2,0,B|284:308|276:268|220:288,1,120,0|0,1:0|0:0,0:0:0:0:
190,322,49845,6,0,B|121:329|121:329|92:279|52:267,1,160,4|0,0:0|1:0,0:0:0:0:
0,193,50502,1,0,0:0:0:0:
48,112,50721,2,0,B|60:72|60:72|48:28,1,80,2|0,0:0|0:0,0:0:0:0:
160,144,51159,2,0,B|148:184|148:184|160:228,1,80,0|0,1:0|0:0,0:0:0:0:
196,309,51597,6,0,L|295:298,1,80,2|0,0:0|0:0,0:0:0:0:
328,220,52035,1,0,1:0:0:0:
419,243,52254,1,0,0:0:0:0:
419,243,52473,2,0,P|421:209|399:157,1,80,2|0,0:0|0:0,0:0:0:0:
301,61,52910,2,0,P|286:97|288:137,1,80,0|0,1:0|0:0,0:0:0:0:
219,239,53348,6,0,P|121:249|66:289,1,160,2|0,0:0|1:0,0:0:0:0:
20,142,54005,2,0,P|118:132|173:92,1,160,2|2,0:0|0:0,0:0:0:0:
238,34,54662,1,0,1:0:0:0:
238,34,54881,1,0,0:0:0:0:
368,100,55100,5,4,0:0:0:0:
320,184,55319,1,0,0:0:0:0:
484,236,55538,1,0,1:0:0:0:
416,172,55757,1,0,0:0:0:0:
384,256,55976,2,0,L|368:340,1,80,2|0,0:0|0:0,0:0:0:0:
256,272,56414,5,0,1:0:0:0:
222,244,56524,1,0,1:0:0:0:
180,231,56633,1,0,1:0:0:0:
136,244,56743,1,0,1:0:0:0:
100,272,56852,1,4,1:2:0:0:
256,192,56960,12,0,59697,1:0:0:0:
