osu file format v14

[General]
AudioFilename: Dancing.mp3
AudioLeadIn: 0
PreviewTime: 38912
Countdown: 0
SampleSet: Normal
StackLeniency: 0.7
Mode: 3
LetterboxInBreaks: 0
SpecialStyle: 0
WidescreenStoryboard: 0

[Editor]
DistanceSpacing: 0.8
BeatDivisor: 4
GridSize: 8
TimelineZoom: 2.2

[Metadata]
Title:Dancing
TitleUnicode:Dancing
Artist:Vicky Vale
ArtistUnicode:Vicky Vale
Creator:Suzuko-P
Version:Hard
Source:Initial D First Stage
Tags:1998 Eurobeat ae86 eg6 [Shana Lesus] MEGAtive -_[_L_e_a_h_]_-
BeatmapID:1035191
BeatmapSetID:485407

[Difficulty]
HPDrainRate:8
CircleSize:4
OverallDifficulty:8.3
ApproachRate:5
SliderMultiplier:1
SliderTickRate:1

[Events]
//Background and Video events
0,0,"bg.jpg",0,0
//Break Periods
//Storyboard Layer 0 (Background)
//Storyboard Layer 1 (Fail)
//Storyboard Layer 2 (Pass)
//Storyboard Layer 3 (Foreground)
//Storyboard Sound Samples

[TimingPoints]
6,375,4,1,0,30,1,0
39006,-100,4,1,0,30,0,1
51006,-100,4,1,0,30,0,0
87006,-100,4,1,0,30,0,1
111006,-100,4,1,0,30,0,0

[HitObjects]
64,192,6,5,0,0:0:0:0:
192,192,6,1,0,0:0:0:0:
320,192,6,1,0,0:0:0:0:
192,192,193,1,0,0:0:0:0:
448,192,381,1,0,0:0:0:0:
320,192,381,1,0,0:0:0:0:
64,192,568,1,0,0:0:0:0:
320,192,756,1,0,0:0:0:0:
192,192,756,1,0,0:0:0:0:
448,192,756,1,0,0:0:0:0:
320,192,943,1,0,0:0:0:0:
192,192,1131,1,0,0:0:0:0:
64,192,1131,1,0,0:0:0:0:
448,192,1318,1,0,0:0:0:0:
64,192,1506,1,0,0:0:0:0:
320,192,1506,1,0,0:0:0:0:
192,192,1599,1,0,0:0:0:0:
448,192,1599,1,0,0:0:0:0:
64,192,1787,1,0,0:0:0:0:
320,192,1787,1,0,0:0:0:0:
192,192,1881,1,0,0:0:0:0:
448,192,1881,1,0,0:0:0:0:
64,192,2068,1,0,0:0:0:0:
320,192,2068,1,0,0:0:0:0:
320,192,2256,1,0,0:0:0:0:
64,192,2256,1,0,0:0:0:0:
192,192,2631,128,0,3006:0:0:0:0:
320,192,3006,1,0,0:0:0:0:
448,192,3006,1,0,0:0:0:0:
64,192,3099,1,0,0:0:0:0:
320,192,3193,1,0,0:0:0:0:
192,192,3287,1,0,0:0:0:0:
448,192,3381,1,0,0:0:0:0:
320,192,3381,1,0,0:0:0:0:
64,192,3474,1,0,0:0:0:0:
320,192,3568,1,0,0:0:0:0:
192,192,3662,1,0,0:0:0:0:
320,192,3756,128,0,4037:0:0:0:0:
448,192,3756,1,0,0:0:0:0:
192,192,4037,128,0,4318:0:0:0:0:
448,192,4318,128,0,5724:0:0:0:0:
64,192,4506,1,0,0:0:0:0:
192,192,4599,1,0,0:0:0:0:
320,192,4693,1,0,0:0:0:0:
320,192,4881,1,0,0:0:0:0:
64,192,5068,1,0,0:0:0:0:
192,192,5162,128,0,5349:0:0:0:0:
320,192,5349,1,0,0:0:0:0:
64,192,5443,1,0,0:0:0:0:
192,192,5537,1,0,0:0:0:0:
320,192,5631,1,0,0:0:0:0:
192,192,5724,1,0,0:0:0:0:
64,192,5818,1,0,0:0:0:0:
192,192,5912,1,0,0:0:0:0:
448,192,6006,1,0,0:0:0:0:
320,192,6006,1,0,0:0:0:0:
64,192,6099,1,0,0:0:0:0:
320,192,6193,1,0,0:0:0:0:
192,192,6287,1,0,0:0:0:0:
448,192,6381,1,0,0:0:0:0:
320,192,6381,1,0,0:0:0:0:
64,192,6474,1,0,0:0:0:0:
320,192,6568,1,0,0:0:0:0:
192,192,6662,1,0,0:0:0:0:
448,192,6756,128,0,7037:0:0:0:0:
320,192,6756,1,0,0:0:0:0:
320,192,7037,128,0,7318:0:0:0:0:
192,192,7318,128,0,8631:0:0:0:0:
64,192,7506,1,0,0:0:0:0:
320,192,7599,1,0,0:0:0:0:
448,192,7693,1,0,0:0:0:0:
448,192,7881,1,0,0:0:0:0:
64,192,8068,1,0,0:0:0:0:
320,192,8162,128,0,8349:0:0:0:0:
448,192,8349,1,0,0:0:0:0:
64,192,8443,1,0,0:0:0:0:
320,192,8537,1,0,0:0:0:0:
448,192,8631,1,0,0:0:0:0:
320,192,8724,1,0,0:0:0:0:
64,192,8818,1,0,0:0:0:0:
192,192,8912,1,0,0:0:0:0:
448,192,9006,1,0,0:0:0:0:
320,192,9006,1,0,0:0:0:0:
64,192,9099,1,0,0:0:0:0:
320,192,9193,1,0,0:0:0:0:
192,192,9287,1,0,0:0:0:0:
448,192,9381,1,0,0:0:0:0:
320,192,9381,1,0,0:0:0:0:
64,192,9474,1,0,0:0:0:0:
320,192,9568,1,0,0:0:0:0:
192,192,9662,1,0,0:0:0:0:
320,192,9756,128,0,10037:0:0:0:0:
448,192,9756,1,0,0:0:0:0:
192,192,10037,128,0,10318:0:0:0:0:
448,192,10318,128,0,11724:0:0:0:0:
64,192,10506,1,0,0:0:0:0:
192,192,10599,1,0,0:0:0:0:
320,192,10693,1,0,0:0:0:0:
320,192,10881,1,0,0:0:0:0:
64,192,11068,1,0,0:0:0:0:
320,192,11162,128,0,11349:0:0:0:0:
192,192,11349,1,0,0:0:0:0:
64,192,11443,1,0,0:0:0:0:
192,192,11537,1,0,0:0:0:0:
320,192,11631,1,0,0:0:0:0:
192,192,11724,1,0,0:0:0:0:
64,192,11818,1,0,0:0:0:0:
192,192,11912,1,0,0:0:0:0:
448,192,12006,1,0,0:0:0:0:
320,192,12006,1,0,0:0:0:0:
64,192,12099,1,0,0:0:0:0:
320,192,12193,1,0,0:0:0:0:
192,192,12287,1,0,0:0:0:0:
320,192,12381,1,0,0:0:0:0:
448,192,12381,1,0,0:0:0:0:
64,192,12474,1,0,0:0:0:0:
320,192,12568,1,0,0:0:0:0:
192,192,12662,1,0,0:0:0:0:
448,192,12756,128,0,13037:0:0:0:0:
320,192,12756,1,0,0:0:0:0:
320,192,13037,128,0,13318:0:0:0:0:
192,192,13318,128,0,14631:0:0:0:0:
64,192,13506,1,0,0:0:0:0:
320,192,13599,1,0,0:0:0:0:
448,192,13693,1,0,0:0:0:0:
320,192,13787,1,0,0:0:0:0:
64,192,13881,1,0,0:0:0:0:
320,192,13974,1,0,0:0:0:0:
448,192,14068,1,0,0:0:0:0:
320,192,14162,1,0,0:0:0:0:
64,192,14256,1,0,0:0:0:0:
448,192,14349,1,0,0:0:0:0:
320,192,14443,1,0,0:0:0:0:
64,192,14537,1,0,0:0:0:0:
448,192,14631,1,0,0:0:0:0:
320,192,14677,1,0,0:0:0:0:
64,192,14724,1,0,0:0:0:0:
192,192,14771,1,0,0:0:0:0:
448,192,14818,1,0,0:0:0:0:
320,192,14865,1,0,0:0:0:0:
192,192,14912,1,0,0:0:0:0:
64,192,14959,1,0,0:0:0:0:
448,192,15006,1,0,0:0:0:0:
320,192,15006,1,0,0:0:0:0:
192,192,15193,1,0,0:0:0:0:
64,192,15381,1,0,0:0:0:0:
320,192,15381,1,0,0:0:0:0:
448,192,15568,1,0,0:0:0:0:
320,192,15662,1,0,0:0:0:0:
192,192,15756,1,0,0:0:0:0:
64,192,15756,1,0,0:0:0:0:
448,192,15943,1,0,0:0:0:0:
192,192,16131,1,0,0:0:0:0:
448,192,16131,1,0,0:0:0:0:
320,192,16318,1,0,0:0:0:0:
64,192,16506,1,0,0:0:0:0:
448,192,16506,1,0,0:0:0:0:
192,192,16693,1,0,0:0:0:0:
320,192,16881,1,0,0:0:0:0:
448,192,16881,1,0,0:0:0:0:
192,192,17068,1,0,0:0:0:0:
320,192,17162,1,0,0:0:0:0:
448,192,17256,1,0,0:0:0:0:
64,192,17256,1,0,0:0:0:0:
192,192,17349,1,0,0:0:0:0:
320,192,17443,1,0,0:0:0:0:
64,192,17631,1,0,0:0:0:0:
192,192,17631,1,0,0:0:0:0:
448,192,17818,1,0,0:0:0:0:
192,192,17912,1,0,0:0:0:0:
64,192,18006,1,0,0:0:0:0:
320,192,18006,1,0,0:0:0:0:
192,192,18193,1,0,0:0:0:0:
320,192,18381,1,0,0:0:0:0:
448,192,18381,1,0,0:0:0:0:
192,192,18568,1,0,0:0:0:0:
64,192,18756,1,0,0:0:0:0:
448,192,18756,1,0,0:0:0:0:
320,192,18943,1,0,0:0:0:0:
192,192,19131,1,0,0:0:0:0:
64,192,19131,1,0,0:0:0:0:
320,192,19318,1,0,0:0:0:0:
64,192,19506,1,0,0:0:0:0:
192,192,19506,1,0,0:0:0:0:
448,192,19506,1,0,0:0:0:0:
320,192,19881,1,0,0:0:0:0:
64,192,19881,1,0,0:0:0:0:
192,192,19881,1,0,0:0:0:0:
64,192,20256,1,0,0:0:0:0:
448,192,20256,1,0,0:0:0:0:
320,192,20256,1,0,0:0:0:0:
192,192,20631,1,0,0:0:0:0:
320,192,20631,1,0,0:0:0:0:
448,192,20631,1,0,0:0:0:0:
64,192,20912,1,0,0:0:0:0:
448,192,21006,1,0,0:0:0:0:
320,192,21006,1,0,0:0:0:0:
192,192,21006,1,0,0:0:0:0:
320,192,21193,1,0,0:0:0:0:
64,192,21381,1,0,0:0:0:0:
448,192,21381,1,0,0:0:0:0:
192,192,21568,1,0,0:0:0:0:
448,192,21662,1,0,0:0:0:0:
64,192,21756,1,0,0:0:0:0:
320,192,21756,1,0,0:0:0:0:
448,192,21943,1,0,0:0:0:0:
192,192,22131,1,0,0:0:0:0:
320,192,22131,1,0,0:0:0:0:
64,192,22318,1,0,0:0:0:0:
448,192,22506,1,0,0:0:0:0:
192,192,22506,1,0,0:0:0:0:
320,192,22693,1,0,0:0:0:0:
64,192,22881,1,0,0:0:0:0:
448,192,22881,1,0,0:0:0:0:
192,192,23068,1,0,0:0:0:0:
320,192,23162,1,0,0:0:0:0:
64,192,23256,1,0,0:0:0:0:
448,192,23256,1,0,0:0:0:0:
320,192,23349,1,0,0:0:0:0:
192,192,23443,1,0,0:0:0:0:
320,192,23631,1,0,0:0:0:0:
448,192,23631,1,0,0:0:0:0:
192,192,23818,1,0,0:0:0:0:
64,192,23912,1,0,0:0:0:0:
320,192,24006,1,0,0:0:0:0:
192,192,24006,1,0,0:0:0:0:
448,192,24193,1,0,0:0:0:0:
64,192,24381,1,0,0:0:0:0:
192,192,24381,1,0,0:0:0:0:
320,192,24568,1,0,0:0:0:0:
448,192,24756,1,0,0:0:0:0:
64,192,24756,1,0,0:0:0:0:
192,192,24943,1,0,0:0:0:0:
64,192,25131,1,0,0:0:0:0:
320,192,25131,1,0,0:0:0:0:
448,192,25318,1,0,0:0:0:0:
64,192,25506,1,0,0:0:0:0:
192,192,25506,1,0,0:0:0:0:
320,192,25506,1,0,0:0:0:0:
320,192,25881,1,0,0:0:0:0:
448,192,25881,1,0,0:0:0:0:
64,192,25881,1,0,0:0:0:0:
192,192,26256,1,0,0:0:0:0:
448,192,26256,1,0,0:0:0:0:
320,192,26256,1,0,0:0:0:0:
64,192,26631,1,0,0:0:0:0:
192,192,26631,1,0,0:0:0:0:
448,192,26631,1,0,0:0:0:0:
64,192,26912,1,0,0:0:0:0:
448,192,27006,1,0,0:0:0:0:
320,192,27006,1,0,0:0:0:0:
192,192,27006,1,0,0:0:0:0:
64,192,27193,1,0,0:0:0:0:
192,192,27381,1,0,0:0:0:0:
320,192,27381,1,0,0:0:0:0:
320,192,27568,1,0,0:0:0:0:
64,192,27756,1,0,0:0:0:0:
448,192,27756,1,0,0:0:0:0:
192,192,27943,1,0,0:0:0:0:
320,192,28131,1,0,0:0:0:0:
448,192,28131,1,0,0:0:0:0:
64,192,28318,1,0,0:0:0:0:
192,192,28506,1,0,0:0:0:0:
320,192,28506,1,0,0:0:0:0:
448,192,28693,1,0,0:0:0:0:
64,192,28881,1,0,0:0:0:0:
320,192,28881,1,0,0:0:0:0:
448,192,29068,1,0,0:0:0:0:
320,192,29162,1,0,0:0:0:0:
64,192,29256,1,0,0:0:0:0:
192,192,29256,1,0,0:0:0:0:
192,192,29443,1,0,0:0:0:0:
448,192,29631,1,0,0:0:0:0:
320,192,29631,1,0,0:0:0:0:
192,192,29818,1,0,0:0:0:0:
448,192,30006,1,0,0:0:0:0:
64,192,30006,1,0,0:0:0:0:
320,192,30193,1,0,0:0:0:0:
64,192,30381,1,0,0:0:0:0:
192,192,30381,1,0,0:0:0:0:
320,192,30568,1,0,0:0:0:0:
448,192,30756,1,0,0:0:0:0:
64,192,30756,1,0,0:0:0:0:
192,192,30943,1,0,0:0:0:0:
320,192,31131,1,0,0:0:0:0:
448,192,31131,1,0,0:0:0:0:
64,192,31318,1,0,0:0:0:0:
448,192,31506,1,0,0:0:0:0:
192,192,31506,1,0,0:0:0:0:
320,192,31693,1,0,0:0:0:0:
192,192,31881,1,0,0:0:0:0:
64,192,31881,1,0,0:0:0:0:
320,192,32068,1,0,0:0:0:0:
64,192,32256,1,0,0:0:0:0:
448,192,32256,1,0,0:0:0:0:
192,192,32443,1,0,0:0:0:0:
320,192,32631,1,0,0:0:0:0:
448,192,32631,1,0,0:0:0:0:
192,192,32818,1,0,0:0:0:0:
320,192,32912,1,0,0:0:0:0:
64,192,33006,1,0,0:0:0:0:
448,192,33006,1,0,0:0:0:0:
192,192,33006,1,0,0:0:0:0:
320,192,33193,1,0,0:0:0:0:
192,192,33381,1,0,0:0:0:0:
448,192,33381,1,0,0:0:0:0:
64,192,33568,1,0,0:0:0:0:
448,192,33756,1,0,0:0:0:0:
320,192,33756,1,0,0:0:0:0:
192,192,33943,1,0,0:0:0:0:
64,192,34131,1,0,0:0:0:0:
320,192,34131,1,0,0:0:0:0:
448,192,34318,1,0,0:0:0:0:
64,192,34506,1,0,0:0:0:0:
192,192,34506,1,0,0:0:0:0:
320,192,34693,1,0,0:0:0:0:
64,192,34881,1,0,0:0:0:0:
448,192,34881,1,0,0:0:0:0:
192,192,35068,1,0,0:0:0:0:
64,192,35162,1,0,0:0:0:0:
320,192,35256,1,0,0:0:0:0:
448,192,35256,1,0,0:0:0:0:
192,192,35443,1,0,0:0:0:0:
64,192,35631,1,0,0:0:0:0:
320,192,35631,1,0,0:0:0:0:
192,192,35818,1,0,0:0:0:0:
448,192,36006,1,0,0:0:0:0:
64,192,36006,1,0,0:0:0:0:
320,192,36193,1,0,0:0:0:0:
64,192,36381,1,0,0:0:0:0:
192,192,36381,1,0,0:0:0:0:
448,192,36568,1,0,0:0:0:0:
320,192,36756,1,0,0:0:0:0:
64,192,36756,1,0,0:0:0:0:
192,192,36943,1,0,0:0:0:0:
64,192,37131,1,0,0:0:0:0:
448,192,37131,1,0,0:0:0:0:
320,192,37318,1,0,0:0:0:0:
64,192,37506,1,0,0:0:0:0:
448,192,37506,1,0,0:0:0:0:
192,192,37599,1,0,0:0:0:0:
320,192,37693,1,0,0:0:0:0:
192,192,37787,1,0,0:0:0:0:
64,192,37881,1,0,0:0:0:0:
448,192,37881,1,0,0:0:0:0:
320,192,37974,1,0,0:0:0:0:
64,192,38068,1,0,0:0:0:0:
192,192,38162,1,0,0:0:0:0:
320,192,38256,1,0,0:0:0:0:
448,192,38256,1,0,0:0:0:0:
192,192,38349,1,0,0:0:0:0:
448,192,38443,1,0,0:0:0:0:
320,192,38537,1,0,0:0:0:0:
192,192,38631,1,0,0:0:0:0:
64,192,38631,1,0,0:0:0:0:
64,192,39006,1,0,0:0:0:0:
448,192,39006,1,0,0:0:0:0:
320,192,39006,1,0,0:0:0:0:
320,192,39381,1,0,0:0:0:0:
64,192,39381,1,0,0:0:0:0:
192,192,39381,1,0,0:0:0:0:
192,192,39568,1,0,0:0:0:0:
64,192,39756,1,0,0:0:0:0:
448,192,39756,1,0,0:0:0:0:
192,192,39943,1,0,0:0:0:0:
320,192,40131,1,0,0:0:0:0:
448,192,40131,1,0,0:0:0:0:
64,192,40318,1,0,0:0:0:0:
192,192,40506,1,0,0:0:0:0:
320,192,40506,1,0,0:0:0:0:
448,192,40693,1,0,0:0:0:0:
64,192,40881,1,0,0:0:0:0:
320,192,40881,1,0,0:0:0:0:
192,192,41068,1,0,0:0:0:0:
448,192,41256,1,0,0:0:0:0:
320,192,41256,1,0,0:0:0:0:
64,192,41256,1,0,0:0:0:0:
192,192,41631,1,0,0:0:0:0:
64,192,41631,1,0,0:0:0:0:
448,192,41631,1,0,0:0:0:0:
320,192,41818,1,0,0:0:0:0:
64,192,41912,1,0,0:0:0:0:
192,192,42006,1,0,0:0:0:0:
448,192,42006,1,0,0:0:0:0:
320,192,42193,1,0,0:0:0:0:
448,192,42381,1,0,0:0:0:0:
64,192,42381,1,0,0:0:0:0:
192,192,42568,1,0,0:0:0:0:
320,192,42756,1,0,0:0:0:0:
448,192,42756,1,0,0:0:0:0:
192,192,42943,1,0,0:0:0:0:
320,192,43131,1,0,0:0:0:0:
64,192,43131,1,0,0:0:0:0:
448,192,43318,128,0,43693:0:0:0:0:
192,192,43318,1,0,0:0:0:0:
64,192,43506,1,0,0:0:0:0:
320,192,43693,128,0,43881:0:0:0:0:
192,192,43693,1,0,0:0:0:0:
64,192,43881,1,0,0:0:0:0:
320,192,44068,128,0,44443:0:0:0:0:
448,192,44068,1,0,0:0:0:0:
64,192,44256,1,0,0:0:0:0:
192,192,44443,128,0,44631:0:0:0:0:
64,192,44631,128,0,45006:0:0:0:0:
448,192,44631,1,0,0:0:0:0:
320,192,44724,1,0,0:0:0:0:
448,192,44818,1,0,0:0:0:0:
320,192,44912,1,0,0:0:0:0:
192,192,45006,1,0,0:0:0:0:
448,192,45006,1,0,0:0:0:0:
192,192,45381,1,0,0:0:0:0:
448,192,45381,1,0,0:0:0:0:
320,192,45381,1,0,0:0:0:0:
64,192,45568,1,0,0:0:0:0:
320,192,45756,1,0,0:0:0:0:
448,192,45756,1,0,0:0:0:0:
192,192,45943,1,0,0:0:0:0:
64,192,46131,1,0,0:0:0:0:
448,192,46131,1,0,0:0:0:0:
320,192,46318,1,0,0:0:0:0:
192,192,46506,1,0,0:0:0:0:
64,192,46506,1,0,0:0:0:0:
448,192,46693,1,0,0:0:0:0:
320,192,46881,1,0,0:0:0:0:
64,192,46881,1,0,0:0:0:0:
192,192,47068,1,0,0:0:0:0:
320,192,47256,1,0,0:0:0:0:
64,192,47256,1,0,0:0:0:0:
448,192,47256,1,0,0:0:0:0:
192,192,47631,1,0,0:0:0:0:
64,192,47631,1,0,0:0:0:0:
448,192,47631,1,0,0:0:0:0:
320,192,47818,1,0,0:0:0:0:
192,192,47912,1,0,0:0:0:0:
448,192,48006,1,0,0:0:0:0:
320,192,48006,1,0,0:0:0:0:
192,192,48193,1,0,0:0:0:0:
64,192,48381,1,0,0:0:0:0:
448,192,48381,1,0,0:0:0:0:
320,192,48568,1,0,0:0:0:0:
64,192,48756,1,0,0:0:0:0:
192,192,48756,1,0,0:0:0:0:
448,192,48943,1,0,0:0:0:0:
192,192,49131,1,0,0:0:0:0:
64,192,49131,1,0,0:0:0:0:
320,192,49318,1,0,0:0:0:0:
64,192,49506,1,0,0:0:0:0:
448,192,49506,1,0,0:0:0:0:
192,192,49599,1,0,0:0:0:0:
320,192,49693,1,0,0:0:0:0:
192,192,49787,1,0,0:0:0:0:
64,192,49881,1,0,0:0:0:0:
320,192,49881,1,0,0:0:0:0:
448,192,49974,1,0,0:0:0:0:
192,192,50068,1,0,0:0:0:0:
320,192,50162,1,0,0:0:0:0:
64,192,50256,1,0,0:0:0:0:
448,192,50256,1,0,0:0:0:0:
192,192,50349,1,0,0:0:0:0:
320,192,50443,1,0,0:0:0:0:
192,192,50537,1,0,0:0:0:0:
448,192,50631,1,0,0:0:0:0:
320,192,50677,1,0,0:0:0:0:
64,192,50724,1,0,0:0:0:0:
192,192,50771,1,0,0:0:0:0:
448,192,50818,1,0,0:0:0:0:
320,192,50865,1,0,0:0:0:0:
64,192,50912,1,0,0:0:0:0:
192,192,50959,1,0,0:0:0:0:
448,192,51006,1,0,0:0:0:0:
320,192,51006,1,0,0:0:0:0:
192,192,51099,1,0,0:0:0:0:
448,192,51193,1,0,0:0:0:0:
192,192,51287,1,0,0:0:0:0:
320,192,51381,1,0,0:0:0:0:
448,192,51381,1,0,0:0:0:0:
64,192,51474,1,0,0:0:0:0:
320,192,51568,1,0,0:0:0:0:
64,192,51662,1,0,0:0:0:0:
320,192,51756,128,0,52037:0:0:0:0:
448,192,51756,1,0,0:0:0:0:
192,192,52037,128,0,52318:0:0:0:0:
448,192,52318,128,0,53724:0:0:0:0:
64,192,52506,1,0,0:0:0:0:
192,192,52599,1,0,0:0:0:0:
320,192,52693,1,0,0:0:0:0:
320,192,52881,1,0,0:0:0:0:
192,192,53068,1,0,0:0:0:0:
64,192,53162,128,0,53349:0:0:0:0:
192,192,53349,1,0,0:0:0:0:
320,192,53443,1,0,0:0:0:0:
64,192,53537,1,0,0:0:0:0:
192,192,53631,1,0,0:0:0:0:
320,192,53724,1,0,0:0:0:0:
192,192,53818,1,0,0:0:0:0:
64,192,53912,1,0,0:0:0:0:
320,192,54006,1,0,0:0:0:0:
448,192,54006,1,0,0:0:0:0:
64,192,54099,1,0,0:0:0:0:
320,192,54193,1,0,0:0:0:0:
64,192,54287,1,0,0:0:0:0:
320,192,54381,1,0,0:0:0:0:
448,192,54381,1,0,0:0:0:0:
192,192,54474,1,0,0:0:0:0:
448,192,54568,1,0,0:0:0:0:
192,192,54662,1,0,0:0:0:0:
448,192,54756,128,0,55037:0:0:0:0:
320,192,54756,1,0,0:0:0:0:
320,192,55037,128,0,55318:0:0:0:0:
192,192,55318,128,0,56631:0:0:0:0:
64,192,55506,1,0,0:0:0:0:
320,192,55599,1,0,0:0:0:0:
448,192,55693,1,0,0:0:0:0:
448,192,55881,1,0,0:0:0:0:
64,192,56068,1,0,0:0:0:0:
320,192,56162,128,0,56349:0:0:0:0:
448,192,56349,1,0,0:0:0:0:
64,192,56443,1,0,0:0:0:0:
320,192,56537,1,0,0:0:0:0:
448,192,56631,1,0,0:0:0:0:
64,192,56724,1,0,0:0:0:0:
192,192,56818,1,0,0:0:0:0:
64,192,56912,1,0,0:0:0:0:
448,192,57006,1,0,0:0:0:0:
320,192,57006,1,0,0:0:0:0:
192,192,57099,1,0,0:0:0:0:
448,192,57193,1,0,0:0:0:0:
192,192,57287,1,0,0:0:0:0:
448,192,57381,1,0,0:0:0:0:
320,192,57381,1,0,0:0:0:0:
64,192,57474,1,0,0:0:0:0:
320,192,57568,1,0,0:0:0:0:
64,192,57662,1,0,0:0:0:0:
320,192,57756,128,0,58037:0:0:0:0:
448,192,57756,1,0,0:0:0:0:
192,192,58037,128,0,58318:0:0:0:0:
448,192,58318,128,0,59724:0:0:0:0:
64,192,58506,1,0,0:0:0:0:
192,192,58599,1,0,0:0:0:0:
320,192,58693,1,0,0:0:0:0:
320,192,58881,1,0,0:0:0:0:
64,192,59068,1,0,0:0:0:0:
192,192,59162,128,0,59349:0:0:0:0:
320,192,59349,1,0,0:0:0:0:
64,192,59443,1,0,0:0:0:0:
192,192,59537,1,0,0:0:0:0:
320,192,59631,1,0,0:0:0:0:
64,192,59724,1,0,0:0:0:0:
192,192,59818,1,0,0:0:0:0:
320,192,59912,1,0,0:0:0:0:
192,192,60006,1,0,0:0:0:0:
64,192,60006,1,0,0:0:0:0:
448,192,60099,1,0,0:0:0:0:
192,192,60193,1,0,0:0:0:0:
448,192,60287,1,0,0:0:0:0:
192,192,60381,1,0,0:0:0:0:
64,192,60381,1,0,0:0:0:0:
320,192,60474,1,0,0:0:0:0:
64,192,60568,1,0,0:0:0:0:
192,192,60662,1,0,0:0:0:0:
448,192,60756,128,0,61037:0:0:0:0:
320,192,60756,1,0,0:0:0:0:
320,192,61037,128,0,61318:0:0:0:0:
192,192,61318,128,0,62631:0:0:0:0:
64,192,61506,1,0,0:0:0:0:
320,192,61599,1,0,0:0:0:0:
448,192,61693,1,0,0:0:0:0:
320,192,61787,1,0,0:0:0:0:
64,192,61881,1,0,0:0:0:0:
320,192,61974,1,0,0:0:0:0:
448,192,62068,1,0,0:0:0:0:
320,192,62162,1,0,0:0:0:0:
64,192,62256,1,0,0:0:0:0:
448,192,62349,1,0,0:0:0:0:
320,192,62443,1,0,0:0:0:0:
64,192,62537,1,0,0:0:0:0:
448,192,62631,1,0,0:0:0:0:
320,192,62677,1,0,0:0:0:0:
192,192,62724,1,0,0:0:0:0:
64,192,62771,1,0,0:0:0:0:
448,192,62818,1,0,0:0:0:0:
320,192,62865,1,0,0:0:0:0:
192,192,62912,1,0,0:0:0:0:
64,192,62959,1,0,0:0:0:0:
320,192,63006,1,0,0:0:0:0:
448,192,63006,1,0,0:0:0:0:
192,192,63193,1,0,0:0:0:0:
64,192,63381,1,0,0:0:0:0:
320,192,63381,1,0,0:0:0:0:
448,192,63568,1,0,0:0:0:0:
320,192,63662,1,0,0:0:0:0:
192,192,63756,1,0,0:0:0:0:
64,192,63756,1,0,0:0:0:0:
320,192,63943,1,0,0:0:0:0:
448,192,64131,1,0,0:0:0:0:
64,192,64131,1,0,0:0:0:0:
192,192,64318,1,0,0:0:0:0:
320,192,64506,1,0,0:0:0:0:
448,192,64506,1,0,0:0:0:0:
64,192,64693,1,0,0:0:0:0:
192,192,64881,1,0,0:0:0:0:
448,192,64881,1,0,0:0:0:0:
320,192,65068,1,0,0:0:0:0:
64,192,65162,1,0,0:0:0:0:
448,192,65256,1,0,0:0:0:0:
192,192,65256,1,0,0:0:0:0:
320,192,65349,1,0,0:0:0:0:
64,192,65443,1,0,0:0:0:0:
320,192,65631,1,0,0:0:0:0:
448,192,65631,1,0,0:0:0:0:
64,192,65818,1,0,0:0:0:0:
192,192,65912,1,0,0:0:0:0:
320,192,66006,1,0,0:0:0:0:
448,192,66006,1,0,0:0:0:0:
320,192,66193,1,0,0:0:0:0:
192,192,66381,1,0,0:0:0:0:
64,192,66381,1,0,0:0:0:0:
448,192,66568,1,0,0:0:0:0:
320,192,66756,1,0,0:0:0:0:
64,192,66756,1,0,0:0:0:0:
192,192,66943,1,0,0:0:0:0:
320,192,67131,1,0,0:0:0:0:
448,192,67131,1,0,0:0:0:0:
64,192,67318,1,0,0:0:0:0:
192,192,67506,1,0,0:0:0:0:
320,192,67506,1,0,0:0:0:0:
448,192,67506,1,0,0:0:0:0:
64,192,67881,1,0,0:0:0:0:
192,192,67881,1,0,0:0:0:0:
448,192,67881,1,0,0:0:0:0:
64,192,68256,1,0,0:0:0:0:
320,192,68256,1,0,0:0:0:0:
192,192,68256,1,0,0:0:0:0:
448,192,68631,1,0,0:0:0:0:
192,192,68631,1,0,0:0:0:0:
320,192,68631,1,0,0:0:0:0:
192,192,68912,1,0,0:0:0:0:
64,192,69006,1,0,0:0:0:0:
320,192,69006,1,0,0:0:0:0:
448,192,69006,1,0,0:0:0:0:
192,192,69193,1,0,0:0:0:0:
320,192,69381,1,0,0:0:0:0:
448,192,69381,1,0,0:0:0:0:
64,192,69568,1,0,0:0:0:0:
448,192,69662,1,0,0:0:0:0:
64,192,69756,1,0,0:0:0:0:
320,192,69756,1,0,0:0:0:0:
192,192,69943,1,0,0:0:0:0:
320,192,70131,1,0,0:0:0:0:
448,192,70131,1,0,0:0:0:0:
192,192,70318,1,0,0:0:0:0:
64,192,70506,1,0,0:0:0:0:
448,192,70506,1,0,0:0:0:0:
320,192,70693,1,0,0:0:0:0:
64,192,70881,1,0,0:0:0:0:
192,192,70881,1,0,0:0:0:0:
320,192,71068,1,0,0:0:0:0:
64,192,71162,1,0,0:0:0:0:
448,192,71256,1,0,0:0:0:0:
192,192,71256,1,0,0:0:0:0:
320,192,71349,1,0,0:0:0:0:
64,192,71443,1,0,0:0:0:0:
64,192,71631,1,0,0:0:0:0:
192,192,71631,1,0,0:0:0:0:
320,192,71818,1,0,0:0:0:0:
64,192,71912,1,0,0:0:0:0:
448,192,72006,1,0,0:0:0:0:
192,192,72006,1,0,0:0:0:0:
320,192,72193,1,0,0:0:0:0:
64,192,72381,1,0,0:0:0:0:
448,192,72381,1,0,0:0:0:0:
192,192,72568,1,0,0:0:0:0:
448,192,72756,1,0,0:0:0:0:
320,192,72756,1,0,0:0:0:0:
192,192,72943,1,0,0:0:0:0:
64,192,73131,1,0,0:0:0:0:
320,192,73131,1,0,0:0:0:0:
192,192,73318,1,0,0:0:0:0:
64,192,73506,1,0,0:0:0:0:
448,192,73506,1,0,0:0:0:0:
320,192,73506,1,0,0:0:0:0:
192,192,73881,1,0,0:0:0:0:
320,192,73881,1,0,0:0:0:0:
64,192,73881,1,0,0:0:0:0:
320,192,74256,1,0,0:0:0:0:
448,192,74256,1,0,0:0:0:0:
192,192,74256,1,0,0:0:0:0:
64,192,74631,1,0,0:0:0:0:
192,192,74631,1,0,0:0:0:0:
320,192,74631,1,0,0:0:0:0:
64,192,74912,1,0,0:0:0:0:
192,192,75006,1,0,0:0:0:0:
320,192,75006,1,0,0:0:0:0:
448,192,75006,1,0,0:0:0:0:
64,192,75193,1,0,0:0:0:0:
192,192,75381,1,0,0:0:0:0:
448,192,75381,1,0,0:0:0:0:
320,192,75568,1,0,0:0:0:0:
192,192,75756,1,0,0:0:0:0:
64,192,75756,1,0,0:0:0:0:
448,192,75943,1,0,0:0:0:0:
320,192,76131,1,0,0:0:0:0:
64,192,76131,1,0,0:0:0:0:
192,192,76318,1,0,0:0:0:0:
320,192,76506,1,0,0:0:0:0:
448,192,76506,1,0,0:0:0:0:
64,192,76693,1,0,0:0:0:0:
192,192,76881,1,0,0:0:0:0:
320,192,76881,1,0,0:0:0:0:
448,192,77068,1,0,0:0:0:0:
192,192,77162,1,0,0:0:0:0:
64,192,77256,1,0,0:0:0:0:
320,192,77256,1,0,0:0:0:0:
192,192,77443,1,0,0:0:0:0:
320,192,77631,1,0,0:0:0:0:
448,192,77631,1,0,0:0:0:0:
192,192,77818,1,0,0:0:0:0:
64,192,78006,1,0,0:0:0:0:
320,192,78006,1,0,0:0:0:0:
192,192,78193,1,0,0:0:0:0:
448,192,78381,1,0,0:0:0:0:
64,192,78381,1,0,0:0:0:0:
320,192,78568,1,0,0:0:0:0:
192,192,78756,1,0,0:0:0:0:
64,192,78756,1,0,0:0:0:0:
448,192,78943,1,0,0:0:0:0:
320,192,79131,1,0,0:0:0:0:
64,192,79131,1,0,0:0:0:0:
192,192,79318,1,0,0:0:0:0:
320,192,79506,1,0,0:0:0:0:
448,192,79506,1,0,0:0:0:0:
64,192,79693,1,0,0:0:0:0:
192,192,79881,1,0,0:0:0:0:
448,192,79881,1,0,0:0:0:0:
320,192,80068,1,0,0:0:0:0:
64,192,80256,1,0,0:0:0:0:
448,192,80256,1,0,0:0:0:0:
192,192,80443,1,0,0:0:0:0:
320,192,80631,1,0,0:0:0:0:
448,192,80631,1,0,0:0:0:0:
64,192,80818,1,0,0:0:0:0:
448,192,80912,1,0,0:0:0:0:
192,192,81006,1,0,0:0:0:0:
320,192,81006,1,0,0:0:0:0:
64,192,81006,1,0,0:0:0:0:
448,192,81193,1,0,0:0:0:0:
320,192,81381,1,0,0:0:0:0:
64,192,81381,1,0,0:0:0:0:
192,192,81568,1,0,0:0:0:0:
448,192,81756,1,0,0:0:0:0:
64,192,81756,1,0,0:0:0:0:
192,192,81943,1,0,0:0:0:0:
320,192,82131,1,0,0:0:0:0:
64,192,82131,1,0,0:0:0:0:
448,192,82318,1,0,0:0:0:0:
320,192,82506,1,0,0:0:0:0:
64,192,82506,1,0,0:0:0:0:
64,192,82693,1,0,0:0:0:0:
448,192,82881,1,0,0:0:0:0:
192,192,82881,1,0,0:0:0:0:
320,192,83068,1,0,0:0:0:0:
448,192,83162,1,0,0:0:0:0:
64,192,83256,1,0,0:0:0:0:
192,192,83256,1,0,0:0:0:0:
448,192,83443,1,0,0:0:0:0:
320,192,83631,1,0,0:0:0:0:
192,192,83631,1,0,0:0:0:0:
64,192,83818,1,0,0:0:0:0:
448,192,84006,1,0,0:0:0:0:
64,192,84006,1,0,0:0:0:0:
320,192,84193,1,0,0:0:0:0:
192,192,84381,1,0,0:0:0:0:
448,192,84381,1,0,0:0:0:0:
64,192,84568,1,0,0:0:0:0:
320,192,84756,1,0,0:0:0:0:
448,192,84756,1,0,0:0:0:0:
192,192,84943,1,0,0:0:0:0:
320,192,85131,1,0,0:0:0:0:
64,192,85131,1,0,0:0:0:0:
448,192,85318,1,0,0:0:0:0:
64,192,85506,1,0,0:0:0:0:
448,192,85506,1,0,0:0:0:0:
320,192,85599,1,0,0:0:0:0:
192,192,85693,1,0,0:0:0:0:
448,192,85787,1,0,0:0:0:0:
64,192,85881,1,0,0:0:0:0:
320,192,85881,1,0,0:0:0:0:
192,192,85974,1,0,0:0:0:0:
320,192,86068,1,0,0:0:0:0:
64,192,86162,1,0,0:0:0:0:
192,192,86256,1,0,0:0:0:0:
448,192,86256,1,0,0:0:0:0:
320,192,86349,1,0,0:0:0:0:
192,192,86443,1,0,0:0:0:0:
64,192,86537,1,0,0:0:0:0:
320,192,86631,1,0,0:0:0:0:
448,192,86631,1,0,0:0:0:0:
192,192,86631,1,0,0:0:0:0:
192,192,87006,1,0,0:0:0:0:
64,192,87006,1,0,0:0:0:0:
448,192,87006,1,0,0:0:0:0:
448,192,87381,1,0,0:0:0:0:
320,192,87381,1,0,0:0:0:0:
64,192,87381,1,0,0:0:0:0:
64,192,87568,1,0,0:0:0:0:
448,192,87756,1,0,0:0:0:0:
320,192,87756,1,0,0:0:0:0:
192,192,87943,1,0,0:0:0:0:
320,192,88131,1,0,0:0:0:0:
64,192,88131,1,0,0:0:0:0:
448,192,88318,1,0,0:0:0:0:
192,192,88506,1,0,0:0:0:0:
64,192,88506,1,0,0:0:0:0:
320,192,88693,1,0,0:0:0:0:
448,192,88881,1,0,0:0:0:0:
64,192,88881,1,0,0:0:0:0:
192,192,89068,1,0,0:0:0:0:
448,192,89256,1,0,0:0:0:0:
320,192,89256,1,0,0:0:0:0:
192,192,89256,1,0,0:0:0:0:
64,192,89631,1,0,0:0:0:0:
192,192,89631,1,0,0:0:0:0:
320,192,89631,1,0,0:0:0:0:
64,192,89912,1,0,0:0:0:0:
448,192,90006,1,0,0:0:0:0:
192,192,90006,1,0,0:0:0:0:
320,192,90193,1,0,0:0:0:0:
64,192,90381,1,0,0:0:0:0:
192,192,90381,1,0,0:0:0:0:
320,192,90568,1,0,0:0:0:0:
448,192,90756,1,0,0:0:0:0:
192,192,90756,1,0,0:0:0:0:
320,192,90943,1,0,0:0:0:0:
64,192,91131,1,0,0:0:0:0:
192,192,91131,1,0,0:0:0:0:
448,192,91318,128,0,91693:0:0:0:0:
320,192,91318,1,0,0:0:0:0:
192,192,91506,1,0,0:0:0:0:
320,192,91693,128,0,91881:0:0:0:0:
64,192,91693,1,0,0:0:0:0:
192,192,91881,1,0,0:0:0:0:
320,192,92068,128,0,92443:0:0:0:0:
448,192,92068,1,0,0:0:0:0:
64,192,92256,1,0,0:0:0:0:
192,192,92443,128,0,92631:0:0:0:0:
64,192,92631,128,0,93006:0:0:0:0:
448,192,92631,1,0,0:0:0:0:
320,192,92724,1,0,0:0:0:0:
192,192,92818,1,0,0:0:0:0:
320,192,92912,1,0,0:0:0:0:
192,192,93006,1,0,0:0:0:0:
448,192,93006,1,0,0:0:0:0:
448,192,93381,1,0,0:0:0:0:
64,192,93381,1,0,0:0:0:0:
320,192,93381,1,0,0:0:0:0:
192,192,93568,1,0,0:0:0:0:
320,192,93756,1,0,0:0:0:0:
448,192,93756,1,0,0:0:0:0:
64,192,93943,1,0,0:0:0:0:
192,192,94131,1,0,0:0:0:0:
320,192,94131,1,0,0:0:0:0:
448,192,94318,1,0,0:0:0:0:
64,192,94506,1,0,0:0:0:0:
320,192,94506,1,0,0:0:0:0:
192,192,94693,1,0,0:0:0:0:
64,192,94881,1,0,0:0:0:0:
448,192,94881,1,0,0:0:0:0:
320,192,95068,1,0,0:0:0:0:
192,192,95256,1,0,0:0:0:0:
448,192,95256,1,0,0:0:0:0:
64,192,95256,1,0,0:0:0:0:
448,192,95631,1,0,0:0:0:0:
320,192,95631,1,0,0:0:0:0:
64,192,95631,1,0,0:0:0:0:
320,192,95818,1,0,0:0:0:0:
192,192,95912,1,0,0:0:0:0:
64,192,96006,1,0,0:0:0:0:
448,192,96006,1,0,0:0:0:0:
320,192,96193,1,0,0:0:0:0:
192,192,96381,1,0,0:0:0:0:
448,192,96381,1,0,0:0:0:0:
64,192,96568,1,0,0:0:0:0:
320,192,96756,1,0,0:0:0:0:
448,192,96756,1,0,0:0:0:0:
192,192,96943,1,0,0:0:0:0:
64,192,97131,1,0,0:0:0:0:
448,192,97131,1,0,0:0:0:0:
320,192,97318,1,0,0:0:0:0:
448,192,97506,1,0,0:0:0:0:
64,192,97506,1,0,0:0:0:0:
192,192,97599,1,0,0:0:0:0:
320,192,97693,1,0,0:0:0:0:
448,192,97787,1,0,0:0:0:0:
64,192,97881,1,0,0:0:0:0:
320,192,97881,1,0,0:0:0:0:
192,192,97974,1,0,0:0:0:0:
320,192,98068,1,0,0:0:0:0:
64,192,98162,1,0,0:0:0:0:
192,192,98256,1,0,0:0:0:0:
448,192,98256,1,0,0:0:0:0:
320,192,98349,1,0,0:0:0:0:
192,192,98443,1,0,0:0:0:0:
320,192,98537,1,0,0:0:0:0:
64,192,98631,1,0,0:0:0:0:
448,192,98631,1,0,0:0:0:0:
192,192,98724,1,0,0:0:0:0:
320,192,98818,1,0,0:0:0:0:
448,192,98912,1,0,0:0:0:0:
64,192,99006,1,0,0:0:0:0:
192,192,99006,1,0,0:0:0:0:
320,192,99006,1,0,0:0:0:0:
448,192,99381,1,0,0:0:0:0:
64,192,99381,1,0,0:0:0:0:
192,192,99381,1,0,0:0:0:0:
192,192,99568,1,0,0:0:0:0:
320,192,99756,1,0,0:0:0:0:
448,192,99756,1,0,0:0:0:0:
192,192,99943,1,0,0:0:0:0:
320,192,100131,1,0,0:0:0:0:
64,192,100131,1,0,0:0:0:0:
448,192,100318,1,0,0:0:0:0:
320,192,100506,1,0,0:0:0:0:
192,192,100506,1,0,0:0:0:0:
64,192,100693,1,0,0:0:0:0:
448,192,100881,1,0,0:0:0:0:
320,192,100881,1,0,0:0:0:0:
192,192,101068,1,0,0:0:0:0:
64,192,101256,1,0,0:0:0:0:
320,192,101256,1,0,0:0:0:0:
448,192,101256,1,0,0:0:0:0:
64,192,101631,1,0,0:0:0:0:
192,192,101631,1,0,0:0:0:0:
448,192,101631,1,0,0:0:0:0:
64,192,101912,1,0,0:0:0:0:
320,192,102006,1,0,0:0:0:0:
448,192,102006,1,0,0:0:0:0:
192,192,102193,1,0,0:0:0:0:
64,192,102381,1,0,0:0:0:0:
448,192,102381,1,0,0:0:0:0:
320,192,102568,1,0,0:0:0:0:
192,192,102756,1,0,0:0:0:0:
448,192,102756,1,0,0:0:0:0:
320,192,102943,1,0,0:0:0:0:
64,192,103131,1,0,0:0:0:0:
192,192,103131,1,0,0:0:0:0:
320,192,103318,1,0,0:0:0:0:
448,192,103318,128,0,103693:0:0:0:0:
192,192,103506,1,0,0:0:0:0:
64,192,103693,1,0,0:0:0:0:
320,192,103693,128,0,103881:0:0:0:0:
192,192,103881,1,0,0:0:0:0:
320,192,104068,128,0,104443:0:0:0:0:
64,192,104068,1,0,0:0:0:0:
192,192,104256,1,0,0:0:0:0:
192,192,104443,128,0,104631:0:0:0:0:
448,192,104443,1,0,0:0:0:0:
64,192,104631,128,0,105006:0:0:0:0:
320,192,104631,1,0,0:0:0:0:
448,192,104724,1,0,0:0:0:0:
320,192,104818,1,0,0:0:0:0:
448,192,104912,1,0,0:0:0:0:
192,192,105006,1,0,0:0:0:0:
320,192,105006,1,0,0:0:0:0:
64,192,105381,1,0,0:0:0:0:
192,192,105381,1,0,0:0:0:0:
448,192,105381,1,0,0:0:0:0:
320,192,105568,1,0,0:0:0:0:
192,192,105756,1,0,0:0:0:0:
448,192,105756,1,0,0:0:0:0:
64,192,105943,1,0,0:0:0:0:
192,192,106131,1,0,0:0:0:0:
320,192,106131,1,0,0:0:0:0:
448,192,106318,1,0,0:0:0:0:
64,192,106506,1,0,0:0:0:0:
320,192,106506,1,0,0:0:0:0:
192,192,106693,1,0,0:0:0:0:
320,192,106881,1,0,0:0:0:0:
64,192,106881,1,0,0:0:0:0:
448,192,107068,1,0,0:0:0:0:
320,192,107256,1,0,0:0:0:0:
192,192,107256,1,0,0:0:0:0:
64,192,107256,1,0,0:0:0:0:
192,192,107631,1,0,0:0:0:0:
320,192,107631,1,0,0:0:0:0:
448,192,107631,1,0,0:0:0:0:
192,192,107818,1,0,0:0:0:0:
448,192,107912,1,0,0:0:0:0:
64,192,108006,1,0,0:0:0:0:
320,192,108006,1,0,0:0:0:0:
192,192,108193,1,0,0:0:0:0:
448,192,108381,1,0,0:0:0:0:
64,192,108381,1,0,0:0:0:0:
320,192,108568,1,0,0:0:0:0:
192,192,108756,1,0,0:0:0:0:
64,192,108756,1,0,0:0:0:0:
448,192,108943,1,0,0:0:0:0:
320,192,109131,1,0,0:0:0:0:
64,192,109131,1,0,0:0:0:0:
192,192,109318,1,0,0:0:0:0:
448,192,109506,1,0,0:0:0:0:
64,192,109506,1,0,0:0:0:0:
320,192,109599,1,0,0:0:0:0:
192,192,109693,1,0,0:0:0:0:
448,192,109787,1,0,0:0:0:0:
320,192,109881,1,0,0:0:0:0:
64,192,109881,1,0,0:0:0:0:
192,192,109974,1,0,0:0:0:0:
320,192,110068,1,0,0:0:0:0:
448,192,110162,1,0,0:0:0:0:
320,192,110256,1,0,0:0:0:0:
64,192,110256,1,0,0:0:0:0:
192,192,110349,1,0,0:0:0:0:
320,192,110443,1,0,0:0:0:0:
192,192,110537,1,0,0:0:0:0:
448,192,110631,1,0,0:0:0:0:
320,192,110677,1,0,0:0:0:0:
192,192,110724,1,0,0:0:0:0:
64,192,110771,1,0,0:0:0:0:
448,192,110818,1,0,0:0:0:0:
320,192,110865,1,0,0:0:0:0:
192,192,110912,1,0,0:0:0:0:
64,192,110959,1,0,0:0:0:0:
320,192,111006,1,0,0:0:0:0:
448,192,111006,1,0,0:0:0:0:
64,192,111381,1,0,0:0:0:0:
192,192,111381,1,0,0:0:0:0:
