osu file format v14

[General]
AudioFilename: audio.mp3
AudioLeadIn: 0
PreviewTime: 234300
Countdown: 0
SampleSet: None
StackLeniency: 0.7
Mode: 0
LetterboxInBreaks: 0
WidescreenStoryboard: 1

[Editor]
Bookmarks: 78350,138300,198112,263727
DistanceSpacing: 1.2
BeatDivisor: 4
GridSize: 8
TimelineZoom: 3.599999

[Metadata]
Title:Dancing
TitleUnicode:Dancing
Artist:Vicky Vale
ArtistUnicode:Vicky Vale
Creator:Bubba
Version:Cool Vibrations
Source:wroom wroom
Tags:Vicky Vale Dancing Eurobeat
BeatmapID:1576945
BeatmapSetID:748573

[Difficulty]
HPDrainRate:6
CircleSize:4
OverallDifficulty:8.1
ApproachRate:8
SliderMultiplier:1.4
SliderTickRate:1

[Events]
//Background and Video events
//Break Periods
//Storyboard Layer 0 (Background)
//Storyboard Layer 1 (Fail)
//Storyboard Layer 2 (Pass)
//Storyboard Layer 3 (Foreground)
//Storyboard Sound Samples

[TimingPoints]
18350.6778301076,375,4,2,0,100,1,0
66350,-100,4,2,0,100,0,1
90069,-100,4,2,0,100,0,0
114300,375,4,2,0,100,1,1
150112,-100,4,2,0,100,0,0
201300,-100,4,2,0,100,0,1
210290,375,4,2,0,100,1,0
222270,375,4,2,0,100,1,0
260500,375,4,2,0,100,1,0

[HitObjects]
160,176,18350,6,0,L|240:144,1,70
312,128,18631,1,0,0:0:0:0:
320,192,18725,1,0,0:0:0:0:
160,264,18913,1,0,0:0:0:0:
72,160,19100,1,0,0:0:0:0:
200,88,19288,1,0,0:0:0:0:
456,184,19381,1,0,0:0:0:0:
400,120,19475,2,0,L|336:56,1,70
208,256,19850,2,0,L|168:192,1,70
112,144,20131,1,0,0:0:0:0:
200,112,20225,1,0,0:0:0:0:
320,144,20413,1,0,0:0:0:0:
368,248,20600,1,0,0:0:0:0:
368,248,20694,1,0,0:0:0:0:
368,248,20788,1,0,0:0:0:0:
368,248,20881,1,0,0:0:0:0:
368,248,20975,2,0,L|272:256,1,70
112,176,21350,2,0,P|112:128|112:112,2,35
112,96,21631,1,0,0:0:0:0:
144,80,21725,1,0,0:0:0:0:
184,72,21819,1,0,0:0:0:0:
224,72,21913,1,0,0:0:0:0:
352,144,22100,1,0,0:0:0:0:
352,184,22194,1,0,0:0:0:0:
328,208,22288,1,0,0:0:0:0:
304,224,22381,1,0,0:0:0:0:
256,240,22475,2,0,L|168:232,1,70
80,224,22850,2,0,L|80:144,1,70
88,120,23131,1,0,0:0:0:0:
128,96,23225,1,0,0:0:0:0:
224,88,23413,1,0,0:0:0:0:
352,112,23600,1,0,0:0:0:0:
392,120,23694,1,0,0:0:0:0:
432,128,23788,1,0,0:0:0:0:
472,144,23881,1,0,0:0:0:0:
480,208,23975,2,0,L|416:248,1,70
208,304,24350,2,0,L|136:256,1,70
120,208,24631,1,0,0:0:0:0:
136,168,24725,1,0,0:0:0:0:
128,144,24819,1,0,0:0:0:0:
144,112,24913,1,0,0:0:0:0:
264,112,25100,2,0,L|280:72,2,35
384,168,25475,2,0,L|328:232,1,70
232,256,25850,2,0,L|136:224,1,70
112,192,26131,1,0,0:0:0:0:
104,144,26225,1,0,0:0:0:0:
112,104,26319,1,0,0:0:0:0:
136,80,26413,1,0,0:0:0:0:
264,112,26600,2,0,L|288:80,2,35
416,192,26975,2,0,L|360:248,1,70
256,256,27350,2,0,L|208:256,2,35
168,256,27631,1,0,0:0:0:0:
128,240,27725,1,0,0:0:0:0:
112,216,27819,1,0,0:0:0:0:
104,168,27913,1,0,0:0:0:0:
200,96,28100,2,0,L|232:56,2,35
272,168,28475,2,0,L|216:248,1,70
216,280,28756,1,0,0:0:0:0:
256,288,28850,1,0,0:0:0:0:
304,296,28944,1,0,0:0:0:0:
344,296,29038,1,0,0:0:0:0:
384,288,29131,1,0,0:0:0:0:
416,256,29225,2,0,L|424:216,2,35
432,160,29506,1,0,0:0:0:0:
408,112,29600,2,0,L|368:80,2,35
352,80,29881,1,0,0:0:0:0:
168,160,30038,2,0,L|160:144,9,11.6666666666667
192,224,30350,2,0,L|208:256,2,35
256,272,30631,1,0,0:0:0:0:
320,272,30725,1,0,0:0:0:0:
376,264,30819,1,0,0:0:0:0:
448,264,30913,1,0,0:0:0:0:
472,256,31006,1,0,0:0:0:0:
472,200,31100,2,0,L|432:112,1,70
