osu file format v14

[General]
AudioFilename: audio.mp3
AudioLeadIn: 0
PreviewTime: -1
Countdown: 1
SampleSet: Normal
StackLeniency: 0.7
Mode: 0
LetterboxInBreaks: 0
WidescreenStoryboard: 1

[Editor]
Bookmarks: 147571,147792
DistanceSpacing: 0.5
BeatDivisor: 4
GridSize: 4
TimelineZoom: 3.399999

[Metadata]
Title:Black Rover ft. R3 Music Box
TitleUnicode:Black Rover ft. R3 Music Box
Artist:Vickeblanka
ArtistUnicode:Vickeblanka
Creator:Veth
Version:Simon schnall dich jetzt sahnig an!
Source:
Tags:simon rahn
BeatmapID:1929365
BeatmapSetID:923885

[Difficulty]
HPDrainRate:6
CircleSize:4
OverallDifficulty:9
ApproachRate:9.8
SliderMultiplier:3.19999990463257
SliderTickRate:1

[Events]
//Background and Video events
0,0,"maxresdefault.png",0,0
//Break Periods
2,67992,74402
2,137845,146724
//Storyboard Layer 0 (Background)
//Storyboard Layer 1 (Fail)
//Storyboard Layer 2 (Pass)
//Storyboard Layer 3 (Foreground)
//Storyboard Sound Samples

[TimingPoints]
7792,-200,4,1,0,65,0,0
7793,294.117647058824,4,1,0,100,1,0
7793,294.117647058824,4,1,0,100,1,0
7793,294.117647058824,4,1,0,65,1,0
8234,-133.333333333333,4,1,0,65,0,0
15440,-1000,4,1,0,65,0,0
16028,-500,4,1,0,65,0,0
27793,-66.6666666666667,4,1,0,65,0,0
34410,-133.333333333333,4,1,0,65,0,0
36028,-333.333333333333,4,1,0,65,0,0
40145,-666.666666666667,4,1,0,65,0,0
46028,-1000,4,1,0,65,0,0
47645,-200,4,1,0,65,0,0
48234,-100,4,1,0,65,0,0
48675,-333.333333333333,4,1,0,65,0,0
48969,-90.9090909090909,4,1,0,65,0,0
49557,-200,4,1,0,65,0,0
51028,-333.333333333333,4,1,0,65,0,0
51322,-66.6666666666667,4,1,0,65,0,0
51910,-200,4,1,0,65,0,0
53381,-333.333333333333,4,1,0,65,0,0
53675,-1000,4,1,0,65,0,0
54263,-200,4,1,0,65,0,0
57204,-500,4,1,0,65,0,0
57645,-50,4,1,0,65,0,0
58087,-200,4,1,0,65,0,0
65734,-333.333333333333,4,1,0,65,0,0
66028,-66.6666666666667,4,1,0,65,0,0
66616,-50,4,1,0,65,0,0
67057,294.117647058824,4,1,0,100,1,0
67057,294.117647058824,4,1,0,100,1,0
67057,294.117647058824,4,1,0,100,1,0
74844,-228.571428571429,4,1,0,100,0,0
74881.6894569307,294.117647058824,4,1,0,39,1,0
75469,-228.571428571429,4,1,0,39,0,0
77514,294.117647058824,4,1,0,39,1,0
77528,-207.792207792208,4,1,0,39,0,0
85442,294.117647058824,4,1,0,39,1,0
85883,-228.571428571429,4,1,0,62,0,0
86027,-190.47619047619,4,1,0,62,0,0
86619,294.117647058824,4,1,0,62,1,0
86619,-228.571428571429,4,1,0,62,0,0
95442,-304.761904761905,4,1,0,39,0,0
104266,-228.571428571429,4,1,0,39,0,0
106619,-142.857142857143,4,1,0,73,0,0
106766,-142.857142857143,4,1,0,91,0,0
107060,-142.857142857143,4,1,0,100,0,0
126030,-100,4,1,0,100,0,0
135442,-304.761904761905,4,1,0,64,0,0
137571,-200,4,1,0,39,0,0
137645,294.117647058824,4,1,0,100,1,0
137645,294.117647058824,4,1,0,100,1,0
137645,294.117647058824,4,1,0,39,1,0
146027,-100,4,1,0,100,0,0
146027,-100,4,1,0,100,0,0
147203,-351.648351648352,4,1,0,39,0,0
163674,-351.648351648352,4,1,0,81,0,0
164850,-182.857142857143,4,1,0,91,0,0
169556,-100,4,1,0,39,0,0
170586,-100,4,1,0,100,0,1
170586,-100,4,1,0,100,0,1
196615,-400,4,1,0,100,0,0
196615,-400,4,1,0,100,0,0
198821,-100,4,1,0,100,0,0
198821,-100,4,1,0,100,0,0
206027,294.117647058824,4,1,0,100,1,0
206027,294.117647058824,4,1,0,100,1,0
211006.747285515,384.615384615385,4,1,0,100,1,0
211009,-200,4,1,0,20,0,0
211015,384.615384615385,4,1,0,100,1,0
212136,-71.4285714285714,4,1,0,100,0,0
221784,-55.5555555555556,4,1,0,100,0,0
222553,-35.7142857142857,4,1,0,100,0,0
223130,-25,4,1,0,100,0,0
224476,-399.999999999997,4,1,0,100,0,0
236015,-100,4,1,0,100,0,0
236784,-71.4285714285714,4,1,0,100,0,0
246399,-55.5555555555556,4,1,0,100,0,0
247168,-35.7142857142857,4,1,0,100,0,0
247745,-25,4,1,0,100,0,0
248322,-399.999999999997,4,1,0,100,0,0
260630,-666.666666666658,4,1,0,100,0,0
261784,-1000,4,1,0,100,0,0
263851,-100,4,1,0,100,0,0

[HitObjects]
118,80,7793,6,0,L|177:116,1,39.9999988079071
343,277,7940,1,0,0:0:0:0:
79,210,8087,2,0,L|146:194,1,39.9999988079071,0|0,3:3|3:3,3:3:0:0:
370,190,8234,2,0,P|306:187|262:246,1,120.000001001358
187,331,8528,1,0,0:0:0:0:
431,304,8675,1,0,0:0:0:0:
319,68,8822,2,0,P|418:104|449:144,1,120.000001001358
157,124,9116,1,0,0:0:0:0:
258,173,9263,1,0,0:0:0:0:
65,315,9557,5,0,0:0:0:0:
245,260,9704,1,0,0:0:0:0:
43,279,9851,5,0,0:0:0:0:
266,295,9998,1,0,0:0:0:0:
28,241,10145,5,0,0:0:0:0:
281,333,10292,1,0,0:0:0:0:
64,170,10440,2,0,P|99:183|122:185,1,60.0000005006791
360,321,10587,1,0,0:0:0:0:
302,112,10734,1,0,0:0:0:0:
146,279,10881,1,0,0:0:0:0:
364,188,11028,2,0,P|286:211|228:178,1,120.000001001358
239,42,11322,1,0,0:0:0:0:
362,51,11469,1,0,0:0:0:0:
444,138,11616,1,0,0:0:0:0:
254,285,11910,5,0,0:0:0:0:
102,228,12057,1,0,0:0:0:0:
229,115,12204,1,0,0:0:0:0:
271,306,12351,1,0,0:0:0:0:
75,233,12498,1,0,0:0:0:0:
238,87,12645,1,0,0:0:0:0:
149,318,12793,2,0,P|179:253|188:246,1,60.0000005006791
326,173,12940,2,0,P|365:84|350:41,1,120.000001001358
183,168,13234,1,0,0:0:0:0:
452,152,13381,1,0,0:0:0:0:
291,330,13675,6,0,P|218:316|152:340,1,120.000001001358
221,54,13969,2,0,P|294:68|360:44,1,120.000001001358
380,266,14263,1,0,0:0:0:0:
122,181,14410,1,0,0:0:0:0:
400,231,14557,1,0,0:0:0:0:
101,215,14704,1,0,0:0:0:0:
411,189,14851,1,0,0:0:0:0:
90,257,14998,1,0,0:0:0:0:
412,142,15145,1,0,0:0:0:0:
148,94,15440,6,0,L|158:104,1,7.99999976158142
255,293,15660,2,0,L|245:283,1,7.99999976158142
114,246,15881,2,0,L|124:236,1,7.99999976158142
290,146,16028,2,0,P|267:170|236:179,1,63.9999980926514
170,55,16616,2,0,P|199:71|215:98,1,63.9999980926514
86,183,17204,6,0,P|115:166|131:139,1,63.9999980926514
306,48,17793,2,0,P|277:65|261:92,2,63.9999980926514
345,235,18675,2,0,L|340:199,1,31.9999990463257
261,90,18969,2,0,L|266:126,1,31.9999990463257
104,165,19263,2,0,L|132:143,1,31.9999990463257
265,121,19557,2,0,L|236:142,2,31.9999990463257
449,66,19998,1,0,0:0:0:0:
449,66,20072,1,0,0:0:0:0:
449,66,20145,2,0,P|404:110|397:123,1,63.9999980926514
130,246,21028,6,0,P|143:225|154:212,1,31.9999990463257
139,100,21322,2,0,P|126:121|115:134,1,31.9999990463257
156,338,21616,2,0,P|169:317|180:304,1,31.9999990463257
165,192,21910,2,0,P|152:213|141:226,2,31.9999990463257
296,97,22351,1,0,0:0:0:0:
296,97,22425,1,0,0:0:0:0:
296,97,22498,2,0,P|286:132|269:168,1,63.9999980926514
333,284,23381,6,0,L|313:260,1,31.9999990463257
385,196,23675,2,0,L|365:172,1,31.9999990463257
269,185,23969,2,0,L|249:161,1,31.9999990463257
321,97,24263,2,0,L|301:73,2,31.9999990463257
415,189,24704,1,0,0:0:0:0:
415,189,24778,1,0,0:0:0:0:
415,189,24851,2,0,P|407:223|386:248,1,63.9999980926514
270,241,25440,2,0,P|278:207|299:182,1,63.9999980926514
386,162,26028,2,0,P|374:119|357:103,1,63.9999980926514
94,95,26616,5,0,0:0:0:0:
402,298,26763,1,0,0:0:0:0:
94,95,26910,1,0,0:0:0:0:
402,298,27057,1,0,0:0:0:0:
94,95,27204,2,0,L|149:134,1,63.9999980926514
318,335,27793,6,0,P|343:204|453:217,1,240.000002002716
214,181,28087,2,0,P|189:50|79:63,1,240.000002002716
460,45,28381,2,0,L|275:237,1,240.000002002716
63,161,28675,1,0,0:0:0:0:
397,252,28822,1,0,0:0:0:0:
144,56,28969,1,0,0:0:0:0:
315,356,29116,2,0,P|201:287|183:175,1,240.000002002716
360,40,29410,2,0,P|474:109|492:221,1,240.000002002716
258,115,29704,1,0,0:0:0:0:
432,281,29851,1,0,0:0:0:0:
84,125,30145,6,0,L|282:307,1,240.000002002716
310,209,30440,2,0,P|349:334|241:381,1,240.000002002716
464,77,30734,2,0,P|425:202|533:249,1,240.000002002716
259,68,31028,1,0,0:0:0:0:
98,317,31175,2,0,L|164:77,2,240.000002002716
332,141,31616,1,0,0:0:0:0:
26,264,31763,2,0,L|92:24,1,240.000002002716
187,291,32057,1,0,0:0:0:0:
291,53,32204,1,0,0:0:0:0:
319,338,32498,6,0,L|440:92,1,240.000002002716
193,46,32793,2,0,L|72:292,1,240.000002002716
367,80,33087,1,0,0:0:0:0:
33,137,33234,1,0,0:0:0:0:
367,80,33381,1,0,0:0:0:0:
33,137,33528,2,0,P|224:164|241:238,1,240.000002002716
107,284,33822,1,0,0:0:0:0:
252,41,33969,2,0,L|385:262,2,240.000002002716
202,324,34410,6,0,L|194:255,1,60.0000005006791
183,172,34557,1,0,0:0:0:0:
252,41,34704,2,0,L|260:110,1,60.0000005006791
271,193,34851,1,0,0:0:0:0:
195,324,34998,2,0,L|185:254,1,60.0000005006791
171,172,35145,1,0,0:0:0:0:
258,41,35292,2,0,L|268:109,1,60.0000005006791
282,193,35439,1,0,0:0:0:0:
186,324,35587,2,0,L|173:254,1,60.0000005006791
155,172,35734,1,0,0:0:0:0:
267,41,35881,2,0,L|280:109,1,60.0000005006791
298,195,36028,6,0,P|326:221|342:231,1,47.9999971046449
441,183,36322,2,0,P|413:157|397:147,1,47.9999971046449
171,136,36616,2,0,L|113:153,1,47.9999971046449
190,243,36910,2,0,L|248:226,1,47.9999971046449
306,138,37204,2,0,L|248:155,1,47.9999971046449
325,245,37498,2,0,L|383:228,1,47.9999971046449
326,338,37793,2,0,L|268:355,1,47.9999971046449
227,248,38087,6,0,P|175:271|144:319,1,95.9999942092898
202,315,38528,2,0,L|173:364,2,47.9999971046449
303,260,38969,2,0,P|242:195|222:196,1,95.9999942092898
292,156,39410,2,0,L|312:209,2,47.9999971046449
209,76,39851,2,0,L|154:87,1,47.9999971046449
109,171,40145,2,0,L|97:219,1,47.9999971046449
155,219,40587,2,0,L|170:249,2,23.9999985523224
312,147,41322,2,0,P|350:125|377:90,1,83.9999949331285
356,172,41910,2,0,P|394:150|421:115,1,83.9999949331285
392,199,42498,2,0,P|430:177|457:142,1,83.9999949331285
422,227,43087,2,0,P|460:205|487:170,1,83.9999949331285
340,267,43675,6,0,L|270:318,1,83.9999949331285
340,267,44263,2,0,L|254:253,1,83.9999949331285
340,267,44851,2,0,L|289:197,1,83.9999949331285
340,267,45440,2,0,L|353:181,1,83.9999949331285
245,110,46028,2,0,P|215:98|185:90,2,63.9999980926514
295,297,47645,5,0,0:0:0:0:
295,297,47719,1,0,0:0:0:0:
295,297,47793,2,0,P|354:240|360:218,1,79.9999976158142
182,155,48087,1,0,0:0:0:0:
69,313,48234,2,0,P|10:256|7:154,1,159.999995231628
229,79,48528,1,0,0:0:0:0:
421,139,48675,2,0,P|450:163|426:191,1,71.9999956569673
439,253,48969,2,0,P|507:128|339:148,1,352.00000025177
79,273,49557,6,0,P|154:249|182:258,1,79.9999976158142
467,277,49851,2,0,P|392:301|364:292,1,79.9999976158142
98,162,50145,1,0,0:0:0:0:
352,74,50293,1,0,0:0:0:0:
202,334,50440,1,0,0:0:0:0:
385,218,50587,2,0,P|306:191|289:175,1,79.9999976158142
468,75,50881,1,0,0:0:0:0:
463,265,51028,2,0,L|459:340,1,71.9999956569673
395,335,51322,2,0,P|318:197|373:354,1,480.000004005432
112,62,51910,6,0,P|121:110|111:155,1,79.9999976158142
52,353,52204,2,0,P|43:305|53:260,1,79.9999976158142
243,67,52498,1,0,0:0:0:0:
154,298,52645,1,0,0:0:0:0:
399,111,52793,1,0,0:0:0:0:
332,342,52940,2,0,P|314:291|284:270,1,79.9999976158142
74,173,53234,1,0,0:0:0:0:
305,44,53381,2,0,P|304:92|288:126,1,71.9999956569673
248,116,53675,2,0,L|248:79,1,31.9999990463257
132,288,54263,6,0,P|179:257|208:254,1,79.9999976158142
445,103,54557,2,0,P|398:134|369:137,1,79.9999976158142
129,123,54851,1,0,0:0:0:0:
344,304,54998,1,0,0:0:0:0:
299,82,55145,1,0,0:0:0:0:
477,251,55293,2,0,P|434:218|398:213,1,79.9999976158142
132,310,55587,1,0,0:0:0:0:
387,132,55734,1,0,0:0:0:0:
106,189,55881,1,0,0:0:0:0:
314,27,56028,1,0,0:0:0:0:
56,73,56175,1,0,0:0:0:0:
413,52,56322,1,0,0:0:0:0:
175,353,56616,6,0,P|271:343|356:287,1,199.999994039536
285,265,57204,2,0,P|245:284|204:293,1,79.9999976158142
198,239,57645,2,0,P|349:95|301:222,1,639.999980926514
198,65,58087,2,0,P|258:59|285:67,1,79.9999976158142
493,197,58381,2,0,P|433:203|406:195,1,79.9999976158142
133,166,58675,1,0,0:0:0:0:
496,43,58969,6,0,L|409:88,1,79.9999976158142
267,315,59263,2,0,L|354:270,1,79.9999976158142
492,148,59557,1,0,0:0:0:0:
182,245,59704,1,0,0:0:0:0:
324,37,59851,1,0,0:0:0:0:
80,265,59998,2,0,P|100:196|131:163,1,79.9999976158142
420,61,60293,1,0,0:0:0:0:
249,324,60440,1,0,0:0:0:0:
149,52,60587,1,0,0:0:0:0:
423,233,60734,6,0,P|359:204|325:202,1,79.9999976158142
135,172,61028,2,0,P|199:143|233:141,1,79.9999976158142
429,93,61322,1,0,0:0:0:0:
289,313,61469,1,0,0:0:0:0:
256,43,61616,1,0,0:0:0:0:
425,322,61763,1,0,0:0:0:0:
191,218,61910,1,0,0:0:0:0:
353,40,62057,1,0,0:0:0:0:
472,235,62204,1,0,0:0:0:0:
214,128,62351,2,0,P|289:133|316:122,2,79.9999976158142
400,325,62793,2,0,P|348:305|266:331,1,119.999996423721
254,283,63087,6,0,L|87:233,1,159.999995231628
430,71,63675,2,0,P|367:119|345:122,1,79.9999976158142
223,154,63969,2,0,P|286:202|308:205,1,79.9999976158142
341,18,64263,1,0,0:0:0:0:
125,208,64410,1,0,0:0:0:0:
411,203,64557,1,0,0:0:0:0:
195,349,64704,1,0,0:0:0:0:
343,120,64851,1,0,0:0:0:0:
54,130,64998,1,0,0:0:0:0:
339,293,65145,1,0,0:0:0:0:
44,303,65293,1,0,0:0:0:0:
200,62,65440,1,0,0:0:0:0:
188,312,65734,6,0,P|182:280|202:304,1,71.9999956569673
253,323,66028,2,0,P|315:139|280:352,1,720.000006008149
253,323,66616,2,0,P|312:121|280:352,1,799.999976158142
288,358,67057,2,0,P|458:149|253:323,1,799.999976158142
124,94,74881,6,0,B|195:57|269:71|269:71|218:116|205:161,1,245
192,189,75469,2,0,B|197:198|203:207|213:217|221:223|233:228|243:235|253:239|263:242|277:247|290:253|302:256|313:246|310:258|313:229|312:215|304:208|300:199|293:186|289:171|287:157|291:137|303:120|323:110,1,245
339,81,76058,2,0,B|360:145|416:154|416:154|441:218|410:257,1,210
416,248,76609,1,0,0:0:0:0:
92,78,77528,5,0,0:0:0:0:
211,86,77661,1,0,0:0:0:0:
111,160,77808,1,0,0:0:0:0:
234,164,77955,1,0,0:0:0:0:
137,237,78102,1,0,0:0:0:0:
257,243,78249,1,0,0:0:0:0:
160,327,78396,2,0,L|270:318,1,77.0000023498536
408,338,78690,2,0,L|374:236,1,77.0000023498536
407,227,78911,1,0,0:0:0:0:
407,227,78984,2,0,P|359:158|286:100,1,154.000004699707
183,37,79425,2,0,P|177:107|151:199,1,154.000004699707
122,319,79866,5,0,0:0:0:0:
88,292,80014,1,0,0:0:0:0:
172,209,80161,2,0,P|209:174|258:147,1,77.0000023498536
364,163,80455,2,0,P|331:191|300:238,1,77.0000023498536
236,321,80749,5,0,0:0:0:0:
199,346,80896,1,0,0:0:0:0:
46,188,81043,2,0,B|91:198|91:198|138:233,1,77.0000023498536
158,257,81264,1,0,0:0:0:0:
158,257,81337,2,0,P|172:169|207:93,1,154.000004699707
257,49,81778,1,0,0:0:0:0:
367,47,81925,2,0,P|347:82|326:142,1,77.0000023498536
280,238,82219,6,0,P|259:207|206:162,1,77.0000023498536
90,106,82514,1,0,0:0:0:0:
206,178,82661,1,0,0:0:0:0:
78,154,82808,1,0,0:0:0:0:
211,127,82955,1,0,0:0:0:0:
94,231,83102,2,0,P|105:261|134:307,1,77.0000023498536
247,344,83396,2,0,P|232:307|231:258,1,77.0000023498536
271,245,83616,1,0,0:0:0:0:
271,245,83690,2,0,P|304:157|315:92,1,154.000004699707
450,34,84131,5,0,0:0:0:0:
450,34,84278,2,0,P|445:102|420:187,1,154.000004699707
380,298,84719,1,0,0:0:0:0:
305,228,84866,1,0,0:0:0:0:
291,329,85014,1,0,0:0:0:0:
380,298,85161,1,0,0:0:0:0:
213,129,85442,5,0,0:0:0:0:
225,342,85589,1,0,0:0:0:0:
151,270,85736,5,0,0:0:0:0:
297,144,85883,2,0,L|251:105,1,35
175,51,86030,2,0,B|164:88|179:117|179:117|163:124|163:124|171:153|163:216,1,167.999994873047
469,327,86619,6,0,B|468:285|468:285|456:226,1,70
291,46,86913,2,0,B|282:83|282:83|281:125,1,70
304,335,87207,1,0,0:0:0:0:
295,88,87354,1,0,0:0:0:0:
163,93,87501,2,0,B|164:133|164:133|176:178,1,70
250,348,87795,1,0,0:0:0:0:
260,38,87942,1,0,0:0:0:0:
96,125,88089,5,0,0:0:0:0:
84,181,88163,1,0,0:0:0:0:
97,235,88236,2,0,P|126:258|171:279,1,70
261,283,88530,6,0,L|307:278,1,35
419,256,88677,2,0,P|336:200|270:182,1,140
247,186,89045,1,0,0:0:0:0:
197,209,89119,2,0,L|242:244,1,35
373,337,89266,6,0,P|344:277|269:206,1,140
206,145,89707,1,0,0:0:0:0:
451,152,89854,1,0,0:0:0:0:
217,34,90001,1,0,0:0:0:0:
469,60,90148,5,0,0:0:0:0:
433,109,90246,1,0,0:0:0:0:
429,169,90344,1,0,0:0:0:0:
439,228,90442,2,0,P|372:210|296:227,1,140
40,310,90883,6,0,P|96:289|193:284,1,140
357,304,91324,2,0,P|292:242|263:190,1,140
217,62,91766,2,0,P|177:117|101:164,1,140
11,231,92207,2,0,P|53:259|83:291,1,70
154,343,92501,2,0,L|196:312,1,35
273,224,92648,2,0,L|216:207,1,35
133,200,92795,2,0,P|136:243|164:283,1,70
429,124,93089,6,0,L|411:177,1,35
345,321,93236,1,0,0:0:0:0:
252,120,93383,6,0,L|271:173,1,35
345,321,93530,1,0,0:0:0:0:
354,76,93677,6,8,P|319:39|273:19,1,70
143,6,93971,2,0,P|146:45|161:84,1,70
178,313,94266,2,0,P|211:269|191:234,1,70
35,85,94560,2,0,P|59:102|125:108,1,70
291,114,94854,5,0,0:0:0:0:
192,281,95001,1,0,0:0:0:0:
351,128,95148,1,0,0:0:0:0:
336,329,95295,1,0,0:0:0:0:
433,139,95442,6,0,P|411:113|376:99,1,52.5000020027161
290,29,95736,2,0,P|261:50|251:84,1,52.5000020027161
156,147,96030,2,0,P|173:173|204:196,1,52.5000020027161
321,165,96324,1,0,0:0:0:0:
321,165,96471,2,0,B|324:202|309:206|313:232,1,52.5000020027161
360,356,96766,1,0,0:0:0:0:
447,223,96913,2,0,P|452:177|445:162,1,52.5000020027161
316,12,97207,2,0,P|291:41|269:53,1,52.5000020027161
73,131,97501,2,0,P|83:162|103:183,1,52.5000020027161
192,298,97795,5,0,0:0:0:0:
336,315,97942,1,0,0:0:0:0:
278,169,98089,2,0,P|281:140|278:113,1,52.5000020027161
161,38,98383,2,0,P|162:68|158:102,1,52.5000020027161
98,275,98677,1,0,0:0:0:0:
221,220,98824,1,0,0:0:0:0:
360,72,98971,2,0,P|345:102|335:133,1,52.5000020027161
279,334,99266,2,0,P|273:301|256:275,1,52.5000020027161
139,37,99560,2,0,P|126:62|119:103,1,52.5000020027161
108,311,99854,2,0,P|135:291|162:260,1,52.5000020027161
416,93,100148,6,0,B|399:104|363:83|363:83|381:166|338:171,1,157.500006008148
344,254,100736,2,0,B|307:253|279:287|279:287|267:274|267:274|227:297|187:276,1,157.500006008148
141,242,101324,2,0,B|144:189|161:170|161:170|209:207|244:209,1,157.500006008148
262,290,101913,2,0,L|262:180,1,105.000004005432
290,88,102501,2,0,P|281:124|368:190,1,157.500006008148
347,128,103089,2,0,P|233:148|174:178,1,157.500006008148
207,217,103677,2,0,B|200:226|216:259|216:259|265:241|302:259|302:259|294:220|297:212,1,157.500006008148
233,27,104266,6,0,L|230:106,1,70
239,339,104560,2,0,L|248:241,1,70
260,121,104854,5,0,0:0:0:0:
221,202,105001,1,0,0:0:0:0:
214,101,105148,5,0,0:0:0:0:
247,237,105295,1,0,0:0:0:0:
252,37,105442,5,0,0:0:0:0:
187,273,105589,1,0,0:0:0:0:
350,37,105737,5,0,0:0:0:0:
253,317,105884,1,0,0:0:0:0:
240,18,106031,5,0,0:0:0:0:
352,324,106178,1,0,0:0:0:0:
442,129,106325,5,0,0:0:0:0:
99,199,106472,1,0,0:0:0:0:
388,379,106619,6,0,L|366:299,1,55.9999966220857
317,5,106766,1,0,0:0:0:0:
317,5,107060,2,0,B|257:2|235:36|235:36|278:77|256:140|256:140|247:169|288:187|258:254,1,280
272,248,107501,6,0,P|339:167|391:127,1,168
431,84,107795,2,0,P|399:199|342:305,1,224
213,223,108236,6,0,L|165:168,1,56
52,21,108383,1,0,0:0:0:0:
155,295,108530,5,0,0:0:0:0:
226,24,108677,1,0,0:0:0:0:
8,217,108824,5,0,0:0:0:0:
259,167,108971,1,0,0:0:0:0:
2,88,109119,5,0,0:0:0:0:
173,322,109266,2,0,L|166:244,1,56
121,104,109413,2,0,B|170:117|200:102|200:102|236:177|334:197,1,224
439,304,109854,2,0,P|381:317|289:295,1,112
0,354,110148,2,0,P|48:312|65:230,1,112
97,65,110442,5,0,0:0:0:0:
366,65,110589,1,0,0:0:0:0:
166,158,110736,5,0,0:0:0:0:
435,158,110883,1,0,0:0:0:0:
271,326,111030,1,0,0:0:0:0:
315,48,111177,5,0,0:0:0:0:
435,332,111324,1,0,0:0:0:0:
263,50,111471,5,0,0:0:0:0:
286,335,111619,1,0,0:0:0:0:
193,50,111766,6,0,B|161:45|137:20|137:20|117:63|143:86|143:86|114:101|111:129|111:129|128:150|131:178|131:178|118:193|122:265,1,280
132,271,112207,6,0,B|144:212|206:202|206:202|248:237|307:217,1,168
320,225,112501,2,0,B|334:299|287:324|287:324|263:261|162:225,1,224
86,152,112942,5,0,0:0:0:0:
413,156,113089,1,0,0:0:0:0:
174,23,113236,5,0,0:0:0:0:
251,340,113383,1,0,0:0:0:0:
328,26,113530,5,0,0:0:0:0:
72,119,113677,1,0,0:0:0:0:
390,111,113824,5,0,0:0:0:0:
129,247,113971,1,0,0:0:0:0:
372,319,114119,6,0,P|322:204|261:116,1,224
170,12,114560,5,0,0:0:0:0:
56,228,114707,1,0,0:0:0:0:
235,59,114854,5,0,0:0:0:0:
258,318,115001,1,0,0:0:0:0:
439,60,115148,1,0,0:0:0:0:
439,60,115442,6,0,B|342:55|337:153|216:129,1,224
33,112,115883,1,0,0:0:0:0:
33,112,116030,2,0,B|49:141|160:201,1,112
393,301,116324,2,0,L|302:319,1,56
215,323,116471,2,0,B|211:266|241:228|241:228|221:222|221:222|242:172|215:78,1,224
53,39,116913,6,0,B|106:72|106:72|148:158|148:158|246:214,1,224
428,287,117354,1,0,0:0:0:0:
119,272,117501,1,0,0:0:0:0:
193,59,117648,5,0,0:0:0:0:
411,335,117795,1,0,0:0:0:0:
84,274,117942,5,0,0:0:0:0:
462,212,118089,1,0,0:0:0:0:
144,133,118236,5,0,0:0:0:0:
487,83,118383,1,0,0:0:0:0:
150,21,118530,5,0,0:0:0:0:
207,325,118677,2,0,L|226:257,1,56
194,220,118824,2,0,P|232:279|317:169,1,224
227,49,119266,5,0,0:0:0:0:
136,318,119413,1,0,0:0:0:0:
34,84,119560,5,0,0:0:0:0:
334,313,119707,1,0,0:0:0:0:
220,25,119854,5,0,0:0:0:0:
133,343,120001,1,0,0:0:0:0:
6,68,120148,5,0,0:0:0:0:
261,241,120295,1,0,0:0:0:0:
172,34,120442,5,0,0:0:0:0:
425,116,120589,1,0,0:0:0:0:
80,133,120736,6,0,L|162:143,1,56
302,196,120883,2,0,L|227:207,1,56
91,273,121030,2,0,L|166:281,1,56
255,276,121177,2,0,B|286:183|357:217|357:217|333:256|359:304,1,224
97,42,121619,6,0,P|82:124|82:200,1,112
490,193,121913,2,0,P|422:206|354:235,1,112
131,290,122207,1,0,0:0:0:0:
294,142,122354,1,0,0:0:0:0:
57,53,122501,2,0,B|91:38|91:38|117:68|117:68|177:52,1,112
442,301,122795,2,0,B|407:286|407:286|382:316|382:316|322:300,1,112
69,292,123089,1,0,0:0:0:0:
242,45,123236,1,0,0:0:0:0:
382,323,123383,1,0,0:0:0:0:
96,196,123530,6,0,P|196:138|188:162,1,336
180,218,124045,1,0,0:0:0:0:
154,292,124119,1,0,0:0:0:0:
339,58,124266,1,0,0:0:0:0:
343,343,124413,1,0,0:0:0:0:
434,49,124560,1,0,0:0:0:0:
230,338,124707,1,0,0:0:0:0:
494,44,124854,6,0,L|386:122,1,112
219,192,125148,2,0,L|249:144,1,56
310,66,125295,5,0,0:0:0:0:
310,66,125369,1,0,0:0:0:0:
310,66,125442,1,0,0:0:0:0:
312,345,125589,5,0,0:0:0:0:
399,219,125736,1,0,0:0:0:0:
73,228,125883,1,0,0:0:0:0:
387,67,126030,5,0,0:0:0:0:
352,61,126103,1,0,0:0:0:0:
317,59,126177,1,0,0:0:0:0:
282,60,126250,1,0,0:0:0:0:
247,64,126324,1,0,0:0:0:0:
213,71,126397,1,0,0:0:0:0:
179,80,126471,1,0,0:0:0:0:
147,93,126544,1,0,0:0:0:0:
117,72,126619,5,0,0:0:0:0:
125,105,126692,1,0,0:0:0:0:
125,140,126766,1,0,0:0:0:0:
121,174,126839,1,0,0:0:0:0:
116,208,126913,1,0,0:0:0:0:
106,241,126986,1,0,0:0:0:0:
89,272,127060,1,0,0:0:0:0:
71,302,127133,1,0,0:0:0:0:
33,321,127207,5,0,0:0:0:0:
73,340,127280,1,0,0:0:0:0:
117,349,127354,1,0,0:0:0:0:
162,351,127427,1,0,0:0:0:0:
207,348,127501,1,0,0:0:0:0:
250,337,127574,1,0,0:0:0:0:
292,321,127648,1,0,0:0:0:0:
329,296,127721,1,0,0:0:0:0:
353,261,127795,1,0,0:0:0:0:
368,221,127869,1,0,0:0:0:0:
377,180,127942,1,0,0:0:0:0:
377,137,128016,1,0,0:0:0:0:
366,89,128089,5,0,0:0:0:0:
312,24,128163,1,0,0:0:0:0:
229,0,128236,1,0,0:0:0:0:
142,12,128310,1,0,0:0:0:0:
83,53,128383,5,0,0:0:0:0:
69,100,128457,1,0,0:0:0:0:
71,148,128530,1,0,0:0:0:0:
83,195,128604,1,0,0:0:0:0:
116,230,128677,1,0,0:0:0:0:
162,246,128751,1,0,0:0:0:0:
211,237,128824,1,0,0:0:0:0:
249,204,128898,1,0,0:0:0:0:
271,153,128971,5,0,0:0:0:0:
274,96,129045,1,0,0:0:0:0:
241,49,129119,1,0,0:0:0:0:
187,33,129192,1,0,0:0:0:0:
130,35,129266,1,0,0:0:0:0:
78,55,129339,1,0,0:0:0:0:
43,99,129413,1,0,0:0:0:0:
24,151,129486,1,0,0:0:0:0:
37,212,129560,5,0,0:0:0:0:
56,271,129633,1,0,0:0:0:0:
97,318,129707,1,0,0:0:0:0:
158,331,129780,1,0,0:0:0:0:
221,336,129854,1,0,0:0:0:0:
282,324,129927,1,0,0:0:0:0:
338,295,130001,1,0,0:0:0:0:
381,250,130074,1,0,0:0:0:0:
381,179,130148,5,0,0:0:0:0:
398,246,130221,1,0,0:0:0:0:
424,311,130295,1,0,0:0:0:0:
453,374,130369,1,0,0:0:0:0:
496,316,130442,1,0,0:0:0:0:
31,146,130736,5,0,0:0:0:0:
75,100,130810,1,0,0:0:0:0:
129,68,130883,1,0,0:0:0:0:
190,53,130957,1,0,0:0:0:0:
252,51,131030,1,0,0:0:0:0:
314,63,131104,1,0,0:0:0:0:
363,101,131177,1,0,0:0:0:0:
404,149,131251,1,0,0:0:0:0:
428,206,131324,5,0,0:0:0:0:
433,269,131398,1,0,0:0:0:0:
406,325,131471,1,0,0:0:0:0:
355,363,131545,1,0,0:0:0:0:
293,379,131619,1,0,0:0:0:0:
232,364,131692,1,0,0:0:0:0:
181,325,131766,1,0,0:0:0:0:
153,268,131839,1,0,0:0:0:0:
152,204,131913,5,0,0:0:0:0:
164,142,131986,1,0,0:0:0:0:
218,109,132060,1,0,0:0:0:0:
280,108,132133,1,0,0:0:0:0:
334,140,132207,1,0,0:0:0:0:
374,187,132280,1,0,0:0:0:0:
437,185,132354,1,0,0:0:0:0:
481,140,132427,1,0,0:0:0:0:
495,78,132501,5,0,0:0:0:0:
455,29,132574,1,0,0:0:0:0:
392,18,132648,1,0,0:0:0:0:
333,40,132721,1,0,0:0:0:0:
292,88,132795,1,0,0:0:0:0:
261,143,132869,1,0,0:0:0:0:
214,184,132942,1,0,0:0:0:0:
161,218,133016,1,0,0:0:0:0:
98,217,133089,5,0,0:0:0:0:
43,184,133163,1,0,0:0:0:0:
27,123,133236,1,0,0:0:0:0:
53,65,133310,1,0,0:0:0:0:
109,38,133383,1,0,0:0:0:0:
169,55,133457,1,0,0:0:0:0:
218,93,133530,1,0,0:0:0:0:
261,143,133604,1,0,0:0:0:0:
303,188,133677,5,0,0:0:0:0:
337,241,133751,1,0,0:0:0:0:
351,301,133824,1,0,0:0:0:0:
322,357,133898,1,0,0:0:0:0:
260,367,133971,1,0,0:0:0:0:
199,349,134045,1,0,0:0:0:0:
181,287,134119,1,0,0:0:0:0:
196,226,134192,1,0,0:0:0:0:
247,188,134266,5,0,0:0:0:0:
303,188,134339,1,0,0:0:0:0:
366,181,134413,1,0,0:0:0:0:
405,132,134486,1,0,0:0:0:0:
396,69,134560,1,0,0:0:0:0:
343,34,134633,1,0,0:0:0:0:
279,31,134707,1,0,0:0:0:0:
225,63,134780,1,0,0:0:0:0:
186,113,134854,5,0,0:0:0:0:
132,145,134927,1,0,0:0:0:0:
68,143,135001,1,0,0:0:0:0:
53,82,135074,1,0,0:0:0:0:
104,45,135148,1,0,0:0:0:0:
160,72,135221,1,0,0:0:0:0:
197,122,135295,1,0,0:0:0:0:
243,165,135369,1,0,0:0:0:0:
278,202,135442,6,0,B|343:265|343:265|344:332|344:332|295:283,1,210.000008010865
307,295,136619,1,0,0:0:0:0:
144,52,137207,2,0,P|114:115|106:161,1,105.000004005432
40,242,137574,1,0,0:0:0:0:
180,248,137645,1,0,0:0:0:0:
184,52,147203,6,0,L|284:52,1,90.9999958343508
431,163,147645,2,0,L|336:164,1,90.9999958343508
103,220,148086,2,0,L|162:237,1,45.4999979171754
320,289,148380,1,0,0:0:0:0:
342,289,148527,1,0,0:0:0:0:
364,289,148674,1,0,0:0:0:0:
386,289,148821,2,0,L|437:290,1,45.4999979171754
368,188,149115,1,0,0:0:0:0:
368,165,149262,2,0,L|368:101,1,45.4999979171754
101,46,149556,6,0,L|101:142,1,90.9999958343508
103,350,149997,2,0,L|167:272,1,90.9999958343508
339,49,150439,2,0,L|339:111,1,45.4999979171754
340,217,150733,1,0,0:0:0:0:
341,239,150880,1,0,0:0:0:0:
341,261,151027,2,0,L|341:327,1,45.4999979171754
454,356,151321,1,0,0:0:0:0:
455,333,151468,2,0,L|455:278,1,45.4999979171754
85,66,151909,6,0,B|126:47|126:47|175:70,2,90.9999958343508
126,133,152645,2,0,L|125:192,1,45.4999979171754
127,286,152939,1,0,0:0:0:0:
253,321,153086,1,0,0:0:0:0:
275,321,153233,1,0,0:0:0:0:
297,321,153380,2,0,L|351:321,1,45.4999979171754
345,200,153674,1,0,0:0:0:0:
345,177,153821,1,0,0:0:0:0:
345,154,153968,2,0,L|345:99,1,45.4999993816614
55,70,154262,6,0,P|35:103|28:163,2,90.9999958343508
135,21,154997,1,0,0:0:0:0:
157,26,155145,2,0,L|213:37,1,45.4999979171754
419,73,155439,1,0,0:0:0:0:
415,95,155586,1,0,0:0:0:0:
411,117,155733,1,0,0:0:0:0:
408,139,155880,2,0,L|397:203,1,45.4999979171754
370,347,156174,1,0,0:0:0:0:
374,324,156321,2,0,L|385:266,1,45.4999979171754
401,186,156542,1,0,0:0:0:0:
401,186,156615,6,0,P|368:207|314:222,1,90.9999958343508
161,232,157056,1,0,0:0:0:0:
38,83,157203,2,0,L|139:83,1,90.9999958343508
312,85,157645,1,0,0:0:0:0:
317,203,157792,1,0,0:0:0:0:
317,225,157939,1,0,0:0:0:0:
320,247,158086,1,0,0:0:0:0:
327,268,158233,2,0,P|334:298|350:321,1,45.4999979171754
459,331,158527,1,0,0:0:0:0:
451,309,158674,2,0,P|435:282|432:259,1,45.4999979171754
455,180,158895,1,0,0:0:0:0:
455,180,158968,6,0,P|417:214|368:245,1,90.9999958343508
107,334,159409,2,0,L|107:228,1,90.9999958343508
205,27,159850,2,0,L|218:83,1,45.4999979171754
263,205,160145,1,0,0:0:0:0:
269,226,160292,1,0,0:0:0:0:
282,244,160439,1,0,0:0:0:0:
298,259,160586,2,0,P|312:276|336:293,1,45.4999979171754
168,278,160880,1,0,0:0:0:0:
160,298,161027,2,0,P|155:313|138:338,1,45.4999979171754
52,347,161247,1,0,0:0:0:0:
52,347,161321,6,0,L|52:242,1,90.9999958343508
38,47,161762,2,0,L|138:48,1,90.9999958343508
166,168,162203,2,0,L|219:168,1,45.4999979171754
428,168,162497,1,0,0:0:0:0:
428,190,162645,1,0,0:0:0:0:
428,212,162792,1,0,0:0:0:0:
428,234,162939,2,0,L|428:296,1,45.4999979171754
429,302,163233,1,0,0:0:0:0:
429,324,163380,2,0,L|429:374,1,45.4999979171754
258,231,163674,6,0,P|266:282|246:366,2,136.499993751526
236,33,164850,2,0,P|189:109|163:224,1,175
490,347,165439,2,0,P|461:268|375:169,1,175
164,136,166027,1,0,0:0:0:0:
144,145,166100,1,0,0:0:0:0:
127,159,166174,1,0,0:0:0:0:
113,176,166247,1,0,0:0:0:0:
103,196,166321,5,12,0:0:0:0:
97,217,166394,1,0,0:0:0:0:
95,238,166468,1,0,0:0:0:0:
97,260,166541,1,0,0:0:0:0:
103,281,166615,5,12,0:0:0:0:
114,306,166688,1,0,0:0:0:0:
128,328,166762,1,0,0:0:0:0:
152,352,166835,1,0,0:0:0:0:
180,364,166909,5,12,0:0:0:0:
216,376,166984,1,0,0:0:0:0:
252,380,167057,1,0,0:0:0:0:
287,379,167131,1,0,0:0:0:0:
324,374,167204,5,12,0:0:0:0:
359,360,167278,1,0,0:0:0:0:
400,336,167351,1,0,0:0:0:0:
434,305,167425,1,0,0:0:0:0:
452,258,167498,5,12,0:0:0:0:
461,204,167572,5,0,0:0:0:0:
459,151,167645,1,0,0:0:0:0:
436,99,167719,1,0,0:0:0:0:
406,54,167793,5,4,0:0:0:0:
351,18,167866,1,4,0:0:0:0:
281,0,167940,1,4,0:0:0:0:
206,0,168013,1,4,0:0:0:0:
131,27,168087,5,12,0:0:0:0:
73,96,168160,1,4,0:0:0:0:
48,189,168234,1,6,0:0:0:0:
59,205,169556,1,0,0:0:0:0:
59,205,169630,1,0,0:0:0:0:
59,205,169704,2,0,L|153:253,1,79.9999976158142
309,88,169851,1,0,0:0:0:0:
309,88,169925,1,0,0:0:0:0:
309,88,169998,6,0,L|211:111,1,99.9999970197678
369,288,170145,1,0,0:0:0:0:
369,288,170219,1,0,0:0:0:0:
369,288,170293,2,0,L|463:336,1,79.9999976158142
455,330,170440,5,0,0:0:0:0:
468,252,170587,2,0,P|540:332|388:372,1,319.999990463257
296,256,171028,2,0,P|200:160|160:144,1,159.999995231628
272,120,171322,2,0,P|319:55|388:14,1,159.999995231628
392,128,171616,5,0,0:0:0:0:
392,256,171763,1,0,0:0:0:0:
265,210,171910,2,0,B|169:210|169:210|113:250|113:250|49:202,1,239.999992847443
72,136,172204,2,0,P|8:144|8:256,1,159.999995231628
213,290,172498,2,0,P|333:266|245:122,1,319.999990463257
256,216,172940,6,0,B|251:168|196:180|196:180|177:120|177:120|127:131|127:131|105:54|40:56,1,319.999990463257
168,0,173381,1,0,0:0:0:0:
280,136,173528,1,0,0:0:0:0:
47,132,173675,2,0,P|47:236|103:276,1,159.999995231628
256,368,173969,1,0,0:0:0:0:
352,264,174116,5,0,0:0:0:0:
208,216,174263,2,0,P|202:103|94:69,1,239.999992847443
37,257,174557,2,0,P|47:182|120:160,1,159.999995231628
313,159,174851,2,0,P|264:295|128:248,1,319.999990463257
216,208,175293,2,0,B|220:160|275:172|275:172|294:112|294:112|344:123|344:123|366:46|366:46|464:0|552:16|600:128|536:264|416:208,1,639.999980926514
360,296,176028,2,0,B|248:272|160:360,1,159.999995231628
122,204,176322,2,0,P|50:188|50:92,1,159.999995231628
112,128,176616,6,0,B|256:64|256:64|406:124,1,319.999990463257
432,16,177204,2,0,B|328:72|328:72|304:168|304:168|200:248,1,319.999990463257
207,137,177645,6,0,P|135:259|264:320,1,319.999990463257
456,56,178087,2,0,B|360:120|360:120|256:64,1,159.999995231628
240,40,178381,2,0,B|200:18|200:18|104:82,1,159.999995231628
24,160,178675,1,0,0:0:0:0:
256,312,178822,1,0,0:0:0:0:
328,32,178969,2,0,P|240:120|176:80,1,159.999995231628
128,48,179263,6,0,P|12:94|24:169,1,159.999995231628
8,320,179557,1,0,0:0:0:0:
208,192,179704,1,0,0:0:0:0:
152,128,179851,1,0,0:0:0:0:
96,192,179998,2,0,P|85:76|240:128,1,319.999990463257
224,336,180440,2,0,P|176:280|96:224,1,159.999995231628
248,248,180734,2,0,P|296:192|376:136,1,159.999995231628
448,112,181028,2,0,P|368:40|256:8,1,159.999995231628
448,200,181322,6,0,B|352:200|352:200|304:160|304:160|200:160,1,239.999992847443
184,96,181616,2,0,P|160:200|200:232,1,159.999995231628
232,152,181910,2,0,P|272:240|112:248,1,319.999990463257
192,224,182351,2,0,B|196:176|251:188|251:188|270:128|270:128|320:139|320:139|342:62|407:64,1,319.999990463257
376,336,182793,2,0,P|314:286|237:268,1,159.999995231628
144,352,183087,6,0,P|62:343|-3:297,1,159.999995231628
40,96,183381,1,0,0:0:0:0:
208,96,183528,1,0,0:0:0:0:
152,272,183675,2,0,P|80:272|24:184,1,159.999995231628
114,190,183969,2,0,B|139:151|139:151|106:98|106:98|150:35,1,159.999995231628
40,96,184263,2,0,P|208:120|192:-32,1,319.999990463257
128,56,184704,6,0,B|267:212|414:74|414:74|304:243|463:335,1,639.999980926514
412,384,185440,2,0,B|353:362|353:362|328:303|328:303|296:292,1,159.999995231628
272,373,185734,2,0,B|213:351|213:351|188:292|188:292|156:281,1,159.999995231628
112,216,186028,2,0,P|48:160|232:160,1,479.999985694885
144,120,186616,2,0,B|179:203|179:203|246:230|246:230|286:314,1,239.999992847443
288,320,186910,5,0,0:0:0:0:
288,320,187057,1,0,0:0:0:0:
191,48,187204,5,0,0:0:0:0:
139,345,187351,1,0,0:0:0:0:
318,52,187498,5,0,0:0:0:0:
371,350,187645,1,0,0:0:0:0:
72,253,187793,5,0,0:0:0:0:
451,106,187940,1,0,0:0:0:0:
72,130,188087,5,0,0:0:0:0:
451,277,188234,1,0,0:0:0:0:
194,45,188381,5,0,0:0:0:0:
133,332,188528,1,0,0:0:0:0:
249,45,188675,5,0,0:0:0:0:
239,338,188822,1,0,0:0:0:0:
304,45,188969,5,0,0:0:0:0:
344,335,189116,1,0,0:0:0:0:
359,45,189263,5,0,0:0:0:0:
449,324,189410,1,0,0:0:0:0:
256,64,189557,5,0,0:0:0:0:
128,256,189704,1,0,0:0:0:0:
368,272,189851,1,0,0:0:0:0:
99,49,189998,5,0,0:0:0:0:
392,314,190145,1,0,0:0:0:0:
120,314,190293,5,0,0:0:0:0:
412,49,190440,1,0,0:0:0:0:
72,24,190587,5,0,0:0:0:0:
496,0,190734,1,0,0:0:0:0:
128,80,190881,5,0,0:0:0:0:
512,144,191028,1,0,0:0:0:0:
0,288,191175,5,0,0:0:0:0:
384,224,191322,1,0,0:0:0:0:
16,144,191469,5,0,0:0:0:0:
440,168,191616,1,0,0:0:0:0:
16,288,191763,1,0,0:3:0:0:
424,32,191910,5,0,0:0:0:0:
304,320,192057,1,0,0:0:0:0:
328,72,192204,5,0,0:0:0:0:
448,360,192351,1,0,0:0:0:0:
384,88,192498,5,0,0:0:0:0:
136,277,192645,1,0,0:0:0:0:
280,74,192793,5,0,0:0:0:0:
240,384,192940,1,0,0:0:0:0:
312,104,193087,5,0,0:0:0:0:
2,143,193234,1,0,0:0:0:0:
228,39,193381,5,0,0:0:0:0:
39,288,193528,1,0,0:0:0:0:
336,160,193675,5,0,0:0:0:0:
48,38,193822,1,0,0:0:0:0:
295,61,193969,5,0,0:0:0:0:
7,182,194116,1,0,0:0:0:0:
352,40,194263,5,0,0:0:0:0:
336,328,194410,1,0,0:0:0:0:
384,96,194557,5,0,0:0:0:0:
400,384,194704,1,0,0:0:0:0:
311,107,194851,5,0,0:0:0:0:
221,381,194998,1,0,0:0:0:0:
385,57,195145,5,0,0:0:0:0:
475,331,195293,1,0,0:0:0:0:
504,136,195440,5,0,0:0:0:0:
216,120,195587,1,0,0:0:0:0:
448,168,195734,5,0,0:0:0:0:
160,184,195881,1,0,0:0:0:0:
436,95,196028,5,0,0:0:0:0:
162,5,196175,1,0,0:0:0:0:
486,169,196322,5,0,0:0:0:0:
212,259,196469,1,0,0:0:0:0:
448,88,196616,2,0,P|383:33|312:72,1,159.999995231628
248,184,197793,6,0,P|192:231|103:248,1,159.999995231628
40,320,198969,2,0,P|32:232|64:168,1,159.999995231628
128,104,199263,1,0,0:0:0:0:
144,328,199410,1,0,0:0:0:0:
216,168,199557,1,0,0:0:0:0:
272,288,199704,1,0,0:0:0:0:
320,208,199851,6,0,P|392:175|470:185,1,159.999995231628
138,73,200145,1,0,0:0:0:0:
129,218,200293,1,0,0:0:0:0:
161,55,200440,1,0,0:0:0:0:
112,200,200587,2,0,P|168:143|253:126,1,159.999995231628
224,216,200881,1,0,0:0:0:0:
312,168,201028,6,0,P|320:256|288:320,1,159.999995231628
434,58,201322,2,0,P|362:10|218:18,1,159.999995231628
320,136,201616,1,0,0:0:0:0:
288,264,201763,2,0,P|366:251|431:206,1,159.999995231628
480,136,202057,1,0,0:0:0:0:
144,16,202204,6,0,P|223:30|288:75,1,159.999995231628
374,311,202498,1,0,0:0:0:0:
383,166,202645,1,0,0:0:0:0:
351,329,202793,1,0,0:0:0:0:
400,184,202940,2,0,P|344:241|259:258,1,159.999995231628
296,168,203234,1,0,0:0:0:0:
184,320,203381,6,0,P|176:232|208:168,1,159.999995231628
408,88,203675,2,0,P|352:32|267:15,1,159.999995231628
128,16,203969,1,0,0:0:0:0:
128,168,204116,2,0,P|108:246|136:328,1,159.999995231628
200,248,204410,1,0,0:0:0:0:
312,248,204557,6,0,P|369:305|454:322,1,159.999995231628
496,320,204851,1,0,0:0:0:0:
469,152,204998,1,0,0:0:0:0:
506,278,205145,1,0,0:0:0:0:
480,189,205293,2,0,B|439:251|359:291,1,159.999995231628
282,326,205587,1,0,0:0:0:0:
282,198,205734,2,0,B|323:136|403:96,1,159.999995231628
490,62,206027,1,0,0:0:0:0:
265,227,211015,6,0,P|257:182|258:177,7,39.9999988079071
231,297,211399,2,0,P|229:316|222:335,7,39.9999988079071
145,293,211784,5,0,0:0:0:0:
143,269,211832,1,0,0:0:0:0:
141,245,211880,1,0,0:0:0:0:
139,221,211928,1,0,0:0:0:0:
137,197,211976,1,0,0:0:0:0:
135,173,212024,1,0,0:0:0:0:
134,149,212072,1,0,0:0:0:0:
133,125,212120,1,0,0:0:0:0:
148,94,212168,2,0,P|115:84|94:59,3,55.9999966220857
67,80,212361,2,0,P|38:74|-2:85,3,55.9999966220857
163,22,212553,5,0,0:0:0:0:
186,26,212601,1,0,0:0:0:0:
209,30,212649,1,0,0:0:0:0:
232,35,212697,1,0,0:0:0:0:
273,31,212745,2,0,P|302:34|351:15,3,55.9999966220857
461,75,212938,6,0,P|425:83|399:109,7,55.9999966220857
221,112,213322,2,0,P|251:133|287:134,7,55.9999966220857
423,180,213707,1,0,0:0:0:0:
417,213,213755,1,0,0:0:0:0:
412,246,213803,2,0,P|406:286|426:340,1,55.9999966220857
333,299,213899,6,0,P|357:358|394:380,3,55.9999966220857
343,217,214091,2,0,P|346:167|329:123,7,55.9999966220857
481,280,214476,2,0,P|515:339|534:358,7,55.9999966220857
268,183,214861,2,0,P|231:124|211:106,11,55.9999966220857
169,92,215438,5,0,0:0:0:0:
161,124,215486,1,0,0:0:0:0:
153,156,215534,1,0,0:0:0:0:
145,188,215582,1,0,0:0:0:0:
138,220,215630,2,0,P|193:190|222:187,7,55.9999966220857
264,167,216015,2,0,P|262:229|250:256,7,55.9999966220857
250,302,216399,2,0,P|196:269|179:245,7,55.9999966220857
138,220,216784,5,0,0:0:0:0:
150,209,216832,1,0,0:0:0:0:
165,200,216880,1,0,0:0:0:0:
180,193,216928,1,0,0:0:0:0:
226,189,216976,2,0,P|169:160|159:144,3,55.9999966220857
218,25,217168,5,0,0:0:0:0:
224,34,217216,1,0,0:0:0:0:
228,45,217264,1,0,0:0:0:0:
232,55,217312,1,0,0:0:0:0:
234,66,217360,1,0,0:0:0:0:
235,77,217408,1,0,0:0:0:0:
235,89,217456,1,0,0:0:0:0:
234,100,217504,1,0,0:0:0:0:
232,111,217553,2,0,P|249:90|276:78,7,55.9999966220857
298,158,217938,2,0,P|323:169|340:190,7,55.9999966220857
269,232,218322,5,0,0:0:0:0:
266,242,218370,1,0,0:0:0:0:
263,252,218418,1,0,0:0:0:0:
260,263,218466,1,0,0:0:0:0:
258,274,218515,1,0,0:0:0:0:
256,285,218563,1,0,0:0:0:0:
254,296,218611,1,0,0:0:0:0:
252,307,218659,1,0,0:0:0:0:
251,318,218707,2,0,P|232:298|171:278,7,55.9999966220857
152,222,219091,2,0,P|178:215|226:172,7,55.9999966220857
283,186,219476,2,0,P|275:212|288:275,7,55.9999966220857
354,224,219861,5,0,0:0:0:0:
387,230,219909,1,0,0:0:0:0:
420,235,219957,2,0,P|460:241|514:221,1,55.9999966220857
418,154,220053,2,0,P|477:130|499:93,3,55.9999966220857
315,110,220245,2,0,P|265:106|221:123,7,55.9999966220857
281,195,220630,2,0,L|295:285,7,55.9999966220857
208,250,221015,2,0,L|200:195,7,55.9999966220857
281,195,221399,2,0,L|295:285,7,55.9999966220857
169,181,221784,6,0,P|206:109|253:95,15,71.9999956569673
144,254,222553,2,0,P|85:218|82:78,11,111.999993244171
221,295,223130,2,0,P|66:341|10:301,11,159.999995231628
256,193,223707,5,0,0:0:0:0:
256,193,224091,1,0,0:0:0:0:
339,157,224476,2,0,P|346:205|332:243,1,79.9999976158142
408,283,225245,2,0,P|369:313|330:319,1,79.9999976158142
240,151,226015,1,0,0:0:0:0:
299,198,226207,1,0,0:0:0:0:
228,226,226591,1,0,0:0:0:0:
240,151,226784,1,0,0:0:0:0:
299,198,227168,2,0,P|257:226|223:224,1,79.9999976158142
383,177,227938,6,0,P|383:228|358:264,1,79.9999976158142
405,95,228707,2,0,P|449:120|467:160,1,79.9999976158142
491,41,229284,2,0,L|483:176,1,119.999996423721
499,235,230245,5,0,0:0:0:0:
499,235,230630,1,0,0:0:0:0:
499,235,231015,2,0,L|410:239,1,79.9999976158142
266,215,231784,2,0,L|355:211,1,79.9999976158142
419,238,232361,5,0,0:0:0:0:
345,211,232553,1,0,0:0:0:0:
298,213,232938,1,0,0:0:0:0:
268,224,233322,1,0,0:0:0:0:
250,240,233707,1,0,0:0:0:0:
243,254,234091,6,0,P|204:216|173:204,1,79.9999976158142
181,104,234861,2,0,P|128:118|102:139,1,79.9999976158142
88,224,235438,2,0,L|95:305,1,79.9999976158142
281,87,236015,2,0,P|283:68|290:49,7,39.9999988079071
367,91,236400,5,0,0:0:0:0:
369,115,236448,1,0,0:0:0:0:
371,139,236496,1,0,0:0:0:0:
373,163,236544,1,0,0:0:0:0:
375,187,236592,1,0,0:0:0:0:
377,211,236640,1,0,0:0:0:0:
378,235,236688,1,0,0:0:0:0:
379,259,236736,1,0,0:0:0:0:
364,290,236784,2,0,P|397:300|418:325,3,55.9999966220857
445,304,236977,2,0,P|474:310|514:299,3,55.9999966220857
349,362,237169,5,0,0:0:0:0:
326,358,237217,1,0,0:0:0:0:
303,354,237265,1,0,0:0:0:0:
280,349,237313,1,0,0:0:0:0:
239,353,237361,2,0,P|210:350|161:369,3,55.9999966220857
51,309,237554,2,0,P|87:301|113:275,7,55.9999966220857
291,272,237938,2,0,P|261:251|225:250,7,55.9999966220857
89,204,238323,5,0,0:0:0:0:
95,171,238371,1,0,0:0:0:0:
100,138,238419,2,0,P|106:98|86:44,1,55.9999966220857
179,85,238515,2,0,P|155:26|118:4,3,55.9999966220857
169,167,238707,2,0,P|166:217|183:261,7,55.9999966220857
31,104,239092,2,0,P|-3:45|-22:26,7,55.9999966220857
244,201,239477,2,0,P|281:260|301:278,11,55.9999966220857
343,292,240054,5,0,0:0:0:0:
351,260,240102,1,0,0:0:0:0:
359,228,240150,1,0,0:0:0:0:
367,196,240198,1,0,0:0:0:0:
374,164,240246,2,0,P|319:194|290:197,7,55.9999966220857
248,217,240631,2,0,P|250:155|262:128,7,55.9999966220857
262,82,241015,2,0,P|316:115|333:139,7,55.9999966220857
374,164,241400,5,0,0:0:0:0:
362,175,241448,1,0,0:0:0:0:
347,184,241496,1,0,0:0:0:0:
332,191,241544,1,0,0:0:0:0:
286,195,241592,2,0,P|343:224|353:240,3,55.9999966220857
294,359,241784,5,0,0:0:0:0:
288,350,241832,1,0,0:0:0:0:
284,339,241880,1,0,0:0:0:0:
280,329,241928,1,0,0:0:0:0:
278,318,241976,1,0,0:0:0:0:
277,307,242024,1,0,0:0:0:0:
277,295,242072,1,0,0:0:0:0:
278,284,242120,1,0,0:0:0:0:
280,273,242169,2,0,P|263:294|236:306,7,55.9999966220857
214,226,242554,2,0,P|189:215|172:194,7,55.9999966220857
243,152,242938,5,0,0:0:0:0:
246,142,242986,1,0,0:0:0:0:
249,132,243034,1,0,0:0:0:0:
252,121,243082,1,0,0:0:0:0:
254,110,243131,1,0,0:0:0:0:
256,99,243179,1,0,0:0:0:0:
258,88,243227,1,0,0:0:0:0:
260,77,243275,1,0,0:0:0:0:
261,66,243323,2,0,P|280:86|341:106,7,55.9999966220857
360,162,243707,6,0,P|334:169|286:212,7,55.9999966220857
229,198,244092,2,0,P|237:172|224:109,7,55.9999966220857
158,160,244477,1,0,0:0:0:0:
125,154,244525,1,0,0:0:0:0:
92,149,244573,2,0,P|52:143|-2:163,1,55.9999966220857
94,230,244669,2,0,P|35:254|13:291,3,55.9999966220857
197,274,244861,2,0,P|247:278|291:261,7,55.9999966220857
231,189,245246,6,0,L|217:99,7,55.9999966220857
304,134,245631,2,0,L|312:189,7,55.9999966220857
231,189,246015,2,0,L|217:99,7,55.9999966220857
343,203,246400,2,0,P|306:275|259:289,15,71.9999956569673
368,130,247169,2,0,P|427:166|430:306,11,111.999993244171
291,89,247746,2,0,P|446:43|502:83,11,159.999995231628
256,193,248322,5,0,0:0:0:0:
256,191,248706,1,0,0:0:0:0:
173,227,249091,2,0,P|166:179|180:141,1,79.9999976158142
104,101,249860,2,0,P|142:70|181:64,1,79.9999976158142
271,232,250630,1,0,0:0:0:0:
212,185,250822,1,0,0:0:0:0:
283,157,251206,1,0,0:0:0:0:
271,232,251399,1,0,0:0:0:0:
212,185,251783,2,0,P|255:158|289:160,1,79.9999976158142
129,207,252553,6,0,P|129:156|154:120,1,79.9999976158142
107,289,253322,2,0,P|62:263|44:223,1,79.9999976158142
21,343,253899,2,0,L|29:208,1,119.999996423721
13,149,254860,1,0,0:0:0:0:
13,149,255245,1,0,0:0:0:0:
13,149,255630,2,0,L|102:145,1,79.9999976158142
246,169,256399,2,0,L|157:173,1,79.9999976158142
92,145,256976,5,0,0:0:0:0:
166,172,257168,1,0,0:0:0:0:
214,171,257553,1,0,0:0:0:0:
244,160,257937,1,0,0:0:0:0:
262,144,258322,1,0,0:0:0:0:
269,130,258706,2,0,P|308:168|339:180,1,79.9999976158142
331,280,259476,2,0,P|383:265|409:244,1,79.9999976158142
424,160,260053,1,0,0:0:0:0:
429,156,260245,6,0,L|421:71,1,79.9999976158142
354,148,261063,2,0,L|350:92,1,53.9999967427255
279,142,261928,2,0,L|276:100,1,39.9999988079071
198,129,262890,1,0,0:0:0:0:
27,25,263418,1,0,0:0:0:0:
25,19,263643,1,0,0:0:0:0:
33,22,263851,6,0,B|-16:19|-56:50|-45:88|-30:110|12:127|33:125|56:150|46:189|38:212|4:224|-67:204|-78:183|-78:183|-60:206|-5:210|45:193|45:163|76:148|96:139|124:171|124:171|82:142|49:157|32:177|21:206|42:238|66:250|106:233|106:233|115:248|115:248|111:231|124:191|116:163|116:163|134:153|134:153|115:185|96:223|147:218|147:218|144:186|173:148|204:161|204:161|167:149|148:179|124:232|177:259|189:270|236:263|236:263|257:248|283:188|284:94|269:72|269:72|284:123|271:195|271:195|318:171|342:209|336:238|318:291|303:291|303:291|376:203|376:203|374:244|420:268|403:294|358:295|358:295|418:317|445:291|420:225|463:237|483:225|501:273|501:273|439:263|439:263|415:322|451:354|526:345|526:345|554:312|561:261|561:261|561:281|561:281|599:284|628:308|579:383,1,2639.99992132187
