osu file format v14

[General]
AudioFilename: audio.mp3
AudioLeadIn: 0
PreviewTime: 167490
Countdown: 1
SampleSet: Normal
StackLeniency: 0.7
Mode: 0
LetterboxInBreaks: 0
WidescreenStoryboard: 0

[Editor]
Bookmarks: 77196
DistanceSpacing: 1.8
BeatDivisor: 4
GridSize: 8
TimelineZoom: 1.5

[Metadata]
Title:Black Rover
TitleUnicode:Black Rover
Artist:Vickeblanka
ArtistUnicode:Vickeblanka
Creator:pashty
Version:Ultimate+
Source:
Tags:
BeatmapID:1779466
BeatmapSetID:851223

[Difficulty]
HPDrainRate:5
CircleSize:4.3
OverallDifficulty:9.5
ApproachRate:9.5
SliderMultiplier:1.4
SliderTickRate:1

[Events]
//Background and Video events
0,0,"thumb-1920-910288.jpg",0,0
//Break Periods
2,136808,145495
//Storyboard Layer 0 (Background)
//Storyboard Layer 1 (Fail)
//Storyboard Layer 2 (Pass)
//Storyboard Layer 3 (Foreground)
//Storyboard Sound Samples

[TimingPoints]
138,294.117647058824,4,1,0,30,1,0
6535,-100,4,1,0,80,0,0
16608,-125,4,1,0,60,0,0
26020,-100,4,1,0,60,0,0
35432,-133.333333333333,4,1,0,50,0,0
46461,-83.3333333333333,4,1,0,90,0,0
47490,-83.3333333333333,4,1,0,90,0,1
65873,-100,4,1,0,60,0,0
94255,-117.647058823529,4,1,0,60,0,0
103961,-105.263157894737,4,1,0,70,0,0
104255,-95.2380952380952,4,1,0,80,0,0
104549,-86.9565217391304,4,1,0,90,0,0
104843,-80,4,1,0,100,0,0
106314,-80,4,1,0,100,0,1
134255,-80,4,1,0,70,0,0
146020,-125,4,1,0,50,0,0
153593,-125,4,1,0,5,0,0
153667,-125,4,1,0,50,0,0
154035,-125,4,1,0,5,0,0
154108,-125,4,1,0,50,0,0
162785,-125,4,1,0,80,0,0
163667,-100,4,1,0,80,0,0
163767,-125,4,1,0,80,0,0
164255,-100,4,1,0,80,0,0
164843,-90.9090909090909,4,1,0,90,0,0
169255,-83.3333333333333,4,1,0,100,0,1
195432,-125,4,1,0,70,0,0

[HitObjects]
164,114,138,6,0,L|149:192,1,70
244,261,432,2,0,L|229:183,1,70
292,105,726,5,0,0:0:0:0:
314,170,873,1,0,0:0:0:0:
362,89,1020,1,0,0:0:0:0:
379,154,1167,1,0,0:0:0:0:
292,105,1314,6,0,L|224:75,1,70
176,194,1608,2,0,L|244:164,1,70
294,255,1902,5,0,0:0:0:0:
216,294,2049,1,0,0:0:0:0:
326,328,2196,1,0,0:0:0:0:
248,367,2343,1,0,0:0:0:0:
294,255,2490,6,0,L|330:181,1,70
211,115,2785,2,0,L|247:189,1,70
333,106,3079,5,0,0:0:0:0:
291,54,3226,1,0,0:0:0:0:
365,47,3373,1,0,0:0:0:0:
322,0,3520,1,0,0:0:0:0:
333,106,3667,6,0,L|319:190,1,70
420,244,3961,2,0,L|406:160,1,70
327,246,4255,6,0,L|313:330,1,70
414,384,4549,2,0,L|400:300,1,70
309,384,4843,6,0,P|254:385|214:372,1,70
113,313,5138,2,0,P|168:314|208:301,1,70
379,226,5432,6,0,P|327:245|285:247,1,70
69,157,5727,2,0,P|120:176|162:178,1,70
421,49,6020,6,0,P|379:85|340:100,1,70
43,0,6315,2,0,P|84:36|123:51,1,70
149,78,6535,5,0,0:0:0:0:
149,78,6608,1,0,0:0:0:0:
4,92,6755,1,0,0:0:0:0:
177,23,6902,1,0,0:0:0:0:
95,258,7049,6,0,L|68:337,1,70
184,219,7343,1,0,0:0:0:0:
192,313,7490,2,0,P|200:359|215:385,1,70
280,225,7785,5,0,0:0:0:0:
322,333,7932,1,0,0:0:0:0:
392,228,8079,2,0,L|438:162,1,70
422,304,8373,5,0,0:0:0:0:
392,151,8520,1,0,0:0:0:0:
329,251,8667,5,0,0:0:0:0:
483,210,8814,1,0,0:0:0:0:
303,210,8961,5,0,0:0:0:0:
457,251,9108,1,0,0:0:0:0:
269,297,9255,2,0,P|221:298|183:273,1,70
322,369,9549,5,0,0:0:0:0:
239,238,9696,1,0,0:0:0:0:
398,295,9843,6,0,L|479:326,1,70
353,152,10138,2,0,L|304:79,1,70
114,295,10432,6,0,L|33:326,1,70
159,152,10727,2,0,L|208:79,1,70
256,288,11020,5,0,0:0:0:0:
118,246,11167,1,0,0:0:0:0:
283,196,11314,1,0,0:0:0:0:
161,354,11461,1,0,0:0:0:0:
192,122,11608,2,0,L|196:70,1,35
317,304,11755,6,0,P|345:351|373:374,1,70
180,235,12049,1,0,0:0:0:0:
341,164,12196,2,0,L|419:124,1,70
195,304,12490,6,0,P|167:351|139:374,1,70
188,163,12785,2,0,P|214:208|236:185,1,70
82,247,13079,5,0,0:0:0:0:
268,276,13226,1,0,0:0:0:0:
188,163,13373,5,0,0:0:0:0:
159,349,13520,1,0,0:0:0:0:
163,137,13667,5,0,0:0:0:0:
192,323,13814,1,0,0:0:0:0:
232,91,13961,2,0,P|234:47|209:16,1,70
321,215,14255,5,0,0:0:0:0:
98,207,14402,2,0,L|60:205,1,35
163,137,14549,1,0,0:0:0:0:
133,301,14696,1,0,0:0:0:0:
63,116,14843,2,0,P|47:70|52:30,1,70
11,209,15138,5,0,0:0:0:0:
126,56,15285,1,0,0:0:0:0:
226,197,15432,2,0,P|242:151|237:111,1,70
278,290,15727,5,0,0:0:0:0:
163,137,15874,1,0,0:0:0:0:
61,291,16020,2,0,P|45:245|50:205,1,70
9,384,16315,5,0,0:0:0:0:
124,231,16462,1,0,0:0:0:0:
239,78,16608,2,0,L|279:22,1,56
296,170,16902,6,0,L|314:245,2,56
204,218,17343,1,0,0:0:0:0:
272,288,17490,2,0,P|304:310|332:309,1,56
169,328,17785,5,0,0:0:0:0:
272,227,17932,1,0,0:0:0:0:
115,298,18079,2,0,P|70:312|44:309,1,56
266,344,18373,1,0,0:0:0:0:
159,192,18520,1,0,0:0:0:0:
354,226,18667,2,0,P|392:226|429:214,1,56
463,197,18888,5,0,0:0:0:0:
463,197,18961,1,0,0:0:0:0:
389,308,19108,1,0,0:0:0:0:
429,138,19255,2,0,L|446:65,1,56
341,171,19549,2,0,L|358:244,1,56
269,91,19843,5,0,0:0:0:0:
220,235,19990,1,0,0:0:0:0:
158,90,20138,2,0,P|140:47|142:17,1,56
96,189,20432,5,0,0:0:0:0:
252,142,20579,1,0,0:0:0:0:
164,306,20726,2,0,L|125:368,1,56
307,273,21020,5,0,0:0:0:0:
170,147,21167,1,0,0:0:0:0:
170,147,21240,1,0,0:0:0:0:
170,147,21314,2,0,P|162:111|166:80,1,56
272,143,21608,2,0,P|280:179|276:210,1,56
154,30,21902,6,0,L|225:46,1,56
100,146,22196,2,0,L|40:195,1,56
160,257,22490,2,0,P|162:222|182:221,1,56
412,146,22785,6,0,L|472:195,1,56
352,257,23079,2,0,P|350:222|330:221,1,56
112,89,23373,6,0,P|138:50|161:36,1,56
208,25,23593,1,0,0:0:0:0:
208,25,23667,1,0,0:0:0:0:
80,17,23814,1,0,0:0:0:0:
215,130,23961,2,0,L|272:183,1,56
140,195,24255,6,0,L|80:210,1,56
208,270,24549,1,0,0:0:0:0:
80,160,24696,1,0,0:0:0:0:
258,241,24843,6,0,L|324:274,1,56
172,109,25138,5,0,0:0:0:0:
321,168,25285,1,0,0:0:0:0:
159,65,25432,5,0,0:0:0:0:
359,213,25579,1,0,0:0:0:0:
86,156,25726,5,0,0:0:0:0:
407,135,25873,1,0,0:0:0:0:
100,288,26020,2,0,L|16:326,1,70
260,246,26314,6,0,P|236:308|211:318,1,70
293,100,26608,5,0,0:0:0:0:
353,252,26755,1,0,0:0:0:0:
361,71,26902,5,0,0:0:0:0:
289,253,27049,1,0,0:0:0:0:
222,69,27196,2,0,P|219:28|229:-4,1,70
145,171,27490,5,0,0:0:0:0:
376,133,27638,2,0,L|306:173,1,70
116,62,27932,2,0,L|186:102,1,70
28,164,28226,5,0,0:0:0:0:
215,33,28373,2,0,P|255:14|290:16,1,70
195,166,28667,2,0,L|148:244,1,70
69,66,28961,5,0,0:0:0:0:
274,130,29108,1,0,0:0:0:0:
127,9,29255,5,0,0:0:0:0:
217,226,29402,1,0,0:0:0:0:
9,152,29549,2,0,P|-17:120|-19:78,1,70
51,292,29843,5,0,0:0:0:0:
179,104,29990,2,0,L|107:137,1,70
246,257,30285,5,0,0:0:0:0:
450,174,30432,2,0,L|385:128,1,70
361,315,30726,2,0,P|352:356|332:386,1,70
459,251,31020,2,0,L|488:327,1,70
309,170,31314,6,0,P|265:130|258:93,1,70
162,239,31608,6,0,P|201:243|198:273,1,70
325,106,31902,5,0,0:0:0:0:
147,293,32049,1,0,0:0:0:0:
365,119,32196,5,0,0:0:0:0:
100,280,32343,2,0,L|28:321,1,70
360,185,32638,5,0,0:0:0:0:
112,190,32785,2,0,L|37:189,1,70
256,260,33079,2,0,P|292:296|304:325,1,70
234,139,33373,2,0,L|206:67,1,70
112,190,33667,6,0,L|198:227,1,70
129,71,33961,1,0,0:0:0:0:
129,71,34035,1,0,0:0:0:0:
129,71,34108,2,0,P|97:29|68:14,1,70
266,32,34402,5,0,0:0:0:0:
176,217,34549,2,0,L|141:296,1,70
307,177,34843,5,0,0:0:0:0:
185,77,34990,1,0,0:0:0:0:
287,94,35138,5,0,0:0:0:0:
201,163,35285,1,0,0:0:0:0:
307,177,35432,6,0,L|366:185,1,52.5000020027161
409,260,35726,2,0,L|350:268,1,52.5000020027161
296,350,36020,2,0,L|355:358,1,52.5000020027161
279,247,36314,5,0,0:0:0:0:
188,327,36461,2,0,L|133:372,1,52.5000020027161
171,229,36755,5,0,0:0:0:0:
80,309,36902,2,0,L|25:354,1,52.5000020027161
61,204,37196,5,0,0:0:0:0:
152,124,37343,2,0,L|207:79,1,52.5000020027161
57,101,37638,5,0,0:0:0:0:
158,216,37785,2,0,P|194:246|256:253,1,105.000004005432
108,297,38226,1,0,0:0:0:0:
240,196,38373,2,0,L|282:162,1,52.5000020027161
262,297,38667,5,0,0:0:0:0:
130,196,38814,2,0,L|88:162,1,52.5000020027161
183,330,39108,5,0,0:0:0:0:
201,176,39255,2,0,P|217:145|245:126,1,52.5000020027161
280,259,39549,1,0,0:0:0:0:
345,136,39696,2,0,B|344:96|383:74|384:32,1,105.000004005432
434,206,40138,6,0,P|442:255|423:315,1,105.000004005432
78,178,40726,6,0,P|70:129|89:69,1,105.000004005432
358,262,41314,6,0,P|346:295|284:334,1,105.000004005432
153,121,41902,6,0,P|165:88|222:49,1,105.000004005432
277,272,42490,6,0,P|238:293|208:290,1,52.5000020027161
235,112,42785,6,0,P|274:91|304:94,1,52.5000020027161
240,247,43079,6,0,P|209:246|159:175,1,105.000004005432
271,136,43667,6,0,P|302:137|350:191,1,105.000004005432
226,212,44255,6,0,B|189:189|189:189|165:120,1,105.000004005432
122,241,44843,6,0,B|103:325|103:325|85:309,1,105.000004005432
390,241,45432,6,0,B|409:325|409:325|427:309,1,105.000004005432
214,118,46020,6,0,P|221:173|200:230,1,105.000004005432
311,153,46461,6,0,L|352:123,1,41.9999987182618
136,183,46608,1,0,0:0:0:0:
358,238,46755,1,0,0:0:0:0:
113,127,46902,1,0,0:0:0:0:
436,75,47049,2,0,L|525:57,1,83.9999974365235
312,24,47343,5,0,0:0:0:0:
417,154,47490,2,0,P|442:218|431:261,1,83.9999974365235
281,133,47785,6,0,P|270:200|239:232,1,83.9999974365235
386,76,48079,1,0,0:0:0:0:
213,182,48226,1,0,0:0:0:0:
383,258,48373,2,0,L|474:306,1,83.9999974365235
271,344,48667,6,0,P|290:301|306:328,1,83.9999974365235
286,190,48961,2,0,P|251:141|204:129,1,83.9999974365235
383,110,49255,5,0,0:0:0:0:
140,214,49402,2,0,L|55:255,1,83.9999974365235
161,64,49696,1,0,0:0:0:0:
306,219,49843,2,0,P|353:260|390:264,1,83.9999974365235
208,309,50138,6,0,P|228:368|258:389,1,83.9999974365235
140,214,50432,1,0,0:0:0:0:
48,345,50579,1,0,0:0:0:0:
99,167,50726,2,0,L|122:75,1,83.9999974365235
130,27,50946,1,0,0:0:0:0:
130,27,51020,1,0,0:0:0:0:
219,156,51167,1,0,0:0:0:0:
344,25,51314,6,0,P|399:6|442:104,1,167.999994873047
328,177,51755,6,0,P|340:236|270:332,1,167.999994873047
490,106,52196,6,0,B|484:160|484:160|499:206,1,83.9999974365235
265,180,52490,6,0,B|271:234|271:234|256:280,1,83.9999974365235
458,270,52785,5,0,0:0:0:0:
318,76,52932,1,0,0:0:0:0:
205,285,53079,2,0,L|158:367,1,83.9999974365235
190,108,53373,5,0,0:0:0:0:
77,317,53520,1,0,0:0:0:0:
325,223,53667,2,0,P|359:185|362:128,1,83.9999974365235
284,366,53961,5,0,0:0:0:0:
157,212,54108,2,0,L|97:139,1,83.9999974365235
117,371,54402,5,0,0:0:0:0:
286,237,54549,2,0,B|323:205|323:205|339:160,1,83.9999974365235
364,316,54843,5,0,0:0:0:0:
266,125,54990,1,0,0:0:0:0:
235,319,55138,6,0,B|198:287|198:287|182:242,1,83.9999974365235
332,63,55432,6,0,L|374:144,1,83.9999974365235
189,176,55726,6,0,L|147:257,1,83.9999974365235
376,340,56020,6,0,P|325:301|304:194,1,167.999994873047
152,215,56461,6,0,P|203:176|206:120,1,83.9999974365235
172,321,56755,1,0,0:0:0:0:
55,221,56902,2,0,P|46:170|63:132,1,83.9999974365235
166,168,57196,6,0,P|183:119|217:94,1,83.9999974365235
258,269,57490,5,0,0:0:0:0:
186,54,57638,1,0,0:0:0:0:
385,166,57785,2,0,L|470:215,1,83.9999974365235
511,241,58005,1,0,0:0:0:0:
511,241,58079,1,0,0:0:0:0:
434,76,58226,1,0,0:0:0:0:
370,292,58373,6,0,P|349:337|314:360,1,83.9999974365235
355,142,58667,1,0,0:0:0:0:
167,266,58814,6,0,P|121:286|80:282,1,83.9999974365235
249,138,59108,1,0,0:0:0:0:
52,148,59255,6,0,P|10:120|32:104,1,83.9999974365235
221,208,59549,6,0,P|268:191|251:170,1,83.9999974365235
131,263,59843,6,0,P|89:234|111:218,1,83.9999974365235
282,353,60138,6,0,P|331:348|365:309,1,83.9999974365235
396,278,60358,1,0,0:0:0:0:
396,278,60432,1,0,0:0:0:0:
196,289,60579,1,0,0:0:0:0:
340,162,60726,6,0,P|374:126|375:74,1,83.9999974365235
159,272,61020,1,0,0:0:0:0:
187,82,61167,6,0,P|190:32|158:-7,1,83.9999974365235
115,287,61461,1,0,0:0:0:0:
282,177,61608,2,0,L|362:114,1,83.9999974365235
266,323,61902,2,0,L|234:404,1,83.9999974365235
165,153,62196,5,0,0:0:0:0:
341,277,62343,1,0,0:0:0:0:
294,79,62490,2,0,P|266:33|231:18,1,83.9999974365235
430,124,62785,6,0,P|418:81|455:72,1,83.9999974365235
224,141,63079,6,0,P|176:115|138:119,1,83.9999974365235
364,111,63373,5,0,0:0:0:0:
167,230,63520,2,0,L|82:280,1,83.9999974365235
320,296,63814,1,0,0:0:0:0:
266,107,63961,2,0,B|256:58|256:58|268:-1,1,83.9999974365235
129,149,64255,5,0,0:0:0:0:
348,35,64402,1,0,0:0:0:0:
86,108,64549,5,0,0:0:0:0:
392,173,64696,1,0,0:0:0:0:
100,290,64843,6,0,P|37:296|6:203,1,167.999994873047
412,290,65432,6,0,P|475:296|506:203,1,167.999994873047
298,269,65873,6,0,B|309:324|265:315,1,70
355,350,66167,5,0,0:0:0:0:
375,225,66314,6,0,L|390:146,1,70
276,92,66608,2,0,L|291:171,1,70
218,242,66902,1,0,0:0:0:0:
132,118,67049,2,0,L|105:78,2,35
90,221,67343,1,0,0:0:0:0:
249,142,67490,6,0,P|282:100|276:53,1,70
331,211,67785,2,0,L|367:299,1,70
476,134,68079,2,0,L|440:222,1,70
427,254,68299,1,0,0:0:0:0:
427,254,68373,1,0,0:0:0:0:
372,128,68520,1,0,0:0:0:0:
288,281,68667,6,0,L|245:367,1,70
218,189,68961,2,0,P|219:147|248:113,1,70
133,263,69255,1,0,0:0:0:0:
294,189,69402,6,0,P|293:147|264:113,1,70
379,263,69696,1,0,0:0:0:0:
219,202,69843,6,0,P|205:162|221:120,1,70
163,300,70138,1,0,0:0:0:0:
314,231,70285,1,0,0:0:0:0:
128,178,70432,1,0,0:0:0:0:
268,342,70579,2,0,L|298:379,2,35
237,212,70873,5,0,0:0:0:0:
382,285,71020,2,0,L|461:330,1,70
352,148,71314,6,0,B|333:103|333:103|325:55,1,70
276,285,71608,6,0,B|254:328|254:328|222:365,1,70
381,189,71902,6,0,B|381:152|381:152|400:98,1,70
206,294,72196,6,0,B|173:324|173:324|124:338,1,70
413,233,72490,6,0,B|437:203|437:203|486:174,1,70
147,263,72785,6,0,B|102:263|102:263|55:243,1,70
379,302,73079,5,0,0:0:0:0:
192,208,73226,1,0,0:0:0:0:
277,343,73373,1,0,0:0:0:0:
286,204,73520,1,0,0:0:0:0:
197,281,73667,2,0,L|141:328,1,70
102,219,73961,6,0,L|29:206,1,70
315,281,74255,6,0,L|371:328,1,70
410,219,74549,6,0,L|482:206,1,70
170,125,74843,5,0,0:0:0:0:
296,209,74990,1,0,0:0:0:0:
221,50,75138,1,0,0:0:0:0:
158,258,75285,1,0,0:0:0:0:
381,127,75432,6,0,L|439:85,1,70
406,221,75726,2,0,P|410:274|428:306,1,70
315,206,76020,2,0,L|253:155,1,70
267,298,76314,2,0,P|280:346|302:364,1,70
176,277,76608,5,0,0:0:0:0:
341,305,76755,1,0,0:0:0:0:
175,361,76902,2,0,L|108:386,1,70
254,270,77196,5,0,0:0:0:0:
82,235,77343,2,0,L|11:223,1,70
180,153,77638,1,0,0:0:0:0:
180,153,77711,1,0,0:0:0:0:
180,153,77785,6,0,L|252:119,1,70
161,62,78079,2,0,P|140:30|138:-5,1,70
76,122,78373,2,0,L|39:197,1,70
146,226,78667,2,0,P|173:272|196:280,1,70
64,272,78961,5,0,0:0:0:0:
230,206,79108,2,0,L|306:168,1,70
128,311,79402,5,0,0:0:0:0:
212,153,79549,2,0,L|245:75,1,70,0|0,0:0|0:0,0:0:0:0:
90,171,79843,1,0,0:0:0:0:
268,257,79990,1,0,0:0:0:0:
268,257,80064,1,0,0:0:0:0:
268,257,80138,6,0,L|336:292,1,70
312,165,80432,2,0,P|318:120|348:92,1,70
198,192,80726,2,0,L|134:238,1,70
240,82,81020,6,0,L|279:12,1,70
361,131,81314,2,0,L|439:115,1,70
242,218,81608,6,0,P|204:182|176:178,1,70
133,291,81902,2,0,P|80:287|56:302,1,70
288,365,82196,6,0,B|326:358|326:358|356:335,1,70
392,295,82417,1,0,0:0:0:0:
392,295,82490,1,0,0:0:0:0:
224,291,82638,1,0,0:0:0:0:
344,177,82785,2,0,P|389:153|419:158,1,70
256,50,83079,6,0,P|256:110|237:133,1,70
367,22,83373,1,0,0:0:0:0:
168,93,83520,1,0,0:0:0:0:
347,181,83667,6,0,L|430:220,1,70
233,245,83961,1,0,0:0:0:0:
433,129,84108,1,0,0:0:0:0:
329,329,84255,5,0,0:0:0:0:
282,94,84402,1,0,0:0:0:0:
225,346,84549,5,0,0:0:0:0:
281,63,84696,1,0,0:0:0:0:
281,63,84770,1,0,0:0:0:0:
281,63,84843,2,0,P|298:19|330:-3,1,70
185,118,85138,2,0,L|131:168,1,70
247,195,85432,6,0,P|276:228|280:266,1,70
393,126,85726,2,0,P|364:159|360:197,1,70
229,69,86020,1,0,0:0:0:0:
310,224,86167,1,0,0:0:0:0:
343,30,86314,5,0,0:0:0:0:
173,220,86461,2,0,L|140:262,1,35
160,114,86608,1,0,0:0:0:0:
253,218,86755,2,0,L|286:260,1,35
266,112,86902,1,0,0:0:0:0:
154,240,87049,6,0,L|121:283,2,35
193,63,87343,1,0,0:0:0:0:
207,282,87490,2,0,L|216:365,1,70
109,301,87785,2,0,P|61:292|32:304,1,70
247,339,88079,1,0,0:0:0:0:
153,176,88226,1,0,0:0:0:0:
343,141,88373,6,0,L|427:122,1,70
295,231,88667,1,0,0:0:0:0:
358,68,88814,1,0,0:0:0:0:
330,263,88961,1,0,0:0:0:0:
287,36,89108,1,0,0:0:0:0:
477,196,89255,2,0,P|500:239|501:283,1,70
431,91,89549,5,0,0:0:0:0:
343,190,89696,2,0,L|283:253,1,70
257,286,89917,1,0,0:0:0:0:
257,286,89990,1,0,0:0:0:0:
384,278,90138,1,0,0:0:0:0:
273,134,90285,1,0,0:0:0:0:
164,337,90432,1,0,0:0:0:0:
241,86,90579,6,0,L|270:-5,1,70
138,125,90873,1,0,0:0:0:0:
267,176,91020,2,0,P|314:177|346:156,1,70
379,126,91240,1,0,0:0:0:0:
379,126,91314,1,0,0:0:0:0:
301,281,91461,1,0,0:0:0:0:
286,79,91608,2,0,L|282:-3,1,70
188,144,91902,5,0,0:0:0:0:
358,46,92049,1,0,0:0:0:0:
142,87,92196,5,0,0:0:0:0:
335,121,92343,1,0,0:0:0:0:
116,177,92490,5,0,0:0:0:0:
286,79,92637,1,0,0:0:0:0:
70,120,92784,5,0,0:0:0:0:
263,154,92931,1,0,0:0:0:0:
58,253,93079,2,0,L|-10:278,1,70
104,338,93373,2,0,P|138:357|179:345,1,70
269,236,93667,5,0,0:0:0:0:
344,359,93814,1,0,0:0:0:0:
392,261,93961,1,0,0:0:0:0:
449,335,94108,1,0,0:0:0:0:
496,269,94255,6,0,P|508:234|501:192,1,59.5000011348725
421,187,94549,2,0,P|407:152|375:124,1,59.5000011348725
467,82,94843,2,0,L|437:10,1,59.5000011348725
500,162,95138,5,0,0:0:0:0:
388,91,95285,1,0,0:0:0:0:
305,253,95432,6,0,L|264:330,1,59.5000011348725
215,162,95726,2,0,L|225:246,1,59.5000011348725
124,112,96020,1,0,0:0:0:0:
70,216,96167,2,0,L|36:289,1,59.5000011348725
173,216,96461,1,0,0:0:0:0:
227,320,96608,2,0,P|250:356|277:367,1,59.5000011348725
140,265,96902,5,0,0:0:0:0:
254,290,97049,2,0,P|296:295|322:281,1,59.5000011348725
138,318,97343,5,0,0:0:0:0:
230,246,97490,1,0,0:0:0:0:
211,134,97638,2,0,L|194:69,1,59.5000011348725
326,154,97932,5,0,0:0:0:0:
307,267,98079,2,0,L|296:332,1,59.5000011348725
288,384,98299,1,0,0:0:0:0:
288,384,98373,1,0,0:0:0:0:
400,302,98520,6,0,B|427:263|427:263|438:224|424:193,1,119.000002269745
336,61,98961,6,0,P|331:119|348:205,1,119.000002269745
176,323,99549,6,0,P|181:265|164:179,1,119.000002269745
296,109,100138,6,0,P|311:165|356:240,1,119.000002269745
216,275,100726,6,0,P|200:218|155:143,1,119.000002269745
287,150,101314,6,0,P|312:192|334:212,1,59.5000011348725
225,234,101608,6,0,P|200:192|178:172,1,59.5000011348725
314,220,101902,6,0,P|365:229|420:167,1,119.000002269745
204,316,102490,6,0,P|170:355|88:343,1,119.000002269745
441,298,103079,6,0,P|485:272|488:189,1,119.000002269745
214,76,103667,6,0,L|189:136,1,59.5000011348725
297,149,103961,2,0,L|325:219,1,66.4999982242585
141,254,104255,6,0,L|108:331,1,73.4999977569581
377,311,104549,2,0,L|415:395,1,80.5000015354157
135,347,104843,5,0,0:0:0:0:
372,251,104990,1,0,0:0:0:0:
140,197,105138,5,0,0:0:0:0:
381,376,105285,1,0,0:0:0:0:
316,84,105432,5,0,0:0:0:0:
77,351,105579,1,0,0:0:0:0:
486,122,105873,6,0,L|411:166,1,87.5
484,25,106167,1,0,0:0:0:0:
472,211,106314,2,0,P|464:264|424:299,1,87.5
332,221,106608,6,0,P|291:256|238:257,1,87.5
232,128,106902,1,0,0:0:0:0:
405,268,107049,1,0,0:0:0:0:
202,328,107196,2,0,L|112:362,1,87.5
250,173,107490,2,0,P|252:221|213:233,1,87.5
321,47,107785,2,0,B|346:89|346:89|343:131,1,87.5
463,21,108079,5,0,0:0:0:0:
211,105,108226,2,0,L|117:138,1,87.5
404,157,108520,1,0,0:0:0:0:
250,278,108667,2,0,P|207:302|149:273,1,87.5
392,278,108961,6,0,P|371:324|311:339,1,87.5
479,171,109255,1,0,0:0:0:0:
289,204,109402,1,0,0:0:0:0:
406,25,109549,6,0,P|403:75|375:110,1,87.5
335,148,109770,1,0,0:0:0:0:
335,148,109843,1,0,0:0:0:0:
473,89,109990,1,0,0:0:0:0:
272,29,110138,2,0,P|209:34|160:134,1,175
266,130,110579,6,0,P|267:216|324:287,1,175
160,221,111020,6,0,P|105:201|90:165,1,87.5
125,333,111314,2,0,P|147:376|174:342,1,87.5
26,287,111608,5,0,0:0:0:0:
265,257,111755,1,0,0:0:0:0:
88,125,111902,2,0,L|17:62,1,87.5
209,94,112196,2,0,P|252:91|240:52,1,87.5
193,232,112490,2,0,P|163:281|126:296,1,87.5
345,138,112785,5,0,0:0:0:0:
93,192,112932,2,0,B|40:202|40:202|-3:192,1,87.5
173,313,113226,1,0,0:0:0:0:
230,142,113373,2,0,L|261:55,1,87.5
319,282,113667,5,0,0:0:0:0:
186,66,113814,1,0,0:0:0:0:
364,299,113961,5,0,0:0:0:0:
139,55,114108,1,0,0:0:0:0:
416,208,114255,6,0,L|496:242,1,87.5
124,226,114549,6,0,L|23:220,1,87.5
330,29,114843,6,0,P|370:79|333:176,1,175
175,339,115285,6,0,B|205:300|205:300|218:248,1,87.5
293,377,115579,1,0,0:0:0:0:
301,216,115726,2,0,P|296:161|275:128,1,87.5
176,158,116020,6,0,P|136:119|99:107,1,87.5
69,240,116314,1,0,0:0:0:0:
202,74,116461,1,0,0:0:0:0:
236,297,116608,2,0,L|250:389,1,87.5
336,230,116902,2,0,P|359:179|330:169,1,87.5
221,200,117196,6,0,B|175:197|175:197|133:181,1,87.5
299,313,117490,1,0,0:0:0:0:
266,127,117638,2,0,L|246:36,1,87.5
373,186,117932,5,0,0:0:0:0:
209,242,118079,2,0,P|168:270|155:314,1,87.5
151,149,118373,6,0,P|104:139|80:172,1,87.5
136,57,118667,6,0,P|100:31|85:61,1,87.5
248,51,118961,6,0,P|304:36|351:64,1,87.5
483,136,119255,2,0,P|427:121|380:149,1,87.5
261,204,119549,6,0,P|302:255|272:368,1,175
74,152,119990,6,0,P|75:86|170:19,1,175
142,222,120432,6,0,P|148:295|170:327,1,87.5
285,268,120726,6,0,P|336:320|373:330,1,87.5
408,176,121020,5,0,0:0:0:0:
218,334,121167,1,0,0:0:0:0:
288,119,121314,2,0,P|321:66|356:46,1,87.5
400,35,121535,1,0,0:0:0:0:
400,35,121608,1,0,0:0:0:0:
205,60,121755,1,0,0:0:0:0:
423,157,121902,2,0,B|461:193|461:193|485:250,1,87.5
305,40,122196,5,0,0:0:0:0:
358,224,122343,2,0,B|355:265|355:265|332:309,1,87.5
416,90,122638,5,0,0:0:0:0:
220,188,122785,2,0,L|127:235,1,87.5
329,281,123079,5,0,0:0:0:0:
94,115,123226,1,0,0:0:0:0:
384,84,123373,5,0,0:0:0:0:
96,319,123520,1,0,0:0:0:0:
389,361,123667,6,0,L|484:378,1,87.5
295,239,123961,2,0,L|200:256,1,87.5
462,164,124255,5,0,0:0:0:0:
283,354,124402,1,0,0:0:0:0:
379,58,124549,5,0,0:0:0:0:
362,344,124696,1,0,0:0:0:0:
221,62,124843,6,0,L|305:149,1,87.5
98,153,125138,2,0,P|133:193|137:232,1,87.5
309,214,125432,5,0,0:0:0:0:
54,211,125579,1,0,0:0:0:0:
205,328,125726,1,0,0:0:0:0:
159,119,125873,2,0,B|143:68|143:68|112:34,1,87.5
250,205,126167,5,0,0:0:0:0:
87,167,126314,2,0,B|37:156|37:156|-12:165,1,87.5
226,110,126608,5,0,0:0:0:0:
337,220,126755,2,0,B|357:276|357:276|352:323,1,87.5
367,100,127049,1,0,0:0:0:0:
224,234,127196,2,0,P|201:284|208:336,1,87.5
144,154,127490,5,0,0:0:0:0:
269,286,127638,1,0,0:0:0:0:
84,178,127785,2,0,B|45:144|51:88,1,87.5
21,324,128079,5,0,0:0:0:0:
134,65,128226,2,0,L|169:-18,1,87.5
186,253,128520,5,0,0:0:0:0:
24,57,128667,1,0,0:0:0:0:
327,77,128814,2,0,L|442:90,1,87.5
237,173,129108,2,0,P|192:164|209:134,1,87.5
385,242,129402,1,0,0:0:0:0:
230,333,129549,6,0,P|168:357|136:346,1,87.5
111,234,129843,2,0,P|48:212|30:183,1,87.5
74,94,130138,5,0,0:0:0:0:
31,306,130285,1,0,0:0:0:0:
21,60,130432,1,0,0:0:0:0:
205,287,130579,2,0,P|249:329|362:307,1,175
132,367,131020,5,0,0:0:0:0:
293,235,131167,1,0,0:0:0:0:
90,210,131314,6,0,P|33:211|-10:241,1,87.5
159,106,131608,2,0,P|216:107|259:137,1,87.5
42,29,131902,6,0,P|48:86|70:121,1,87.5
159,106,132196,2,0,P|200:145|239:158,1,87.5
320,83,132490,5,0,0:0:0:0:
98,209,132638,1,0,0:0:0:0:
316,27,132785,1,0,0:0:0:0:
306,306,132932,2,0,P|287:356|153:354,1,175
416,346,133373,6,0,P|455:316|455:271,1,87.5
227,310,133667,5,0,0:0:0:0:
421,166,133814,1,0,0:0:0:0:
158,260,133961,5,0,0:0:0:0:
374,272,134108,1,0,0:0:0:0:
146,203,134255,2,0,P|99:189|27:303,1,175
366,203,134843,6,0,P|413:189|485:303,1,175
114,47,135432,6,0,B|132:164|132:164|112:223,1,175
398,47,136020,5,0,0:0:0:0:
326,169,136167,1,0,0:0:0:0:
457,258,136314,1,0,0:0:0:0:
351,75,136461,1,0,0:0:0:0:
211,317,136608,1,0,0:0:0:0:
131,144,146020,6,0,L|110:214,1,56
218,268,146314,2,0,L|197:198,1,56
292,124,146608,2,0,L|271:194,1,56
379,248,146902,2,0,L|358:178,1,56
230,157,147196,5,0,0:0:0:0:
419,200,147343,1,0,0:0:0:0:
205,185,147490,1,0,0:0:0:0:
406,158,147638,2,0,L|464:143,1,56
249,234,147932,5,0,0:0:0:0:
358,114,148080,2,0,L|392:67,1,56
389,222,148373,6,0,L|386:287,1,56
282,149,148667,1,0,0:0:0:0:
248,272,148814,2,0,L|231:338,1,56
179,179,149108,1,0,0:0:0:0:
104,282,149255,2,0,L|65:338,1,56
64,181,149549,5,0,0:0:0:0:
165,317,149696,1,0,0:0:0:0:
76,151,149843,1,0,0:0:0:0:
129,329,149990,2,0,L|145:393,1,56
135,172,150285,5,0,0:0:0:0:
75,308,150432,2,0,L|44:364,1,56
201,288,150726,6,0,L|259:261,1,56
85,229,151020,1,0,0:0:0:0:
217,179,151167,2,0,L|273:155,1,56
319,279,151461,5,0,0:0:0:0:
187,229,151608,2,0,L|131:205,1,56
101,336,151902,5,0,0:0:0:0:
243,261,152049,1,0,0:0:0:0:
73,319,152196,1,0,0:0:0:0:
240,295,152343,2,0,L|304:285,1,56
114,252,152638,5,0,0:0:0:0:
228,323,152785,2,0,L|280:354,1,56
203,132,153079,5,0,0:0:0:0:
460,97,153520,6,0,L|453:149,1,28
51,89,153961,6,0,L|78:136,1,28
334,53,154255,5,0,0:0:0:0:
303,156,154402,1,0,0:0:0:0:
385,49,154549,1,0,0:0:0:0:
251,153,154696,2,0,L|200:184,1,56
369,94,154990,5,0,0:0:0:0:
233,88,155137,2,0,L|170:84,1,56
327,211,155432,6,0,L|380:257,1,56
283,295,155726,1,0,0:0:0:0:
283,295,155873,2,0,L|306:360,1,56
195,338,156167,1,0,0:0:0:0:
195,338,156314,2,0,L|177:398,1,56
85,321,156608,5,0,0:0:0:0:
203,248,156755,1,0,0:0:0:0:
42,292,156902,1,0,0:0:0:0:
195,297,157049,2,0,L|250:295,1,56
68,338,157343,5,0,0:0:0:0:
176,253,157490,2,0,L|230:210,1,56
54,193,157785,6,0,L|-4:184,1,56
96,116,158079,1,0,0:0:0:0:
96,116,158226,2,0,L|150:84,1,56
156,199,158520,1,0,0:0:0:0:
156,199,158667,2,0,L|162:269,1,56
219,108,158961,5,0,0:0:0:0:
237,224,159108,1,0,0:0:0:0:
169,101,159255,1,0,0:0:0:0:
274,199,159402,2,0,L|326:245,1,56
182,150,159696,5,0,0:0:0:0:
310,156,159843,2,0,L|372:157,1,56
227,287,160138,6,0,L|176:328,1,56
315,309,160432,1,0,0:0:0:0:
315,309,160579,2,0,L|384:295,1,56
189,224,160873,1,0,0:0:0:0:
189,224,161020,2,0,L|127:201,1,56
323,181,161314,5,0,0:0:0:0:
222,292,161461,1,0,0:0:0:0:
290,135,161608,1,0,0:0:0:0:
284,288,161755,2,0,L|282:354,1,56
199,184,162049,5,0,0:0:0:0:
351,244,162196,2,0,L|413:264,1,56
463,285,162417,1,0,0:0:0:0:
463,285,162490,1,0,0:0:0:0:
154,174,162932,6,0,L|125:203,2,28
247,88,163226,1,0,0:0:0:0:
192,256,163373,1,0,0:0:0:0:
151,65,163520,1,0,0:0:0:0:
301,256,163667,6,0,L|355:336,1,70
354,156,163961,1,0,0:0:0:0:
261,326,164108,1,0,0:0:0:0:
190,98,164255,6,0,L|164:11,1,70
82,175,164549,5,0,0:0:0:0:
279,36,164696,1,0,0:0:0:0:
178,294,164843,6,0,L|141:380,1,77.0000023498536
144,164,165138,5,0,0:0:0:0:
233,349,165285,1,0,0:0:0:0:
224,137,165432,5,0,0:0:0:0:
125,329,165579,1,0,0:0:0:0:
94,99,165726,2,0,L|87:61,2,38.5000011749268
179,184,166020,6,0,L|172:222,2,38.5000011749268
252,61,166314,5,0,0:0:0:0:
252,61,166388,1,0,0:0:0:0:
252,61,166461,1,0,0:0:0:0:
332,230,166608,5,0,0:0:0:0:
332,230,166682,1,0,0:0:0:0:
332,230,166755,2,0,L|357:270,1,38.5000011749268
412,63,166902,2,0,L|428:14,1,38.5000011749268
150,157,167049,1,0,0:0:0:0:
229,297,168373,6,0,L|235:344,1,38.5000011749268
396,197,168667,6,0,L|388:239,1,38.5000011749268
73,154,168961,6,0,L|83:197,1,38.5000011749268
426,69,169255,5,0,0:0:0:0:
82,33,169402,2,0,B|33:25|33:25|-18:34,1,83.9999974365235
174,195,169696,1,0,0:0:0:0:
272,36,169843,2,0,P|260:-6|217:-27,1,83.9999974365235
146,92,170138,6,0,P|109:67|63:79,1,83.9999974365235
43,189,170432,5,0,0:0:0:0:
191,55,170579,1,0,0:0:0:0:
272,245,170726,2,0,L|307:328,1,83.9999974365235
331,377,170946,1,0,0:0:0:0:
331,377,171020,1,0,0:0:0:0:
360,205,171167,1,0,0:0:0:0:
209,333,171314,2,0,P|170:357|87:278,1,167.999994873047
165,187,171755,6,0,P|147:137|205:35,1,167.999994873047
55,178,172196,6,0,P|21:227|19:267,1,83.9999974365235
157,285,172490,6,0,P|162:344|186:376,1,83.9999974365235
296,203,172785,5,0,0:0:0:0:
85,320,172932,1,0,0:0:0:0:
185,113,173079,2,0,L|228:31,1,83.9999974365235
245,226,173373,2,0,P|262:267|288:241,1,83.9999974365235
113,220,173667,2,0,B|67:205|67:205|47:166,1,83.9999974365235
182,344,173961,5,0,0:0:0:0:
106,112,174108,2,0,L|77:22,1,83.9999974365235
48,269,174402,5,0,0:0:0:0:
203,96,174549,2,0,B|239:60|239:60|292:47,1,83.9999974365235
68,49,174843,5,0,0:0:0:0:
307,120,174990,1,0,0:0:0:0:
17,133,175138,5,0,0:0:0:0:
271,52,175285,1,0,0:0:0:0:
94,255,175432,2,0,P|66:294|54:342,1,83.9999974365235
418,255,175726,2,0,P|446:294|458:342,1,83.9999974365235
230,254,176020,6,0,P|199:205|225:99,1,167.999994873047
331,151,176461,2,0,B|346:102|346:102|383:67,1,83.9999974365235
160,159,176755,1,0,0:0:0:0:
333,244,176902,2,0,P|374:282|383:322,1,83.9999974365235
224,304,177196,6,0,P|230:359|212:395,1,83.9999974365235
96,274,177490,1,0,0:0:0:0:
295,312,177638,1,0,0:0:0:0:
155,141,177785,2,0,L|98:62,1,83.9999974365235
273,126,178079,2,0,P|315:122|305:86,1,83.9999974365235
210,258,178373,2,0,B|179:296|179:296|181:348,1,83.9999974365235
191,115,178667,5,0,0:0:0:0:
322,294,178814,2,0,L|372:366,1,83.9999974365235
355,157,179108,1,0,0:0:0:0:
167,257,179255,2,0,P|120:270|74:255,1,83.9999974365235
49,142,179549,6,0,P|74:178|120:163,1,83.9999974365235
185,55,179843,6,0,P|160:91|133:56,1,83.9999974365235
284,202,180138,6,0,L|369:270,1,83.9999974365235
341,88,180432,5,0,0:0:0:0:
272,317,180579,1,0,0:0:0:0:
187,158,180726,6,0,L|102:226,1,83.9999974365235
130,44,181020,5,0,0:0:0:0:
199,273,181167,2,0,B|215:324|215:324|245:352,1,83.9999974365235
59,215,181461,5,0,0:0:0:0:
293,193,181608,2,0,P|334:173|354:130,1,83.9999974365235
247,89,181902,6,0,P|265:47|253:1,1,83.9999974365235
144,24,182196,1,0,0:0:0:0:
373,47,182343,1,0,0:0:0:0:
159,198,182490,2,0,L|76:248,1,83.9999974365235
308,250,182785,5,0,0:0:0:0:
55,156,182932,1,0,0:0:0:0:
314,295,183079,2,0,L|397:345,1,83.9999974365235
173,308,183374,5,0,0:0:0:0:
391,190,183520,2,0,L|462:140,1,83.9999974365235
241,134,183814,5,0,0:0:0:0:
417,299,183961,2,0,L|482:363,1,83.9999974365235
417,129,184255,5,0,0:0:0:0:
253,350,184402,1,0,0:0:0:0:
299,74,184549,5,0,0:0:0:0:
383,365,184696,1,0,0:0:0:0:
143,200,184843,2,0,L|68:148,1,83.9999974365235
29,116,185064,1,0,0:0:0:0:
29,116,185138,5,0,0:0:0:0:
102,306,185285,1,0,0:0:0:0:
182,67,185432,1,0,0:0:0:0:
40,315,185579,1,0,0:0:0:0:
283,220,185726,1,0,0:0:0:0:
59,46,185873,1,0,0:0:0:0:
169,316,186020,5,0,0:0:0:0:
267,70,186167,1,0,0:0:0:0:
281,344,186314,5,0,0:0:0:0:
183,98,186461,1,0,0:0:0:0:
310,333,186608,5,0,0:0:0:0:
428,38,186755,1,0,0:0:0:0:
445,367,186902,5,0,0:0:0:0:
327,72,187049,1,0,0:0:0:0:
262,357,187196,5,0,0:0:0:0:
498,120,187343,1,0,0:0:0:0:
194,174,187490,5,0,0:0:0:0:
495,384,187637,1,0,0:0:0:0:
160,347,187785,5,0,0:0:0:0:
390,36,187932,1,0,0:0:0:0:
120,341,188079,5,0,0:0:0:0:
429,48,188226,1,0,0:0:0:0:
346,336,188373,5,0,0:0:0:0:
80,145,188520,1,0,0:0:0:0:
384,84,188667,5,0,0:0:0:0:
118,275,188814,1,0,0:0:0:0:
382,357,188961,5,0,0:0:0:0:
143,65,189108,1,0,0:0:0:0:
498,88,189255,5,0,0:0:0:0:
147,220,189402,1,0,0:0:0:0:
314,384,189549,5,0,0:0:0:0:
410,24,189696,1,0,0:0:0:0:
426,374,189843,5,0,0:0:0:0:
330,14,189990,1,0,0:0:0:0:
266,373,190138,5,0,0:0:0:0:
169,8,190285,1,0,0:0:0:0:
153,384,190432,5,0,0:0:0:0:
250,18,190579,1,0,0:0:0:0:
334,325,190726,5,0,0:0:0:0:
47,108,190873,1,0,0:0:0:0:
410,243,191020,5,0,0:0:0:0:
33,262,191167,1,0,0:0:0:0:
418,112,191314,5,0,0:0:0:0:
128,381,191461,1,0,0:0:0:0:
176,82,191608,5,0,0:0:0:0:
458,349,191755,1,0,0:0:0:0:
359,25,191902,5,0,0:0:0:0:
32,317,192049,1,0,0:0:0:0:
472,101,192196,5,0,0:0:0:0:
0,198,192343,1,0,0:0:0:0:
511,228,192490,5,0,0:0:0:0:
8,61,192637,1,0,0:0:0:0:
498,16,192785,5,0,0:0:0:0:
10,346,192932,1,0,0:0:0:0:
66,5,193079,5,0,0:0:0:0:
200,380,193226,1,0,0:0:0:0:
201,9,193373,5,0,0:0:0:0:
67,384,193520,1,0,0:0:0:0:
388,4,193667,5,0,0:0:0:0:
254,379,193814,1,0,0:0:0:0:
253,0,193961,5,0,0:0:0:0:
387,375,194108,1,0,0:0:0:0:
132,0,194255,5,0,0:0:0:0:
512,384,194402,1,0,0:0:0:0:
67,106,194549,5,0,0:0:0:0:
511,209,194696,1,0,0:0:0:0:
136,236,194843,5,0,0:0:0:0:
369,82,194990,1,0,0:0:0:0:
312,323,195138,1,0,0:0:0:0:
224,24,195285,1,0,0:0:0:0:
200,275,195432,6,0,B|261:340|261:340|264:313,1,112
341,106,196020,6,0,P|308:152|245:156,1,112
117,202,196608,6,0,P|121:146|107:70,1,112
372,294,197196,6,0,P|379:256|396:228,1,56
424,194,197417,1,0,0:0:0:0:
424,194,197490,1,0,0:0:0:0:
295,248,197638,1,0,0:0:0:0:
322,124,197785,2,0,L|332:51,1,56
221,141,198079,5,0,0:0:0:0:
221,141,198226,2,0,L|152:178,1,56
94,237,198520,5,0,0:0:0:0:
94,237,198667,2,0,L|163:274,1,56
229,335,198961,5,0,0:0:0:0:
101,368,199108,1,0,0:0:0:0:
256,374,199255,1,0,0:0:0:0:
124,324,199402,2,0,L|63:302,1,56
188,379,199696,5,0,0:0:0:0:
132,280,199843,2,0,L|99:224,1,56
266,294,200138,6,0,L|322:324,1,56
395,180,200432,5,0,0:0:0:0:
395,180,200579,2,0,L|362:242,1,56
274,100,200873,5,0,0:0:0:0:
274,100,201020,2,0,L|307:162,1,56
376,26,201314,5,0,0:0:0:0:
351,134,201461,1,0,0:0:0:0:
335,1,201608,1,0,0:0:0:0:
403,120,201755,2,0,L|434:184,1,56
277,32,202049,5,0,0:0:0:0:
379,69,202196,2,0,L|430:92,1,56
302,161,202490,6,0,L|241:187,1,56
176,123,202785,5,0,0:0:0:0:
176,123,202932,2,0,L|149:191,1,56
54,170,203226,5,0,0:0:0:0:
54,170,203373,2,0,L|71:243,1,56
5,292,203667,5,0,0:0:0:0:
123,195,203814,1,0,0:0:0:0:
30,332,203961,1,0,0:0:0:0:
67,190,204108,2,0,L|82:127,1,56
131,288,204402,5,0,0:0:0:0:
163,174,204549,2,0,L|178:111,1,56
216,239,204843,5,0,0:0:0:0:
