osu file format v14

[General]
AudioFilename: audio.mp3
AudioLeadIn: 0
PreviewTime: -1
Countdown: 1
SampleSet: Soft
StackLeniency: 0.7
Mode: 3
LetterboxInBreaks: 0
SpecialStyle: 0
WidescreenStoryboard: 0

[Editor]
DistanceSpacing: 0.6
BeatDivisor: 4
GridSize: 32
TimelineZoom: 1.8

[Metadata]
Title:Black Rover
TitleUnicode:Black Rover
Artist:Vickeblanka
ArtistUnicode:Vickeblanka
Creator:booty
Version:b4kty
Source:
Tags:
BeatmapID:1884984
BeatmapSetID:902908

[Difficulty]
HPDrainRate:7
CircleSize:4
OverallDifficulty:7
ApproachRate:5
SliderMultiplier:1.4
SliderTickRate:1

[Events]
//Background and Video events
0,0,"8ce02b25f79618c54f0cd581e785e814.png",0,0
//Break Periods
//Storyboard Layer 0 (Background)
//Storyboard Layer 1 (Fail)
//Storyboard Layer 2 (Pass)
//Storyboard Layer 3 (Foreground)
//Storyboard Sound Samples

[TimingPoints]
1032,294.117647058824,4,2,22,7,1,0
1032,-100,4,2,22,7,0,0
7354,255.31914893617,4,2,22,7,1,0
7354,-115.19607843137,4,2,22,7,0,0
7928,329.67032967033,4,2,22,7,1,0
7928,-89.21568627451,4,2,22,7,0,0
8092,329.67032967033,4,2,22,7,1,0
8092,-89.21568627451,4,2,22,7,0,0
8257,294.117647058824,4,2,22,7,1,0
8257,-100,4,2,22,7,0,0
8378,294.117647058824,4,2,22,7,1,0
8378,-100,4,2,22,7,0,0
9260,294.117647058824,4,2,22,7,1,0
9260,-100,4,2,22,7,0,0
26014,294.117647058824,4,2,22,7,1,0
26014,-100,4,2,22,7,0,0
26897,294.117647058824,4,2,22,7,1,0
26897,-100,4,2,22,7,0,0
47338,294.117647058824,4,2,22,7,1,0
47338,-100,4,2,22,7,0,0
47485,346.820809248555,4,2,22,7,1,0
47485,-84.803921568627,4,2,22,7,0,0
47658,250,4,2,22,7,1,0
47658,-117.64705882353,4,2,22,7,0,0
47783,306.122448979592,4,2,22,7,1,0
47783,-96.078431372549,4,2,22,7,0,0
47936,294.117647058824,4,2,22,7,1,0
47936,-100,4,2,22,7,0,0
48083,294.117647058824,4,2,22,7,1,0
48083,-100,4,2,22,7,0,0
76307,294.117647058824,4,2,0,5,1,0
76307,-100,4,2,22,7,0,8

[HitObjects]
448,192,443,128,0,1032:0:0:0:0:
320,192,1032,1,0,0:0:0:0:
64,192,1032,1,0,0:0:0:0:
192,192,1179,1,0,0:0:0:0:
64,192,1326,1,0,0:0:0:0:
448,192,1326,1,0,0:0:0:0:
320,192,1473,1,0,0:0:0:0:
192,192,1620,1,0,0:0:0:0:
64,192,1620,1,0,0:0:0:0:
320,192,1767,1,0,0:0:0:0:
448,192,1914,1,0,0:0:0:0:
64,192,1914,1,0,0:0:0:0:
192,192,2061,1,0,0:0:0:0:
320,192,2208,1,0,0:0:0:0:
448,192,2208,1,0,0:0:0:0:
192,192,2355,1,0,0:0:0:0:
64,192,2502,1,0,0:0:0:0:
448,192,2502,1,0,0:0:0:0:
320,192,2649,1,0,0:0:0:0:
192,192,2796,1,0,0:0:0:0:
64,192,2796,1,0,0:0:0:0:
448,192,2943,1,0,0:0:0:0:
320,192,3090,1,0,0:0:0:0:
64,192,3090,1,0,0:0:0:0:
192,192,3237,1,0,0:0:0:0:
64,192,3384,1,0,0:0:0:0:
192,192,3384,1,0,0:0:0:0:
320,192,3532,1,0,0:0:0:0:
448,192,3679,1,0,0:0:0:0:
64,192,3679,1,0,0:0:0:0:
192,192,3826,1,0,0:0:0:0:
320,192,3973,1,0,0:0:0:0:
448,192,3973,1,0,0:0:0:0:
192,192,4120,1,0,0:0:0:0:
64,192,4267,1,0,0:0:0:0:
320,192,4267,1,0,0:0:0:0:
192,192,4414,1,0,0:0:0:0:
64,192,4561,1,0,0:0:0:0:
448,192,4561,1,0,0:0:0:0:
320,192,4708,1,0,0:0:0:0:
192,192,4855,1,0,0:0:0:0:
64,192,4855,1,0,0:0:0:0:
320,192,5002,1,0,0:0:0:0:
448,192,5149,1,0,0:0:0:0:
64,192,5149,1,0,0:0:0:0:
192,192,5296,1,0,0:0:0:0:
320,192,5443,1,0,0:0:0:0:
448,192,5443,1,0,0:0:0:0:
192,192,5590,1,0,0:0:0:0:
64,192,5737,1,0,0:0:0:0:
192,192,5737,1,0,0:0:0:0:
320,192,5884,1,0,0:0:0:0:
448,192,6032,1,0,0:0:0:0:
64,192,6032,1,0,0:0:0:0:
192,192,6179,1,0,0:0:0:0:
320,192,6326,1,0,0:0:0:0:
448,192,6326,1,0,0:0:0:0:
192,192,6473,1,0,0:0:0:0:
64,192,6620,1,0,0:0:0:0:
320,192,6620,1,0,0:0:0:0:
448,192,6767,1,0,0:0:0:0:
64,192,6914,1,0,0:0:0:0:
192,192,6914,1,0,0:0:0:0:
320,192,7061,1,0,0:0:0:0:
448,192,7208,1,0,0:0:0:0:
64,192,7208,1,0,0:0:0:0:
64,192,7354,1,0,0:0:0:0:
192,192,7354,1,0,0:0:0:0:
320,192,7417,1,0,0:0:0:0:
448,192,7417,1,0,0:0:0:0:
192,192,7481,1,0,0:0:0:0:
64,192,7481,1,0,0:0:0:0:
448,192,7481,1,0,0:0:0:0:
320,192,7673,1,0,0:0:0:0:
448,192,7673,1,0,0:0:0:0:
448,192,7800,1,0,0:0:0:0:
192,192,7800,1,0,0:0:0:0:
64,192,7800,1,0,0:0:0:0:
64,192,7928,1,0,0:0:0:0:
192,192,7928,1,0,0:0:0:0:
320,192,8092,1,0,0:0:0:0:
448,192,8256,1,0,0:0:0:0:
192,192,8256,1,0,0:0:0:0:
64,192,8378,1,0,0:0:0:0:
192,192,8378,1,0,0:0:0:0:
448,192,8378,1,0,0:0:0:0:
320,192,8525,1,0,0:0:0:0:
448,192,8672,1,0,0:0:0:0:
64,192,8672,1,0,0:0:0:0:
192,192,8819,1,0,0:0:0:0:
320,192,8819,1,0,0:0:0:0:
448,192,8966,1,0,0:0:0:0:
64,192,8966,1,0,0:0:0:0:
192,192,8966,1,0,0:0:0:0:
320,192,9113,1,0,0:0:0:0:
192,192,9186,1,0,0:0:0:0:
64,192,9260,1,0,0:0:0:0:
448,192,9260,1,0,0:0:0:0:
320,192,9260,1,0,0:0:0:0:
192,192,9407,1,0,0:0:0:0:
64,192,9407,1,0,0:0:0:0:
320,192,9554,1,0,0:0:0:0:
448,192,9554,1,0,0:0:0:0:
64,192,9554,1,0,0:0:0:0:
192,192,9701,1,0,0:0:0:0:
320,192,9774,1,0,0:0:0:0:
448,192,9848,1,0,0:0:0:0:
64,192,9848,1,0,0:0:0:0:
192,192,9995,1,0,0:0:0:0:
320,192,9995,1,0,0:0:0:0:
448,192,10142,1,0,0:0:0:0:
320,192,10142,1,0,0:0:0:0:
64,192,10142,1,0,0:0:0:0:
192,192,10289,1,0,0:0:0:0:
64,192,10289,1,0,0:0:0:0:
320,192,10436,1,0,0:0:0:0:
448,192,10583,1,0,0:0:0:0:
192,192,10583,1,0,0:0:0:0:
64,192,10730,1,0,0:0:0:0:
448,192,10730,1,0,0:0:0:0:
320,192,10730,1,0,0:0:0:0:
192,192,10877,1,0,0:0:0:0:
64,192,11024,1,0,0:0:0:0:
448,192,11024,1,0,0:0:0:0:
320,192,11171,1,0,0:0:0:0:
448,192,11171,1,0,0:0:0:0:
192,192,11318,1,0,0:0:0:0:
320,192,11318,1,0,0:0:0:0:
64,192,11318,128,0,11612:0:0:0:0:
320,192,11465,1,0,0:0:0:0:
448,192,11612,1,0,0:0:0:0:
192,192,11612,1,0,0:0:0:0:
320,192,11760,1,0,0:0:0:0:
448,192,11760,1,0,0:0:0:0:
192,192,11907,1,0,0:0:0:0:
64,192,11907,1,0,0:0:0:0:
320,192,11907,1,0,0:0:0:0:
192,192,12054,1,0,0:0:0:0:
320,192,12201,1,0,0:0:0:0:
64,192,12201,1,0,0:0:0:0:
320,192,12348,1,0,0:0:0:0:
192,192,12348,1,0,0:0:0:0:
64,192,12495,1,0,0:0:0:0:
192,192,12495,1,0,0:0:0:0:
448,192,12495,1,0,0:0:0:0:
448,192,12642,1,0,0:0:0:0:
320,192,12642,1,0,0:0:0:0:
64,192,12642,1,0,0:0:0:0:
320,192,12789,1,0,0:0:0:0:
192,192,12936,1,0,0:0:0:0:
64,192,12936,1,0,0:0:0:0:
320,192,13083,1,0,0:0:0:0:
448,192,13083,1,0,0:0:0:0:
64,192,13083,1,0,0:0:0:0:
192,192,13230,1,0,0:0:0:0:
64,192,13304,1,0,0:0:0:0:
320,192,13377,1,0,0:0:0:0:
448,192,13377,1,0,0:0:0:0:
192,192,13524,1,0,0:0:0:0:
64,192,13524,1,0,0:0:0:0:
192,192,13671,1,0,0:0:0:0:
320,192,13671,1,0,0:0:0:0:
448,192,13671,1,0,0:0:0:0:
320,192,13818,1,0,0:0:0:0:
192,192,13965,1,0,0:0:0:0:
64,192,13965,1,0,0:0:0:0:
448,192,13965,1,0,0:0:0:0:
448,192,14112,1,0,0:0:0:0:
192,192,14112,1,0,0:0:0:0:
320,192,14260,1,0,0:0:0:0:
64,192,14260,1,0,0:0:0:0:
448,192,14260,1,0,0:0:0:0:
192,192,14407,1,0,0:0:0:0:
320,192,14480,1,0,0:0:0:0:
448,192,14554,1,0,0:0:0:0:
64,192,14554,1,0,0:0:0:0:
192,192,14701,1,0,0:0:0:0:
320,192,14701,1,0,0:0:0:0:
448,192,14848,1,0,0:0:0:0:
64,192,14848,1,0,0:0:0:0:
192,192,14848,1,0,0:0:0:0:
320,192,14995,1,0,0:0:0:0:
192,192,15142,1,0,0:0:0:0:
448,192,15142,1,0,0:0:0:0:
64,192,15142,1,0,0:0:0:0:
320,192,15191,1,0,0:0:0:0:
320,192,15289,1,0,0:0:0:0:
64,192,15387,1,0,0:0:0:0:
320,192,15436,1,0,0:0:0:0:
448,192,15436,1,0,0:0:0:0:
192,192,15436,1,0,0:0:0:0:
192,192,15583,1,0,0:0:0:0:
64,192,15583,1,0,0:0:0:0:
320,192,15730,1,0,0:0:0:0:
448,192,15730,128,0,16318:0:0:0:0:
192,192,15877,1,0,0:0:0:0:
64,192,16024,1,0,0:0:0:0:
320,192,16024,1,0,0:0:0:0:
64,192,16171,1,0,0:0:0:0:
192,192,16318,128,0,16907:0:0:0:0:
320,192,16318,1,0,0:0:0:0:
64,192,16465,1,0,0:0:0:0:
320,192,16612,1,0,0:0:0:0:
448,192,16612,1,0,0:0:0:0:
448,192,16760,1,0,0:0:0:0:
320,192,16760,1,0,0:0:0:0:
64,192,16907,128,0,17495:0:0:0:0:
448,192,16907,1,0,0:0:0:0:
320,192,16907,1,0,0:0:0:0:
320,192,17054,1,0,0:0:0:0:
192,192,17201,1,0,0:0:0:0:
448,192,17201,1,0,0:0:0:0:
448,192,17348,1,0,0:0:0:0:
320,192,17495,1,0,0:0:0:0:
192,192,17495,1,0,0:0:0:0:
448,192,17789,1,0,0:0:0:0:
192,192,17789,1,0,0:0:0:0:
64,192,17789,1,0,0:0:0:0:
320,192,17936,1,0,0:0:0:0:
64,192,18083,1,0,0:0:0:0:
320,192,18230,1,0,0:0:0:0:
448,192,18230,1,0,0:0:0:0:
192,192,18377,1,0,0:0:0:0:
64,192,18377,1,0,0:0:0:0:
448,192,18377,1,0,0:0:0:0:
192,192,18671,1,0,0:0:0:0:
448,192,18671,1,0,0:0:0:0:
320,192,18818,1,0,0:0:0:0:
64,192,18818,1,0,0:0:0:0:
192,192,18965,1,0,0:0:0:0:
448,192,18965,1,0,0:0:0:0:
64,192,18965,1,0,0:0:0:0:
320,192,19260,1,0,0:0:0:0:
448,192,19260,1,0,0:0:0:0:
192,192,19407,1,0,0:0:0:0:
64,192,19407,1,0,0:0:0:0:
320,192,19554,1,0,0:0:0:0:
448,192,19554,1,0,0:0:0:0:
64,192,19554,1,0,0:0:0:0:
64,192,19701,1,0,0:0:0:0:
192,192,19701,1,0,0:0:0:0:
320,192,19774,1,0,0:0:0:0:
448,192,19774,1,0,0:0:0:0:
64,192,19848,128,0,20142:0:0:0:0:
192,192,19848,1,0,0:0:0:0:
320,192,20142,1,0,0:0:0:0:
448,192,20142,1,0,0:0:0:0:
192,192,20289,1,0,0:0:0:0:
64,192,20289,1,0,0:0:0:0:
448,192,20436,1,0,0:0:0:0:
320,192,20583,1,0,0:0:0:0:
64,192,20583,1,0,0:0:0:0:
320,192,20730,1,0,0:0:0:0:
192,192,20730,1,0,0:0:0:0:
64,192,20730,1,0,0:0:0:0:
64,192,21024,1,0,0:0:0:0:
448,192,21024,1,0,0:0:0:0:
320,192,21171,1,0,0:0:0:0:
192,192,21171,1,0,0:0:0:0:
320,192,21318,1,0,0:0:0:0:
448,192,21318,1,0,0:0:0:0:
64,192,21318,1,0,0:0:0:0:
192,192,21612,1,0,0:0:0:0:
64,192,21612,1,0,0:0:0:0:
448,192,21760,1,0,0:0:0:0:
320,192,21760,1,0,0:0:0:0:
192,192,21907,1,0,0:0:0:0:
64,192,21907,1,0,0:0:0:0:
448,192,21907,1,0,0:0:0:0:
320,192,22054,1,0,0:0:0:0:
448,192,22054,1,0,0:0:0:0:
192,192,22127,1,0,0:0:0:0:
64,192,22127,1,0,0:0:0:0:
320,192,22201,1,0,0:0:0:0:
448,192,22201,128,0,22495:0:0:0:0:
192,192,22495,1,0,0:0:0:0:
64,192,22495,1,0,0:0:0:0:
320,192,22642,1,0,0:0:0:0:
64,192,22789,1,0,0:0:0:0:
448,192,22936,1,0,0:0:0:0:
192,192,22936,1,0,0:0:0:0:
320,192,23083,1,0,0:0:0:0:
448,192,23083,1,0,0:0:0:0:
64,192,23083,1,0,0:0:0:0:
192,192,23230,1,0,0:0:0:0:
64,192,23377,1,0,0:0:0:0:
320,192,23377,1,0,0:0:0:0:
448,192,23524,1,0,0:0:0:0:
320,192,23524,1,0,0:0:0:0:
192,192,23671,1,0,0:0:0:0:
64,192,23671,1,0,0:0:0:0:
448,192,23671,1,0,0:0:0:0:
448,192,23965,1,0,0:0:0:0:
320,192,23965,1,0,0:0:0:0:
192,192,24112,1,0,0:0:0:0:
320,192,24112,1,0,0:0:0:0:
192,192,24260,1,0,0:0:0:0:
64,192,24260,1,0,0:0:0:0:
448,192,24260,1,0,0:0:0:0:
448,192,24407,1,0,0:0:0:0:
320,192,24407,1,0,0:0:0:0:
192,192,24480,1,0,0:0:0:0:
64,192,24480,1,0,0:0:0:0:
320,192,24554,128,0,24848:0:0:0:0:
448,192,24554,128,0,24848:0:0:0:0:
64,192,24848,1,0,0:0:0:0:
192,192,24848,1,0,0:0:0:0:
192,192,24995,1,0,0:0:0:0:
64,192,24995,1,0,0:0:0:0:
448,192,25142,1,0,0:0:0:0:
320,192,25289,1,0,0:0:0:0:
64,192,25289,1,0,0:0:0:0:
192,192,25436,1,0,0:0:0:0:
320,192,25436,1,0,0:0:0:0:
64,192,25436,1,0,0:0:0:0:
448,192,25583,1,0,0:0:0:0:
320,192,25730,1,0,0:0:0:0:
64,192,25730,1,0,0:0:0:0:
192,192,25877,1,0,0:0:0:0:
320,192,25877,1,0,0:0:0:0:
448,192,26014,1,0,0:0:0:0:
320,192,26014,1,0,0:0:0:0:
64,192,26014,1,0,0:0:0:0:
192,192,26308,1,0,0:0:0:0:
64,192,26308,1,0,0:0:0:0:
320,192,26308,1,0,0:0:0:0:
320,192,26455,1,0,0:0:0:0:
192,192,26455,1,0,0:0:0:0:
64,192,26455,1,0,0:0:0:0:
448,192,26602,1,0,0:0:0:0:
320,192,26602,1,0,0:0:0:0:
192,192,26602,1,0,0:0:0:0:
192,192,26749,1,0,0:0:0:0:
320,192,26749,1,0,0:0:0:0:
448,192,26749,1,0,0:0:0:0:
64,192,26896,128,0,27191:0:0:0:0:
448,192,26897,1,0,0:0:0:0:
320,192,27044,1,0,0:0:0:0:
192,192,27191,1,0,0:0:0:0:
448,192,27191,1,0,0:0:0:0:
448,192,27338,1,0,0:0:0:0:
320,192,27485,1,0,0:0:0:0:
64,192,27485,1,0,0:0:0:0:
192,192,27632,1,0,0:0:0:0:
320,192,27632,1,0,0:0:0:0:
448,192,27779,1,0,0:0:0:0:
320,192,27779,1,0,0:0:0:0:
64,192,27779,1,0,0:0:0:0:
192,192,27926,1,0,0:0:0:0:
320,192,28073,1,0,0:0:0:0:
64,192,28073,1,0,0:0:0:0:
192,192,28220,1,0,0:0:0:0:
320,192,28220,1,0,0:0:0:0:
448,192,28367,1,0,0:0:0:0:
320,192,28367,1,0,0:0:0:0:
64,192,28367,1,0,0:0:0:0:
192,192,28514,1,0,0:0:0:0:
64,192,28661,1,0,0:0:0:0:
192,192,28661,1,0,0:0:0:0:
448,192,28808,1,0,0:0:0:0:
64,192,28808,1,0,0:0:0:0:
320,192,28955,1,0,0:0:0:0:
448,192,28955,1,0,0:0:0:0:
192,192,28955,1,0,0:0:0:0:
320,192,29102,1,0,0:0:0:0:
192,192,29102,1,0,0:0:0:0:
64,192,29249,1,0,0:0:0:0:
448,192,29249,128,0,29544:0:0:0:0:
192,192,29397,1,0,0:0:0:0:
320,192,29544,1,0,0:0:0:0:
64,192,29544,1,0,0:0:0:0:
192,192,29691,1,0,0:0:0:0:
64,192,29838,1,0,0:0:0:0:
192,192,29838,1,0,0:0:0:0:
448,192,29838,1,0,0:0:0:0:
448,192,29985,1,0,0:0:0:0:
320,192,29985,1,0,0:0:0:0:
192,192,30132,1,0,0:0:0:0:
64,192,30132,1,0,0:0:0:0:
320,192,30132,1,0,0:0:0:0:
192,192,30279,1,0,0:0:0:0:
448,192,30426,1,0,0:0:0:0:
320,192,30426,1,0,0:0:0:0:
64,192,30426,1,0,0:0:0:0:
192,192,30573,1,0,0:0:0:0:
448,192,30573,1,0,0:0:0:0:
64,192,30720,1,0,0:0:0:0:
192,192,30720,1,0,0:0:0:0:
320,192,30720,1,0,0:0:0:0:
64,192,30867,1,0,0:0:0:0:
192,192,31014,1,0,0:0:0:0:
448,192,31014,1,0,0:0:0:0:
320,192,31161,1,0,0:0:0:0:
64,192,31161,1,0,0:0:0:0:
192,192,31308,1,0,0:0:0:0:
320,192,31308,1,0,0:0:0:0:
448,192,31308,1,0,0:0:0:0:
448,192,31455,1,0,0:0:0:0:
64,192,31455,1,0,0:0:0:0:
192,192,31602,1,0,0:0:0:0:
320,192,31602,1,0,0:0:0:0:
64,192,31602,128,0,31897:0:0:0:0:
320,192,31749,1,0,0:0:0:0:
448,192,31749,1,0,0:0:0:0:
448,192,31897,1,0,0:0:0:0:
192,192,31897,1,0,0:0:0:0:
192,192,32044,1,0,0:0:0:0:
448,192,32191,1,0,0:0:0:0:
64,192,32191,1,0,0:0:0:0:
320,192,32338,1,0,0:0:0:0:
448,192,32338,1,0,0:0:0:0:
448,192,32485,1,0,0:0:0:0:
320,192,32485,1,0,0:0:0:0:
64,192,32485,1,0,0:0:0:0:
192,192,32632,1,0,0:0:0:0:
64,192,32779,1,0,0:0:0:0:
320,192,32779,1,0,0:0:0:0:
192,192,32926,1,0,0:0:0:0:
320,192,32926,1,0,0:0:0:0:
64,192,33073,1,0,0:0:0:0:
448,192,33073,1,0,0:0:0:0:
192,192,33073,1,0,0:0:0:0:
320,192,33220,1,0,0:0:0:0:
448,192,33367,1,0,0:0:0:0:
320,192,33367,1,0,0:0:0:0:
64,192,33514,1,0,0:0:0:0:
192,192,33514,1,0,0:0:0:0:
320,192,33661,1,0,0:0:0:0:
64,192,33661,1,0,0:0:0:0:
448,192,33661,1,0,0:0:0:0:
192,192,33808,1,0,0:0:0:0:
320,192,33955,1,0,0:0:0:0:
448,192,33955,1,0,0:0:0:0:
64,192,33955,1,0,0:0:0:0:
192,192,33955,1,0,0:0:0:0:
320,192,34102,1,0,0:0:0:0:
64,192,34249,1,0,0:0:0:0:
192,192,34249,1,0,0:0:0:0:
448,192,34249,1,0,0:0:0:0:
320,192,34397,1,0,0:0:0:0:
448,192,34397,1,0,0:0:0:0:
192,192,34544,1,0,0:0:0:0:
64,192,34544,1,0,0:0:0:0:
320,192,34544,1,0,0:0:0:0:
448,192,34691,1,0,0:0:0:0:
320,192,34838,1,0,0:0:0:0:
64,192,34838,1,0,0:0:0:0:
320,192,34985,1,0,0:0:0:0:
448,192,34985,1,0,0:0:0:0:
64,192,34985,1,0,0:0:0:0:
192,192,35058,1,0,0:0:0:0:
320,192,35132,1,0,0:0:0:0:
192,192,35279,1,0,0:0:0:0:
448,192,35279,1,0,0:0:0:0:
320,192,35426,1,0,0:0:0:0:
448,192,35426,1,0,0:0:0:0:
64,192,35426,1,0,0:0:0:0:
192,192,35573,1,0,0:0:0:0:
64,192,35720,1,0,0:0:0:0:
448,192,35720,1,0,0:0:0:0:
192,192,35720,1,0,0:0:0:0:
320,192,35867,1,0,0:0:0:0:
448,192,35867,1,0,0:0:0:0:
64,192,36014,1,0,0:0:0:0:
192,192,36014,1,0,0:0:0:0:
320,192,36014,1,0,0:0:0:0:
320,192,36161,1,0,0:0:0:0:
448,192,36161,1,0,0:0:0:0:
192,192,36308,128,0,37485:0:0:0:0:
64,192,36308,1,0,0:0:0:0:
448,192,36602,1,0,0:0:0:0:
320,192,36602,1,0,0:0:0:0:
64,192,36897,1,0,0:0:0:0:
320,192,36897,1,0,0:0:0:0:
448,192,37191,1,0,0:0:0:0:
320,192,37191,1,0,0:0:0:0:
64,192,37338,1,0,0:0:0:0:
320,192,37485,128,0,38661:0:0:0:0:
448,192,37485,1,0,0:0:0:0:
192,192,37779,1,0,0:0:0:0:
64,192,37779,1,0,0:0:0:0:
448,192,38073,1,0,0:0:0:0:
64,192,38073,1,0,0:0:0:0:
448,192,38367,1,0,0:0:0:0:
64,192,38367,1,0,0:0:0:0:
192,192,38514,1,0,0:0:0:0:
64,192,38661,128,0,39838:0:0:0:0:
448,192,38661,1,0,0:0:0:0:
192,192,38955,1,0,0:0:0:0:
320,192,38955,1,0,0:0:0:0:
448,192,39249,1,0,0:0:0:0:
320,192,39249,1,0,0:0:0:0:
192,192,39544,1,0,0:0:0:0:
320,192,39544,1,0,0:0:0:0:
320,192,39691,1,0,0:0:0:0:
448,192,39838,128,0,41014:0:0:0:0:
192,192,39838,1,0,0:0:0:0:
320,192,40132,1,0,0:0:0:0:
64,192,40132,1,0,0:0:0:0:
192,192,40426,1,0,0:0:0:0:
320,192,40426,1,0,0:0:0:0:
192,192,40573,1,0,0:0:0:0:
64,192,40573,1,0,0:0:0:0:
320,192,40720,1,0,0:0:0:0:
64,192,40720,1,0,0:0:0:0:
64,192,40867,1,0,0:0:0:0:
192,192,41014,128,0,41602:0:0:0:0:
320,192,41014,1,0,0:0:0:0:
448,192,41308,1,0,0:0:0:0:
320,192,41308,1,0,0:0:0:0:
64,192,41602,128,0,42191:0:0:0:0:
448,192,41602,1,0,0:0:0:0:
320,192,41602,1,0,0:0:0:0:
192,192,41897,1,0,0:0:0:0:
448,192,41897,1,0,0:0:0:0:
192,192,42044,1,0,0:0:0:0:
320,192,42191,128,0,42779:0:0:0:0:
448,192,42191,1,0,0:0:0:0:
192,192,42485,1,0,0:0:0:0:
64,192,42485,1,0,0:0:0:0:
192,192,42779,128,0,43367:0:0:0:0:
448,192,42779,1,0,0:0:0:0:
448,192,43073,1,0,0:0:0:0:
320,192,43073,1,0,0:0:0:0:
448,192,43367,128,0,43955:0:0:0:0:
64,192,43367,1,0,0:0:0:0:
320,192,43661,1,0,0:0:0:0:
192,192,43661,1,0,0:0:0:0:
64,192,43955,128,0,44544:0:0:0:0:
192,192,43955,1,0,0:0:0:0:
448,192,44249,1,0,0:0:0:0:
192,192,44249,1,0,0:0:0:0:
192,192,44397,1,0,0:0:0:0:
320,192,44544,128,0,45132:0:0:0:0:
448,192,44544,1,0,0:0:0:0:
192,192,44838,1,0,0:0:0:0:
64,192,44838,1,0,0:0:0:0:
192,192,45132,128,0,45720:0:0:0:0:
448,192,45132,1,0,0:0:0:0:
448,192,45426,1,0,0:0:0:0:
320,192,45426,1,0,0:0:0:0:
448,192,45720,128,0,46308:0:0:0:0:
64,192,45720,1,0,0:0:0:0:
320,192,46308,128,0,46897:0:0:0:0:
64,192,46897,128,0,47338:0:0:0:0:
448,192,47338,1,0,0:0:0:0:
320,192,47338,1,0,0:0:0:0:
192,192,47411,1,0,0:0:0:0:
64,192,47411,1,0,0:0:0:0:
320,192,47485,1,0,0:0:0:0:
448,192,47485,1,0,0:0:0:0:
64,192,47485,1,0,0:0:0:0:
192,192,47658,1,0,0:0:0:0:
64,192,47658,1,0,0:0:0:0:
320,192,47783,1,0,0:0:0:0:
448,192,47783,1,0,0:0:0:0:
64,192,47783,1,0,0:0:0:0:
320,192,47936,1,0,0:0:0:0:
448,192,47936,1,0,0:0:0:0:
192,192,48083,1,0,0:0:0:0:
64,192,48230,1,0,0:0:0:0:
448,192,48230,1,0,0:0:0:0:
320,192,48377,1,0,0:0:0:0:
64,192,48377,1,0,0:0:0:0:
448,192,48377,1,0,0:0:0:0:
192,192,48524,1,0,0:0:0:0:
448,192,48671,1,0,0:0:0:0:
320,192,48671,1,0,0:0:0:0:
192,192,48818,1,0,0:0:0:0:
320,192,48818,1,0,0:0:0:0:
192,192,48965,1,0,0:0:0:0:
64,192,48965,1,0,0:0:0:0:
448,192,48965,1,0,0:0:0:0:
320,192,49112,1,0,0:0:0:0:
448,192,49259,1,0,0:0:0:0:
64,192,49259,1,0,0:0:0:0:
192,192,49406,1,0,0:0:0:0:
320,192,49406,1,0,0:0:0:0:
448,192,49553,1,0,0:0:0:0:
320,192,49553,1,0,0:0:0:0:
64,192,49553,1,0,0:0:0:0:
64,192,49700,1,0,0:0:0:0:
192,192,49847,1,0,0:0:0:0:
320,192,49847,1,0,0:0:0:0:
320,192,49994,1,0,0:0:0:0:
448,192,49994,1,0,0:0:0:0:
192,192,50141,1,0,0:0:0:0:
64,192,50141,1,0,0:0:0:0:
448,192,50141,1,0,0:0:0:0:
320,192,50288,1,0,0:0:0:0:
192,192,50288,1,0,0:0:0:0:
448,192,50435,1,0,0:0:0:0:
320,192,50583,1,0,0:0:0:0:
64,192,50583,1,0,0:0:0:0:
192,192,50730,1,0,0:0:0:0:
320,192,50730,1,0,0:0:0:0:
448,192,50730,1,0,0:0:0:0:
192,192,51024,1,0,0:0:0:0:
64,192,51024,1,0,0:0:0:0:
320,192,51171,1,0,0:0:0:0:
192,192,51171,1,0,0:0:0:0:
448,192,51318,1,0,0:0:0:0:
320,192,51318,1,0,0:0:0:0:
64,192,51318,1,0,0:0:0:0:
448,192,51612,1,0,0:0:0:0:
320,192,51612,1,0,0:0:0:0:
192,192,51759,1,0,0:0:0:0:
320,192,51759,1,0,0:0:0:0:
64,192,51906,1,0,0:0:0:0:
192,192,51906,1,0,0:0:0:0:
448,192,51906,1,0,0:0:0:0:
320,192,52053,1,0,0:0:0:0:
448,192,52053,1,0,0:0:0:0:
192,192,52200,1,0,0:0:0:0:
64,192,52200,1,0,0:0:0:0:
192,192,52347,1,0,0:0:0:0:
320,192,52347,1,0,0:0:0:0:
64,192,52494,1,0,0:0:0:0:
320,192,52494,1,0,0:0:0:0:
448,192,52494,1,0,0:0:0:0:
320,192,52641,1,0,0:0:0:0:
448,192,52641,1,0,0:0:0:0:
192,192,52788,1,0,0:0:0:0:
64,192,52935,1,0,0:0:0:0:
448,192,52935,1,0,0:0:0:0:
320,192,53083,1,0,0:0:0:0:
192,192,53083,1,0,0:0:0:0:
64,192,53083,1,0,0:0:0:0:
320,192,53377,1,0,0:0:0:0:
64,192,53377,1,0,0:0:0:0:
192,192,53524,1,0,0:0:0:0:
448,192,53524,1,0,0:0:0:0:
448,192,53671,1,0,0:0:0:0:
320,192,53671,1,0,0:0:0:0:
64,192,53671,1,0,0:0:0:0:
192,192,53965,1,0,0:0:0:0:
448,192,53965,1,0,0:0:0:0:
320,192,54112,1,0,0:0:0:0:
192,192,54112,1,0,0:0:0:0:
448,192,54259,1,0,0:0:0:0:
64,192,54259,1,0,0:0:0:0:
320,192,54259,1,0,0:0:0:0:
64,192,54406,1,0,0:0:0:0:
320,192,54553,1,0,0:0:0:0:
448,192,54553,1,0,0:0:0:0:
192,192,54700,1,0,0:0:0:0:
320,192,54700,1,0,0:0:0:0:
64,192,54847,1,0,0:0:0:0:
192,192,54847,1,0,0:0:0:0:
448,192,54847,1,0,0:0:0:0:
448,192,54994,1,0,0:0:0:0:
320,192,54994,1,0,0:0:0:0:
64,192,55141,1,0,0:0:0:0:
320,192,55288,1,0,0:0:0:0:
192,192,55288,1,0,0:0:0:0:
448,192,55435,1,0,0:0:0:0:
320,192,55435,1,0,0:0:0:0:
64,192,55435,1,0,0:0:0:0:
192,192,55730,1,0,0:0:0:0:
320,192,55730,1,0,0:0:0:0:
448,192,55877,1,0,0:0:0:0:
64,192,55877,1,0,0:0:0:0:
320,192,56024,1,0,0:0:0:0:
192,192,56024,1,0,0:0:0:0:
448,192,56024,1,0,0:0:0:0:
64,192,56171,1,0,0:0:0:0:
320,192,56318,128,0,56612:0:0:0:0:
448,192,56318,128,0,56612:0:0:0:0:
192,192,56612,1,0,0:0:0:0:
64,192,56612,1,0,0:0:0:0:
64,192,56906,128,0,57200:0:0:0:0:
192,192,56906,128,0,57200:0:0:0:0:
448,192,57200,1,0,0:0:0:0:
320,192,57200,1,0,0:0:0:0:
448,192,57347,1,0,0:0:0:0:
320,192,57347,1,0,0:0:0:0:
192,192,57347,1,0,0:0:0:0:
64,192,57494,1,0,0:0:0:0:
192,192,57641,1,0,0:0:0:0:
448,192,57641,1,0,0:0:0:0:
320,192,57788,1,0,0:0:0:0:
448,192,57788,1,0,0:0:0:0:
64,192,57788,1,0,0:0:0:0:
192,192,57935,1,0,0:0:0:0:
64,192,58083,1,0,0:0:0:0:
448,192,58083,1,0,0:0:0:0:
320,192,58230,1,0,0:0:0:0:
448,192,58230,1,0,0:0:0:0:
192,192,58377,1,0,0:0:0:0:
64,192,58377,1,0,0:0:0:0:
320,192,58377,1,0,0:0:0:0:
192,192,58524,1,0,0:0:0:0:
448,192,58671,1,0,0:0:0:0:
320,192,58671,1,0,0:0:0:0:
192,192,58818,1,0,0:0:0:0:
64,192,58965,1,0,0:0:0:0:
448,192,58965,1,0,0:0:0:0:
320,192,58965,1,0,0:0:0:0:
320,192,59112,1,0,0:0:0:0:
192,192,59259,1,0,0:0:0:0:
64,192,59259,1,0,0:0:0:0:
192,192,59406,1,0,0:0:0:0:
448,192,59406,1,0,0:0:0:0:
448,192,59553,1,0,0:0:0:0:
320,192,59553,1,0,0:0:0:0:
64,192,59553,1,0,0:0:0:0:
192,192,59700,1,0,0:0:0:0:
320,192,59700,1,0,0:0:0:0:
192,192,59847,1,0,0:0:0:0:
64,192,59847,1,0,0:0:0:0:
448,192,59994,1,0,0:0:0:0:
320,192,59994,1,0,0:0:0:0:
448,192,60141,1,0,0:0:0:0:
320,192,60141,1,0,0:0:0:0:
64,192,60141,1,0,0:0:0:0:
192,192,60288,1,0,0:0:0:0:
320,192,60435,1,0,0:0:0:0:
64,192,60435,1,0,0:0:0:0:
64,192,60583,1,0,0:0:0:0:
320,192,60583,1,0,0:0:0:0:
448,192,60730,1,0,0:0:0:0:
192,192,60730,1,0,0:0:0:0:
64,192,60730,1,0,0:0:0:0:
320,192,60877,1,0,0:0:0:0:
448,192,61024,1,0,0:0:0:0:
64,192,61024,1,0,0:0:0:0:
320,192,61171,1,0,0:0:0:0:
192,192,61171,1,0,0:0:0:0:
448,192,61318,1,0,0:0:0:0:
320,192,61318,1,0,0:0:0:0:
64,192,61318,1,0,0:0:0:0:
192,192,61465,1,0,0:0:0:0:
320,192,61612,1,0,0:0:0:0:
64,192,61612,1,0,0:0:0:0:
320,192,61759,1,0,0:0:0:0:
448,192,61759,1,0,0:0:0:0:
64,192,61906,1,0,0:0:0:0:
192,192,61906,1,0,0:0:0:0:
448,192,61906,1,0,0:0:0:0:
192,192,62053,1,0,0:0:0:0:
64,192,62053,1,0,0:0:0:0:
320,192,62200,1,0,0:0:0:0:
448,192,62347,1,0,0:0:0:0:
64,192,62347,1,0,0:0:0:0:
320,192,62494,1,0,0:0:0:0:
448,192,62494,1,0,0:0:0:0:
64,192,62494,1,0,0:0:0:0:
192,192,62788,1,0,0:0:0:0:
320,192,62788,1,0,0:0:0:0:
448,192,62935,1,0,0:0:0:0:
320,192,62935,1,0,0:0:0:0:
192,192,63083,1,0,0:0:0:0:
64,192,63083,1,0,0:0:0:0:
448,192,63083,1,0,0:0:0:0:
320,192,63230,1,0,0:0:0:0:
192,192,63377,1,0,0:0:0:0:
64,192,63377,1,0,0:0:0:0:
320,192,63524,1,0,0:0:0:0:
448,192,63671,1,0,0:0:0:0:
320,192,63671,1,0,0:0:0:0:
64,192,63671,1,0,0:0:0:0:
192,192,63818,1,0,0:0:0:0:
64,192,63965,1,0,0:0:0:0:
192,192,63965,1,0,0:0:0:0:
320,192,64112,1,0,0:0:0:0:
64,192,64112,1,0,0:0:0:0:
192,192,64259,1,0,0:0:0:0:
448,192,64259,1,0,0:0:0:0:
320,192,64259,1,0,0:0:0:0:
448,192,64406,1,0,0:0:0:0:
192,192,64406,1,0,0:0:0:0:
64,192,64553,1,0,0:0:0:0:
320,192,64700,1,0,0:0:0:0:
192,192,64700,1,0,0:0:0:0:
448,192,64847,1,0,0:0:0:0:
320,192,64847,1,0,0:0:0:0:
64,192,64847,1,0,0:0:0:0:
192,192,65141,1,0,0:0:0:0:
64,192,65141,1,0,0:0:0:0:
320,192,65141,1,0,0:0:0:0:
320,192,65288,1,0,0:0:0:0:
448,192,65288,1,0,0:0:0:0:
192,192,65435,1,0,0:0:0:0:
64,192,65435,1,0,0:0:0:0:
448,192,65435,1,0,0:0:0:0:
320,192,65583,1,0,0:0:0:0:
448,192,65730,128,0,66024:0:0:0:0:
64,192,65730,128,0,66024:0:0:0:0:
192,192,66024,1,0,0:0:0:0:
320,192,66024,1,0,0:0:0:0:
448,192,66171,1,0,0:0:0:0:
320,192,66171,1,0,0:0:0:0:
192,192,66244,1,0,0:0:0:0:
64,192,66244,1,0,0:0:0:0:
320,192,66318,128,0,66612:0:0:0:0:
448,192,66318,128,0,66612:0:0:0:0:
64,192,66612,1,0,0:0:0:0:
192,192,66612,1,0,0:0:0:0:
192,192,66759,1,0,0:0:0:0:
64,192,66759,1,0,0:0:0:0:
448,192,66906,1,0,0:0:0:0:
320,192,66906,1,0,0:0:0:0:
192,192,67053,1,0,0:0:0:0:
64,192,67053,1,0,0:0:0:0:
64,192,67200,1,0,0:0:0:0:
192,192,67200,1,0,0:0:0:0:
320,192,67200,1,0,0:0:0:0:
448,192,67200,1,0,0:0:0:0:
320,192,67347,1,0,0:0:0:0:
448,192,67347,1,0,0:0:0:0:
448,192,67494,1,0,0:0:0:0:
320,192,67494,1,0,0:0:0:0:
192,192,67494,1,0,0:0:0:0:
64,192,67494,1,0,0:0:0:0:
192,192,67641,1,0,0:0:0:0:
64,192,67641,1,0,0:0:0:0:
64,192,67788,1,0,0:0:0:0:
192,192,67788,1,0,0:0:0:0:
320,192,67788,1,0,0:0:0:0:
448,192,67788,1,0,0:0:0:0:
448,192,67935,1,0,0:0:0:0:
320,192,67935,1,0,0:0:0:0:
64,192,68083,1,0,0:0:0:0:
192,192,68083,1,0,0:0:0:0:
320,192,68083,1,0,0:0:0:0:
448,192,68083,1,0,0:0:0:0:
320,192,68230,1,0,0:0:0:0:
192,192,68230,1,0,0:0:0:0:
192,192,68377,1,0,0:0:0:0:
64,192,68377,1,0,0:0:0:0:
320,192,68377,1,0,0:0:0:0:
448,192,68377,1,0,0:0:0:0:
64,192,68524,1,0,0:0:0:0:
448,192,68524,1,0,0:0:0:0:
448,192,68671,1,0,0:0:0:0:
320,192,68671,1,0,0:0:0:0:
192,192,68671,1,0,0:0:0:0:
64,192,68671,1,0,0:0:0:0:
64,192,68818,1,0,0:0:0:0:
192,192,68818,1,0,0:0:0:0:
192,192,68965,1,0,0:0:0:0:
448,192,68965,1,0,0:0:0:0:
320,192,68965,1,0,0:0:0:0:
64,192,68965,1,0,0:0:0:0:
320,192,69112,1,0,0:0:0:0:
448,192,69112,1,0,0:0:0:0:
448,192,69259,1,0,0:0:0:0:
320,192,69259,1,0,0:0:0:0:
64,192,69259,1,0,0:0:0:0:
192,192,69259,1,0,0:0:0:0:
64,192,69406,1,0,0:0:0:0:
192,192,69406,1,0,0:0:0:0:
64,192,69553,1,0,0:0:0:0:
192,192,69553,1,0,0:0:0:0:
448,192,69553,1,0,0:0:0:0:
320,192,69553,1,0,0:0:0:0:
192,192,69700,1,0,0:0:0:0:
64,192,69700,1,0,0:0:0:0:
64,192,69847,1,0,0:0:0:0:
192,192,69847,1,0,0:0:0:0:
320,192,69847,1,0,0:0:0:0:
448,192,69847,1,0,0:0:0:0:
320,192,69994,1,0,0:0:0:0:
192,192,69994,1,0,0:0:0:0:
64,192,70141,1,0,0:0:0:0:
192,192,70141,1,0,0:0:0:0:
320,192,70141,1,0,0:0:0:0:
448,192,70141,1,0,0:0:0:0:
448,192,70288,1,0,0:0:0:0:
320,192,70288,1,0,0:0:0:0:
448,192,70435,1,0,0:0:0:0:
320,192,70435,1,0,0:0:0:0:
64,192,70435,1,0,0:0:0:0:
192,192,70435,1,0,0:0:0:0:
320,192,70583,1,0,0:0:0:0:
448,192,70583,1,0,0:0:0:0:
448,192,70730,1,0,0:0:0:0:
192,192,70730,1,0,0:0:0:0:
64,192,70730,1,0,0:0:0:0:
320,192,70730,1,0,0:0:0:0:
320,192,70877,1,0,0:0:0:0:
192,192,70877,1,0,0:0:0:0:
64,192,71024,1,0,0:0:0:0:
192,192,71024,1,0,0:0:0:0:
320,192,71024,1,0,0:0:0:0:
448,192,71024,1,0,0:0:0:0:
192,192,71171,1,0,0:0:0:0:
64,192,71171,1,0,0:0:0:0:
64,192,71318,1,0,0:0:0:0:
192,192,71318,1,0,0:0:0:0:
320,192,71318,1,0,0:0:0:0:
448,192,71318,1,0,0:0:0:0:
448,192,71465,1,0,0:0:0:0:
64,192,71465,1,0,0:0:0:0:
192,192,71612,1,0,0:0:0:0:
320,192,71612,1,0,0:0:0:0:
448,192,71612,1,0,0:0:0:0:
64,192,71612,1,0,0:0:0:0:
192,192,71759,1,0,0:0:0:0:
320,192,71759,1,0,0:0:0:0:
448,192,71759,1,0,0:0:0:0:
64,192,71906,1,0,0:0:0:0:
192,192,71906,1,0,0:0:0:0:
320,192,71906,1,0,0:0:0:0:
448,192,71906,1,0,0:0:0:0:
192,192,72053,1,0,0:0:0:0:
64,192,72053,1,0,0:0:0:0:
320,192,72053,1,0,0:0:0:0:
64,192,72200,1,0,0:0:0:0:
192,192,72200,1,0,0:0:0:0:
320,192,72200,1,0,0:0:0:0:
448,192,72200,1,0,0:0:0:0:
448,192,72347,1,0,0:0:0:0:
320,192,72347,1,0,0:0:0:0:
64,192,72347,1,0,0:0:0:0:
64,192,72494,1,0,0:0:0:0:
192,192,72494,1,0,0:0:0:0:
320,192,72494,1,0,0:0:0:0:
448,192,72494,1,0,0:0:0:0:
64,192,72641,1,0,0:0:0:0:
192,192,72641,1,0,0:0:0:0:
448,192,72641,1,0,0:0:0:0:
448,192,72770,1,0,0:0:0:0:
320,192,72770,1,0,0:0:0:0:
192,192,72770,1,0,0:0:0:0:
64,192,72770,1,0,0:0:0:0:
320,192,72917,1,0,0:0:0:0:
192,192,72917,1,0,0:0:0:0:
64,192,72917,1,0,0:0:0:0:
448,192,73064,1,0,0:0:0:0:
320,192,73064,1,0,0:0:0:0:
192,192,73064,1,0,0:0:0:0:
64,192,73064,1,0,0:0:0:0:
64,192,73211,1,0,0:0:0:0:
448,192,73211,1,0,0:0:0:0:
320,192,73211,1,0,0:0:0:0:
192,192,73358,1,0,0:0:0:0:
64,192,73358,1,0,0:0:0:0:
448,192,73358,1,0,0:0:0:0:
320,192,73358,1,0,0:0:0:0:
192,192,73505,1,0,0:0:0:0:
64,192,73505,1,0,0:0:0:0:
192,192,73652,1,0,0:0:0:0:
320,192,73652,1,0,0:0:0:0:
448,192,73652,1,0,0:0:0:0:
64,192,73652,1,0,0:0:0:0:
448,192,73799,1,0,0:0:0:0:
320,192,73799,1,0,0:0:0:0:
64,192,73946,1,0,0:0:0:0:
192,192,73946,1,0,0:0:0:0:
320,192,73946,1,0,0:0:0:0:
448,192,73946,1,0,0:0:0:0:
64,192,74094,1,0,0:0:0:0:
192,192,74094,1,0,0:0:0:0:
320,192,74094,1,0,0:0:0:0:
448,192,74241,1,0,0:0:0:0:
192,192,74241,1,0,0:0:0:0:
320,192,74241,1,0,0:0:0:0:
64,192,74241,1,0,0:0:0:0:
64,192,74388,1,0,0:0:0:0:
448,192,74388,1,0,0:0:0:0:
192,192,74388,1,0,0:0:0:0:
448,192,74535,1,0,0:0:0:0:
192,192,74535,1,0,0:0:0:0:
320,192,74535,1,0,0:0:0:0:
64,192,74535,1,0,0:0:0:0:
320,192,74682,1,0,0:0:0:0:
448,192,74682,1,0,0:0:0:0:
64,192,74682,1,0,0:0:0:0:
64,192,74829,1,0,0:0:0:0:
192,192,74829,1,0,0:0:0:0:
320,192,74829,1,0,0:0:0:0:
448,192,74829,1,0,0:0:0:0:
192,192,74976,1,0,0:0:0:0:
320,192,74976,1,0,0:0:0:0:
448,192,74976,1,0,0:0:0:0:
64,192,75123,1,0,0:0:0:0:
192,192,75123,1,0,0:0:0:0:
448,192,75123,1,0,0:0:0:0:
320,192,75123,1,0,0:0:0:0:
64,192,75270,1,0,0:0:0:0:
320,192,75270,1,0,0:0:0:0:
448,192,75270,1,0,0:0:0:0:
320,192,75417,1,0,0:0:0:0:
192,192,75417,1,0,0:0:0:0:
64,192,75417,1,0,0:0:0:0:
448,192,75417,1,0,0:0:0:0:
192,192,75564,1,0,0:0:0:0:
64,192,75564,1,0,0:0:0:0:
448,192,75564,1,0,0:0:0:0:
448,192,75711,1,0,0:0:0:0:
320,192,75711,1,0,0:0:0:0:
192,192,75711,1,0,0:0:0:0:
64,192,75711,1,0,0:0:0:0:
64,192,75858,1,0,0:0:0:0:
192,192,75858,1,0,0:0:0:0:
320,192,75858,1,0,0:0:0:0:
448,192,76005,1,0,0:0:0:0:
320,192,76005,1,0,0:0:0:0:
192,192,76005,1,0,0:0:0:0:
64,192,76005,1,0,0:0:0:0:
448,192,76152,1,0,0:0:0:0:
320,192,76152,1,0,0:0:0:0:
192,192,76152,1,0,0:0:0:0:
64,192,76152,1,0,0:0:0:0:
64,192,76307,128,0,76913:0:0:0:0:
448,192,76307,128,0,76913:0:0:0:0:
320,192,76913,128,0,77501:0:0:0:0:
192,192,77501,128,0,78090:0:0:0:0:
448,192,77501,128,0,78090:0:0:0:0:
64,192,78090,128,0,78678:0:0:0:0:
192,192,78678,1,0,0:0:0:0:
448,192,78678,1,0,0:0:0:0:
320,192,78825,1,0,0:0:0:0:
448,192,78972,1,0,0:0:0:0:
64,192,78972,1,0,0:0:0:0:
192,192,79119,1,0,0:0:0:0:
320,192,79119,1,0,0:0:0:0:
192,192,79266,1,0,0:0:0:0:
64,192,79266,1,0,0:0:0:0:
448,192,79266,1,0,0:0:0:0:
448,192,79413,1,0,0:0:0:0:
320,192,79413,1,0,0:0:0:0:
192,192,79560,1,0,0:0:0:0:
64,192,79560,1,0,0:0:0:0:
320,192,79707,1,0,0:0:0:0:
448,192,79854,1,0,0:0:0:0:
192,192,79854,1,0,0:0:0:0:
64,192,79854,1,0,0:0:0:0:
64,192,80001,1,0,0:0:0:0:
192,192,80001,1,0,0:0:0:0:
448,192,80001,1,0,0:0:0:0:
64,192,80148,1,0,0:0:0:0:
192,192,80148,1,0,0:0:0:0:
448,192,80148,1,0,0:0:0:0:
192,192,80295,1,0,0:0:0:0:
64,192,80295,1,0,0:0:0:0:
448,192,80295,1,0,0:0:0:0:
448,192,80443,1,0,0:0:0:0:
192,192,80443,1,0,0:0:0:0:
64,192,80443,1,0,0:0:0:0:
320,192,80443,1,0,0:0:0:0:
448,192,80590,1,0,0:0:0:0:
320,192,80590,1,0,0:0:0:0:
192,192,80590,1,0,0:0:0:0:
192,192,80737,1,0,0:0:0:0:
320,192,80737,1,0,0:0:0:0:
448,192,80737,1,0,0:0:0:0:
64,192,80884,1,0,0:0:0:0:
192,192,81031,1,0,0:0:0:0:
448,192,81031,1,0,0:0:0:0:
320,192,81178,1,0,0:0:0:0:
192,192,81325,1,0,0:0:0:0:
64,192,81325,1,0,0:0:0:0:
448,192,81472,1,0,0:0:0:0:
192,192,81472,1,0,0:0:0:0:
320,192,81619,1,0,0:0:0:0:
448,192,81619,1,0,0:0:0:0:
64,192,81619,1,0,0:0:0:0:
192,192,81766,1,0,0:0:0:0:
64,192,81766,1,0,0:0:0:0:
320,192,81913,1,0,0:0:0:0:
448,192,81913,1,0,0:0:0:0:
192,192,82060,1,0,0:0:0:0:
64,192,82207,1,0,0:0:0:0:
320,192,82207,1,0,0:0:0:0:
448,192,82207,1,0,0:0:0:0:
448,192,82354,1,0,0:0:0:0:
320,192,82354,1,0,0:0:0:0:
64,192,82354,1,0,0:0:0:0:
64,192,82501,1,0,0:0:0:0:
320,192,82501,1,0,0:0:0:0:
448,192,82501,1,0,0:0:0:0:
448,192,82648,1,0,0:0:0:0:
320,192,82648,1,0,0:0:0:0:
64,192,82648,1,0,0:0:0:0:
64,192,82795,1,0,0:0:0:0:
192,192,82795,1,0,0:0:0:0:
320,192,82795,1,0,0:0:0:0:
448,192,82795,1,0,0:0:0:0:
192,192,82943,1,0,0:0:0:0:
320,192,82943,1,0,0:0:0:0:
64,192,82943,1,0,0:0:0:0:
64,192,83090,1,0,0:0:0:0:
192,192,83090,1,0,0:0:0:0:
320,192,83090,1,0,0:0:0:0:
448,192,83237,1,0,0:0:0:0:
320,192,83384,1,0,0:0:0:0:
64,192,83384,1,0,0:0:0:0:
192,192,83531,1,0,0:0:0:0:
64,192,83678,1,0,0:0:0:0:
192,192,83678,1,0,0:0:0:0:
448,192,83825,1,0,0:0:0:0:
64,192,83825,1,0,0:0:0:0:
320,192,83972,1,0,0:0:0:0:
448,192,83972,1,0,0:0:0:0:
192,192,83972,1,0,0:0:0:0:
64,192,84119,1,0,0:0:0:0:
192,192,84119,1,0,0:0:0:0:
448,192,84266,1,0,0:0:0:0:
64,192,84266,1,0,0:0:0:0:
320,192,84413,1,0,0:0:0:0:
448,192,84413,1,0,0:0:0:0:
192,192,84560,1,0,0:0:0:0:
64,192,84560,1,0,0:0:0:0:
320,192,84560,1,0,0:0:0:0:
320,192,84707,1,0,0:0:0:0:
192,192,84707,1,0,0:0:0:0:
64,192,84707,1,0,0:0:0:0:
64,192,84854,1,0,0:0:0:0:
192,192,84854,1,0,0:0:0:0:
320,192,84854,1,0,0:0:0:0:
320,192,85001,1,0,0:0:0:0:
192,192,85001,1,0,0:0:0:0:
64,192,85001,1,0,0:0:0:0:
448,192,85148,1,0,0:0:0:0:
320,192,85148,1,0,0:0:0:0:
192,192,85148,1,0,0:0:0:0:
64,192,85148,1,0,0:0:0:0:
320,192,85295,1,0,0:0:0:0:
448,192,85295,1,0,0:0:0:0:
64,192,85295,1,0,0:0:0:0:
64,192,85443,1,0,0:0:0:0:
320,192,85443,1,0,0:0:0:0:
448,192,85443,1,0,0:0:0:0:
192,192,85590,1,0,0:0:0:0:
64,192,85737,1,0,0:0:0:0:
448,192,85737,1,0,0:0:0:0:
