osu file format v14

[General]
AudioFilename: audio.mp3
AudioLeadIn: 0
PreviewTime: 48367
Countdown: 1
SampleSet: Soft
StackLeniency: 0.7
Mode: 0
LetterboxInBreaks: 0
WidescreenStoryboard: 0

[Editor]
DistanceSpacing: 1.4
BeatDivisor: 4
GridSize: 32
TimelineZoom: 3.899998

[Metadata]
Title:Black Rover
TitleUnicode:Black Rover
Artist:Vickeblanka
ArtistUnicode:Vickeblanka
Creator:Zinreu
Version:Black Metal
Source:
Tags:
BeatmapID:1783433
BeatmapSetID:853309

[Difficulty]
HPDrainRate:5
CircleSize:4
OverallDifficulty:9.3
ApproachRate:9.7
SliderMultiplier:1.9
SliderTickRate:1

[Events]
//Background and Video events
0,0,"iZyh5Il.jpg",0,0
//Break Periods
//Storyboard Layer 0 (Background)
//Storyboard Layer 1 (Fail)
//Storyboard Layer 2 (Pass)
//Storyboard Layer 3 (Foreground)
//Storyboard Sound Samples

[TimingPoints]
1022,294.117647058824,4,2,22,42,1,0
1022,-125,4,2,22,42,0,0
7344,255.31914893617,4,2,22,42,1,0
7471,335.195530726257,4,2,22,42,1,0
7638,250,4,2,22,42,1,0
7763,294.117647058824,4,2,22,42,1,0
7910,-76.9230769230769,4,2,22,42,0,0
7918,329.67032967033,4,2,22,72,1,0
8010,-125,4,2,22,42,0,0
8082,329.67032967033,4,2,22,72,1,0
8247,294.117647058824,4,2,22,72,1,0
8368,294.117647058824,4,2,22,72,1,0
9250,294.117647058824,4,2,22,72,1,0
15720,-125,4,2,22,72,0,0
17485,-100,4,2,22,72,0,0
26004,294.117647058824,4,2,22,52,1,0
26897,294.117647058824,4,2,22,62,1,0
36308,-125,4,2,22,62,0,0
45720,-153.846153846153,4,2,22,62,0,0
47328,294.117647058824,4,2,22,72,1,0
47475,346.820809248555,4,2,22,72,1,0
47648,250,4,2,22,72,1,0
47773,306.122448979592,4,2,22,72,1,0
47926,294.117647058824,4,2,22,82,1,1
47926,-83.3333333333333,4,2,22,82,0,1
48073,294.117647058824,4,2,22,82,1,1
56308,-142.857142857143,4,2,22,82,0,1
57337,-83.3333333333333,4,2,22,82,0,1
65720,-142.857142857143,4,2,22,82,0,1
72768,294.117647058824,4,2,22,92,1,1
76297,294.117647058824,4,2,22,72,1,9
76297,-125,4,2,22,72,0,9
76310,294.117647058824,4,2,22,72,1,0
76310,-125,4,2,22,72,0,0
78074,-83.3333333333333,4,2,22,72,0,0
78957,-100,4,2,22,72,0,0

[Colours]
Combo1 : 0,255,128
Combo2 : 128,128,255

[HitObjects]
30,78,1022,6,0,P|65:63|104:67,1,76
94,152,1316,2,0,P|152:170|167:184,1,76
285,272,1610,6,0,P|250:287|209:283,1,76
231,206,1904,2,0,P|172:187|155:171,1,76
421,80,2198,6,0,P|408:116|395:157,1,76
324,98,2492,2,0,P|304:131|287:165,1,76
159,250,2786,6,0,P|180:214|193:181,1,76
268,237,3080,2,0,P|280:201|287:161,1,76
475,225,3374,6,0,P|434:212|372:213,1,76
397,296,3669,2,0,P|345:291|301:303,1,76
121,176,3963,6,0,P|164:176|223:195,1,76
173,267,4258,2,0,P|224:278|259:303,1,76
149,106,4551,6,0,P|142:134|119:177,1,76
51,131,4845,2,0,B|33:175|-3:202,1,76
217,219,5139,6,0,P|225:252|243:289,1,76
308,241,5433,2,0,B|326:285|363:313,1,76
428,98,5727,6,0,P|410:75|372:47,1,76
333,117,6021,2,0,B|298:84|254:71,1,76
97,120,6316,6,0,P|125:118|174:125,1,76
146,203,6610,2,0,B|193:206|234:233,1,76
339,349,6904,6,0,P|338:287|330:258,1,76
430,292,7198,2,0,P|421:253|405:217,1,76
409,225,7407,5,0,0:0:0:0:
409,225,7471,1,0,0:0:0:0:
148,308,7638,1,0,0:0:0:0:
280,50,7763,1,0,0:0:0:0:
119,98,7918,6,0,P|85:136|-14:159,1,142.5
3,222,8247,2,0,P|47:230|99:258,1,95
208,69,8515,1,0,0:0:0:0:
213,344,8662,2,0,P|176:373|122:384,1,95
289,318,8956,2,0,P|334:278|416:266,1,142.5
423,266,9250,1,0,0:0:0:0:
381,133,9397,5,0,0:0:0:0:
432,337,9544,1,0,0:0:0:0:
330,150,9691,5,0,0:0:0:0:
468,326,9838,1,2,0:0:0:0:
288,186,9985,5,0,0:0:0:0:
485,281,10132,1,0,0:0:0:0:
289,280,10279,6,0,P|199:259|116:312,1,190
68,273,10720,2,0,P|73:228|55:170,1,95
121,37,11014,2,0,P|166:52|223:42,1,95
340,222,11308,2,0,P|266:193|195:204,1,142.5
192,206,11602,1,0,0:0:0:0:
252,68,11750,5,0,0:0:0:0:
201,272,11897,1,0,0:0:0:0:
303,85,12044,5,0,0:0:0:0:
165,261,12191,1,2,0:0:0:0:
345,121,12338,5,0,0:0:0:0:
148,216,12485,1,0,0:0:0:0:
252,68,12632,6,0,P|175:75|80:9,1,190
113,333,13073,1,0,0:0:0:0:
163,148,13220,1,0,0:0:0:0:
291,307,13367,2,0,P|309:261|337:210,1,95
401,98,13661,2,0,P|384:171|353:230,1,142.5
330,220,13955,1,0,0:0:0:0:
471,262,14102,5,0,0:0:0:0:
246,238,14250,1,0,0:0:0:0:
464,185,14397,5,0,0:0:0:0:
259,295,14544,1,0,0:0:0:0:
430,118,14691,5,0,0:0:0:0:
299,323,14838,2,0,P|333:313|396:323,1,95
366,180,15132,2,0,P|313:163|274:124,1,95
216,210,15426,2,0,L|208:270,1,47.5
140,325,15573,2,0,L|128:280,1,47.5
49,175,15720,6,0,P|-6:93|78:6,1,228
227,104,16308,2,0,B|148:72|149:128|73:94,1,152
70,300,16750,5,0,0:0:0:0:
79,96,16897,1,0,0:0:0:0:
127,326,17044,5,0,0:0:0:0:
152,166,17191,1,0,0:0:0:0:
178,352,17338,5,0,0:0:0:0:
226,221,17485,2,0,B|246:175|238:108|238:108|257:157|286:181,1,190
464,41,18073,6,0,P|403:63|364:61,1,95
276,171,18367,2,0,P|310:188|371:196,1,95
475,200,18661,2,0,P|489:237|487:323,2,95
297,83,19102,1,0,0:0:0:0:
99,71,19250,2,0,P|116:127|72:247,1,190
144,324,19691,1,0,0:0:0:0:
144,324,19764,1,0,0:0:0:0:
144,324,19838,2,0,B|237:361|239:281|329:323,1,190
319,145,20279,1,0,0:0:0:0:
154,51,20426,6,0,P|165:94|156:152,1,95
271,311,20720,2,0,B|263:259|287:204,1,95
363,74,21014,2,0,P|389:47|438:15,2,95
370,283,21455,1,0,0:0:0:0:
132,212,21602,2,0,P|101:235|39:252,2,95
203,339,22044,1,0,0:0:0:0:
203,339,22117,1,0,0:0:0:0:
203,339,22191,2,0,P|250:283|351:212,1,190
207,173,22632,1,0,0:0:0:0:
61,58,22779,6,0,P|101:41|158:50,1,95
271,41,23073,2,0,P|321:64|393:47,1,95
389,83,23367,2,0,P|369:120|361:176,1,95
207,173,23661,2,0,P|170:184|110:171,1,95
140,335,23955,2,0,P|212:285|317:268,1,190
452,250,24397,1,0,0:0:0:0:
452,250,24470,1,0,0:0:0:0:
452,250,24544,2,0,P|413:162|325:115,1,190
30,207,25132,5,0,0:0:0:0:
152,70,25279,1,0,0:0:0:0:
187,320,25426,1,0,0:0:0:0:
482,207,25720,5,0,0:0:0:0:
360,70,25867,1,0,0:0:0:0:
325,320,26004,1,0,0:0:0:0:
109,299,26298,5,0,0:0:0:0:
367,211,26445,1,0,0:0:0:0:
88,82,26592,1,0,0:0:0:0:
306,17,26739,1,0,0:0:0:0:
255,265,26897,2,0,P|171:177|240:10,1,285
355,118,27485,6,0,L|246:147,1,95
213,361,27779,2,0,L|314:333,1,95
69,61,28073,2,0,P|130:95|165:157,1,142.5
175,170,28367,1,0,0:0:0:0:
258,348,28514,1,0,0:0:0:0:
92,316,28661,1,0,0:0:0:0:
308,99,28808,2,0,P|322:66|381:32,1,95
392,255,29102,1,0,0:0:0:0:
205,230,29249,2,0,B|118:259|117:192|16:239,1,190
58,42,29691,5,0,0:0:0:0:
190,136,29838,2,0,L|206:237,1,95
336,107,30132,2,0,L|341:9,1,95
472,174,30426,2,0,L|461:285,1,95
331,340,30720,1,0,0:0:0:0:
287,178,30867,2,0,P|197:150|103:224,1,190
26,74,31308,1,0,0:0:0:0:
198,289,31455,1,0,0:0:0:0:
223,27,31602,2,0,P|301:68|396:29,1,190
458,258,32044,5,0,0:0:0:0:
244,154,32191,2,0,P|247:192|278:254,1,95
118,335,32485,2,0,P|113:295|84:241,1,95
29,88,32779,5,0,0:0:0:0:
36,315,32926,1,0,0:0:0:0:
185,128,33073,1,0,0:0:0:0:
308,328,33220,2,0,P|301:296|267:241,1,95
142,57,33514,1,0,0:0:0:0:
354,84,33661,2,0,P|390:94|452:93,1,95
491,280,33955,2,0,P|456:308|433:375,1,95
158,348,34249,5,0,0:0:0:0:
142,57,34397,1,0,0:0:0:0:
43,293,34544,1,0,0:0:0:0:
253,127,34691,1,0,0:0:0:0:
3,157,34838,1,0,0:0:0:0:
259,260,34985,1,0,0:0:0:0:
259,260,35279,5,0,0:0:0:0:
3,157,35426,1,0,0:0:0:0:
223,37,35720,6,0,P|228:68|258:134,1,95
342,99,36014,2,0,P|361:134|404:184,1,95
410,278,36308,6,0,P|357:261|312:238,1,76
313,321,36602,2,0,P|263:295|226:266,1,76
203,343,36897,2,0,P|159:308|125:274,1,76
52,227,37191,1,0,0:0:0:0:
47,116,37338,1,0,0:0:0:0:
185,30,37485,6,0,P|219:49|265:64,1,76
229,158,37779,2,0,P|266:171|315:176,1,76
365,77,38073,1,0,0:0:0:0:
429,161,38220,1,0,0:0:0:0:
489,245,38367,2,0,P|461:259|406:275,1,76
244,349,38661,6,0,P|191:295|114:293,1,152
41,358,39102,1,0,0:0:0:0:
33,241,39249,2,0,P|39:207|13:144,1,76
10,43,39544,1,0,0:0:0:0:
174,73,39691,6,0,B|211:55|248:67|248:67|266:44|333:42,1,152
422,148,40132,2,0,P|392:175|350:184,1,76
207,191,40426,1,0,0:0:0:0:
290,307,40573,2,0,P|328:320|382:318,1,76
422,148,40867,5,0,0:0:0:0:
422,148,40941,1,0,0:0:0:0:
422,148,41014,2,0,P|373:79|311:39,1,152
114,230,41602,2,0,P|133:146|193:90,1,152
267,340,42191,6,0,P|323:324|444:320,1,152
271,124,42779,2,0,P|201:156|119:166,1,152
160,370,43367,6,0,P|129:271|89:225,1,152
358,121,43955,2,0,P|394:219|429:266,1,152
239,360,44397,1,0,0:0:0:0:
179,169,44544,2,0,B|149:124|136:86|136:86|126:127|104:160,1,152
119,324,45132,1,0,0:0:0:0:
255,76,45426,1,0,0:0:0:0:
286,289,45720,6,0,B|279:143|365:209|356:60,2,246.999988693238
285,52,47328,6,0,L|281:117,1,47.5
265,336,47475,1,0,0:0:0:0:
409,146,47648,1,0,0:0:0:0:
147,273,47773,1,0,0:0:0:0:
129,25,47926,2,0,B|250:92|247:-20|372:51,1,227.999993041992
429,292,48367,6,0,P|390:283|330:248,1,95
284,51,48661,2,0,P|261:131|170:186,1,190
109,38,49102,1,0,0:0:0:0:
41,263,49249,6,0,P|78:270|133:306,1,95
310,142,49543,1,0,0:0:0:0:
312,302,49690,1,0,0:0:0:0:
142,214,49837,1,0,0:0:0:0:
217,336,49984,1,0,0:0:0:0:
214,159,50131,1,0,0:0:0:0:
346,351,50278,2,0,P|434:291|528:307,1,190
455,47,50720,6,0,P|460:84|496:142,1,95
350,257,51014,2,0,P|341:220|303:167,1,95
195,83,51308,1,0,0:0:0:0:
128,270,51455,1,0,0:0:0:0:
70,85,51602,5,0,0:0:0:0:
198,182,51749,1,0,0:0:0:0:
312,68,51896,2,0,P|375:47|417:57,1,95
454,288,52190,5,0,0:0:0:0:
326,191,52337,1,0,0:0:0:0:
209,304,52484,1,0,0:0:0:0:
70,85,52631,2,0,P|71:157|27:273,1,190
209,304,53073,6,0,P|219:265|251:217,1,95
433,196,53367,2,0,P|423:235|388:289,1,95
306,364,53661,1,0,0:0:0:0:
248,219,53808,1,0,0:0:0:0:
41,86,53955,6,0,L|51:207,1,95
146,351,54249,2,0,L|159:237,1,95
222,69,54543,1,0,0:0:0:0:
282,302,54690,1,0,0:0:0:0:
109,208,54837,1,0,0:0:0:0:
335,174,54984,6,0,P|338:80|290:0,1,190
63,123,55425,2,0,P|36:171|76:305,1,190
282,302,55867,1,0,0:0:0:0:
166,352,56014,1,0,0:0:0:0:
214,173,56161,1,0,0:0:0:0:
448,68,56308,6,0,P|425:126|422:199,1,132.999995941162
346,288,56896,2,0,P|319:239|253:196,1,132.999995941162
84,116,57337,6,0,P|149:54|284:63,1,227.999993041992
466,276,57778,6,0,P|467:224|497:160,1,113.999996520996
351,44,58073,2,0,P|348:105|325:161,1,113.999996520996
227,289,58367,1,0,0:0:0:0:
191,133,58514,1,0,0:0:0:0:
0,71,58661,6,0,P|-2:116|11:188,1,113.999996520996
139,355,58955,2,0,P|140:299|124:238,1,113.999996520996
104,118,59249,1,0,0:0:0:0:
229,210,59396,1,0,0:0:0:0:
104,118,59543,1,0,0:0:0:0:
227,289,59690,2,0,B|336:235|337:326|453:269,1,227.999993041992
410,97,60131,6,0,P|371:65|337:8,1,113.999996520996
178,55,60425,2,0,P|182:105|153:184,1,113.999996520996
281,289,60720,2,0,P|323:272|403:271,1,113.999996520996
305,159,61014,5,0,0:0:0:0:
261,25,61161,1,0,0:0:0:0:
85,101,61308,2,0,P|60:149|52:235,1,113.999996520996
228,231,61602,5,0,0:0:0:0:
272,365,61749,1,0,0:0:0:0:
443,290,61896,1,0,0:0:0:0:
493,90,62043,2,0,B|404:84|404:84|365:102|365:102|256:91,1,227.999993041992
89,315,62484,6,0,P|79:259|50:210,1,113.999996520996
196,59,62778,2,0,P|200:104|235:169,1,113.999996520996
237,324,63073,1,0,0:0:0:0:
137,160,63220,1,0,0:0:0:0:
351,21,63367,6,0,P|368:95|331:182,1,170.999994781494
347,229,63661,2,0,P|390:228|473:270,1,113.999996520996
219,270,63955,2,0,L|254:391,1,113.999996520996
84,248,64249,2,0,L|44:123,1,113.999996520996
141,16,64543,6,0,P|233:26|354:86,1,227.999993041992
353,85,65131,5,0,0:0:0:0:
332,314,65278,1,0,0:0:0:0:
437,196,65425,1,0,0:0:0:0:
268,179,65573,1,0,0:0:0:0:
75,61,65720,6,0,P|87:120|63:217,1,132.999995941162
75,359,66161,1,0,0:0:0:0:
75,359,66234,1,0,0:0:0:0:
75,359,66308,2,0,P|147:335|226:349,1,132.999995941162
413,338,66749,1,0,0:0:0:0:
238,53,66896,5,0,0:0:0:0:
334,348,67043,1,0,0:0:0:0:
317,51,67190,5,0,0:0:0:0:
251,350,67337,1,0,0:0:0:0:
214,41,67484,5,0,0:0:0:0:
352,357,67631,1,0,0:0:0:0:
336,37,67778,5,0,0:0:0:0:
235,362,67925,1,0,0:0:0:0:
94,192,68073,5,0,0:0:0:0:
442,221,68220,1,0,0:0:0:0:
115,122,68367,5,0,0:0:0:0:
417,302,68514,1,0,0:0:0:0:
98,216,68661,5,0,0:0:0:0:
450,203,68808,1,0,0:0:0:0:
118,98,68955,5,0,0:0:0:0:
407,323,69102,1,0,0:0:0:0:
168,57,69249,5,0,0:0:0:0:
265,345,69396,1,0,0:0:0:0:
278,41,69543,5,0,0:0:0:0:
140,346,69690,1,0,0:0:0:0:
126,48,69837,5,0,0:0:0:0:
294,354,69984,1,0,0:0:0:0:
351,57,70131,5,0,0:0:0:0:
216,334,70278,1,0,0:0:0:0:
207,59,70425,5,0,0:0:0:0:
373,330,70573,1,0,0:0:0:0:
371,39,70720,5,0,0:0:0:0:
196,356,70867,1,0,0:0:0:0:
192,42,71014,5,0,0:0:0:0:
391,357,71161,1,0,0:0:0:0:
373,137,71308,5,0,0:0:0:0:
137,262,71455,1,0,0:0:0:0:
440,277,71602,5,0,0:0:0:0:
68,134,71749,1,0,0:0:0:0:
437,108,71896,5,0,0:0:0:0:
81,303,72043,1,0,0:0:0:0:
443,297,72190,5,0,0:0:0:0:
66,113,72337,1,0,0:0:0:0:
446,79,72484,5,0,0:0:0:0:
59,327,72631,1,0,0:0:0:0:
174,58,72768,5,0,0:0:0:0:
288,338,72915,1,0,0:0:0:0:
289,55,73062,5,0,0:0:0:0:
176,335,73209,1,0,0:0:0:0:
155,32,73356,5,0,0:0:0:0:
306,355,73503,1,0,0:0:0:0:
306,23,73650,5,0,0:0:0:0:
155,348,73797,1,0,0:0:0:0:
440,107,73944,5,0,0:0:0:0:
71,273,74091,1,0,0:0:0:0:
430,267,74238,5,0,0:0:0:0:
72,102,74385,1,0,0:0:0:0:
408,121,74532,5,0,0:0:0:0:
99,262,74679,1,0,0:0:0:0:
392,251,74826,5,0,0:0:0:0:
104,117,74973,1,0,0:0:0:0:
206,340,75120,5,0,0:0:0:0:
281,56,75268,1,0,0:0:0:0:
308,340,75415,5,0,0:0:0:0:
191,57,75562,1,0,0:0:0:0:
137,325,75709,5,0,0:0:0:0:
180,131,75856,1,0,0:0:0:0:
327,268,76003,1,0,0:0:0:0:
368,73,76150,1,0,0:0:0:0:
475,312,76310,6,0,P|431:236|356:184,1,152
190,61,76898,2,0,P|252:59|324:2,1,152
186,194,77486,2,0,P|124:196|52:253,1,152
297,31,78074,6,0,B|335:107|279:166|279:166|308:191|308:191|262:256|330:343,1,341.999989562989
343,352,78662,1,0,0:0:0:0:
421,244,78810,1,0,0:0:0:0:
343,352,78957,1,0,0:0:0:0:
203,338,79104,2,0,P|164:319|98:307,1,95
44,232,79398,1,0,0:0:0:0:
121,161,79545,2,0,P|160:181|228:183,1,95
247,58,79839,5,0,0:0:0:0:
210,186,79986,1,0,0:0:0:0:
247,58,80133,1,0,0:0:0:0:
303,185,80280,2,0,P|314:209|325:293,1,95
448,272,80574,1,0,0:0:0:0:
462,147,80721,2,0,P|451:122|440:52,1,95
247,58,81015,6,0,P|207:65|138:56,1,95
83,137,81310,1,0,0:0:0:0:
154,225,81457,2,0,P|186:224|253:239,1,95
242,347,81751,1,0,0:0:0:0:
348,330,81898,2,0,P|373:280|416:238,1,95
361,112,82192,5,0,0:0:0:0:
399,251,82339,1,0,0:0:0:0:
361,112,82486,1,0,0:0:0:0:
239,159,82633,2,0,P|208:188|172:242,1,95
310,239,82927,1,0,0:0:0:0:
286,103,83074,2,0,P|267:64|218:12,1,95
80,70,83368,6,0,P|72:101|76:176,1,95
55,280,83662,1,0,0:0:0:0:
169,279,83810,2,0,P|182:237|182:176,1,95
231,95,84104,1,0,0:0:0:0:
350,150,84251,2,0,P|339:185|340:249,1,95
228,354,84545,5,0,0:0:0:0:
338,242,84692,1,0,0:0:0:0:
228,354,84839,1,0,0:0:0:0:
183,186,84986,2,0,P|151:155|92:124,1,95
217,34,85280,2,0,P|240:59|298:94,1,95
256,192,85721,12,0,86604,0:0:0:0:
