osu file format v14

[General]
AudioFilename: audio.mp3
AudioLeadIn: 0
PreviewTime: 48286
Countdown: 0
SampleSet: Normal
StackLeniency: 0.2
Mode: 0
LetterboxInBreaks: 0
WidescreenStoryboard: 1

[Editor]
DistanceSpacing: 0.8
BeatDivisor: 4
GridSize: 32
TimelineZoom: 7.5

[Metadata]
Title:Black Rover (TV Size)
TitleUnicode:Black Rover (TV Size)
Artist:Vickeblanka
ArtistUnicode:ビッケブランカ
Creator:_verto_
Version:3x3
Source:ブラッククローバー
Tags:black clover OP
BeatmapID:1821009
BeatmapSetID:871547

[Difficulty]
HPDrainRate:5
CircleSize:2
OverallDifficulty:9
ApproachRate:5
SliderMultiplier:1.5
SliderTickRate:1

[Events]
//Background and Video events
0,0,"dd2a9754b1dce02e80aa9d34544bbf7a-0.png",0,0
//Break Periods
//Storyboard Layer 0 (Background)
//Storyboard Layer 1 (Fail)
//Storyboard Layer 2 (Pass)
//Storyboard Layer 3 (Foreground)
//Storyboard Sound Samples

[TimingPoints]
1028,294.117647058824,4,1,0,40,1,0
4557,291.26213592233,4,1,0,40,1,0
6887,300,4,1,0,40,1,0
7337,277.777777777778,4,1,0,40,1,8
7475,294.117647058824,4,1,0,40,1,8
7622,260.869565217391,4,1,0,40,1,8
7920,294.117647058824,4,1,0,70,1,8
8067,294.117647058824,4,1,0,70,1,0
30861,-52.6315789473684,4,1,0,70,0,0
31228,-52.6315789473684,4,1,0,5,0,0
31302,-52.6315789473684,4,1,0,70,0,0
33949,-58.8235294117647,4,1,0,70,0,0
36302,-81.9672131147541,4,1,0,70,0,0
36817,-81.9672131147541,4,1,0,5,0,0
36890,-70.4225352112676,4,1,0,70,0,0
37331,-81.9672131147541,4,1,0,5,0,0
37405,-133.333333333333,4,1,0,70,0,0
37699,-100,4,1,0,5,0,0
37772,-58.8235294117647,4,1,0,70,0,0
38140,-58.8235294117647,4,1,0,5,0,0
38214,-66.6666666666667,4,1,0,70,0,0
38361,-58.8235294117647,4,1,0,5,0,0
38434,-58.8235294117647,4,1,0,70,0,0
38655,-71.4285714285714,4,1,0,70,0,0
39004,-71.4285714285714,4,1,0,5,0,0
39096,-29.4117647058824,4,1,0,70,0,0
39151,-81.9672131147541,4,1,0,5,0,0
39243,-44.1501103752759,4,1,0,70,0,0
39445,-44.1501103752759,4,1,0,5,0,0
39537,-29.4117647058824,4,1,0,70,0,0
39611,-29.4117647058824,4,1,0,5,0,0
39684,-71.4285714285714,4,1,0,70,0,0
40052,-71.4285714285714,4,1,0,5,0,0
40125,-29.4117647058824,4,1,0,70,0,0
40199,-29.4117647058824,4,1,0,5,0,0
40272,-44.0528634361233,4,1,0,70,0,0
40493,-44.0528634361233,4,1,0,5,0,0
40567,-29.4117647058824,4,1,0,70,0,0
40640,-29.4117647058824,4,1,0,5,0,0
41008,-116.279069767442,4,1,0,70,0,0
41504,-116.279069767442,4,1,0,5,0,0
41596,-116.279069767442,4,1,0,70,0,0
42092,-116.279069767442,4,1,0,5,0,0
42184,-116.279069767442,4,1,0,70,0,0
42680,-116.279069767442,4,1,0,5,0,0
42772,-116.279069767442,4,1,0,70,0,0
43048,-116.279069767442,4,1,0,5,0,0
43361,-116.279069767442,4,1,0,70,0,0
43857,-116.279069767442,4,1,0,5,0,0
43949,-116.279069767442,4,1,0,70,0,0
44445,-116.279069767442,4,1,0,5,0,0
44537,-116.279069767442,4,1,0,70,0,0
45033,-116.279069767442,4,1,0,5,0,0
45125,-116.279069767442,4,1,0,70,0,0
45401,-116.279069767442,4,1,0,5,0,0
45695,4000,4,1,0,5,1,0
45714,-500,4,1,0,50,0,0
47187,-500,4,1,0,5,0,0
47261,294.117647058824,4,1,0,70,1,0
47331,277.777777777778,4,1,0,70,1,8
47469,294.117647058824,4,1,0,70,1,8
47616,285.714285714286,4,1,0,70,1,8
47919,294.117647058824,4,1,0,80,1,9
48066,294.117647058824,4,1,0,80,1,1
52624,-71.4285714285714,4,1,0,80,0,1
52992,-71.4285714285714,4,1,0,5,0,1
53066,-71.4285714285714,4,1,0,80,0,1
56889,-54.054054054054,4,1,0,80,0,1
57330,-36.3636363636364,4,1,0,80,0,1
59904,-36.3636363636364,4,1,0,5,0,1
59977,-36.3636363636364,4,1,0,100,0,1
62257,-36.3636363636364,4,1,0,5,0,1
62330,-36.3636363636364,4,1,0,100,0,1
64389,-142.857142857143,4,1,0,100,0,1
64757,-142.857142857143,4,1,0,5,0,1
64830,-142.857142857143,4,1,0,100,0,1
68801,-111.111111111111,4,1,0,80,0,1
71154,-90.9090909090908,4,1,0,80,0,1
76301,-100,4,1,0,80,0,0
78066,-55.5555555555556,4,1,0,80,0,0

[HitObjects]
128,64,7337,5,0,0:0:0:0:
128,64,7406,1,0,0:0:0:0:
128,64,7475,1,0,0:0:0:0:
128,320,7622,1,0,0:0:0:0:
384,64,7752,1,0,0:0:0:0:
384,320,7920,5,0,0:0:0:0:
256,64,8214,1,0,0:0:0:0:
128,192,8361,1,0,0:0:0:0:
128,64,8508,1,0,0:0:0:0:
256,192,8655,1,0,0:0:0:0:
384,320,8949,1,0,0:0:0:0:
128,320,9243,5,0,0:0:0:0:
128,320,9390,1,0,0:0:0:0:
128,320,9537,1,0,0:0:0:0:
128,320,9684,1,0,0:0:0:0:
256,192,9831,1,0,0:0:0:0:
384,64,9978,1,0,0:0:0:0:
128,192,10272,5,0,0:0:0:0:
384,192,10567,1,0,0:0:0:0:
384,320,10714,1,0,0:0:0:0:
384,64,11008,1,0,0:0:0:0:
128,64,11302,1,0,0:0:0:0:
256,192,11596,5,0,0:0:0:0:
384,64,11743,1,0,0:0:0:0:
384,64,11890,1,0,0:0:0:0:
384,64,12037,1,0,0:0:0:0:
384,192,12184,1,0,0:0:0:0:
384,320,12331,1,0,0:0:0:0:
256,64,12625,5,0,0:0:0:0:
256,320,12919,1,0,0:0:0:0:
128,320,13067,1,0,0:0:0:0:
128,64,13361,1,0,0:0:0:0:
384,64,13655,1,0,0:0:0:0:
256,320,13949,5,0,0:0:0:0:
256,192,14096,1,0,0:0:0:0:
256,192,14243,1,0,0:0:0:0:
256,192,14390,1,0,0:0:0:0:
256,64,14537,1,0,0:0:0:0:
128,192,14684,1,0,0:0:0:0:
384,64,15125,5,0,0:0:0:0:
256,320,15370,5,0,0:0:0:0:
128,64,15567,5,0,0:0:0:0:
384,192,15714,5,0,0:0:0:0:
256,192,16302,1,0,0:0:0:0:
384,320,16890,1,0,0:0:0:0:
256,320,17478,1,0,0:0:0:0:
128,320,17772,5,0,0:0:0:0:
128,64,17919,1,0,0:0:0:0:
256,192,18361,1,0,0:0:0:0:
384,320,18655,1,0,0:0:0:0:
256,320,18802,1,0,0:0:0:0:
128,320,18949,1,0,0:0:0:0:
128,192,19243,5,0,0:0:0:0:
128,64,19537,1,0,0:0:0:0:
256,64,19684,1,0,0:0:0:0:
384,320,19831,1,0,0:0:0:0:
128,320,20125,1,0,0:0:0:0:
128,192,20272,1,0,0:0:0:0:
384,64,20714,5,0,0:0:0:0:
128,64,21008,1,0,0:0:0:0:
256,192,21155,1,0,0:0:0:0:
128,320,21302,1,0,0:0:0:0:
384,320,21596,1,0,0:0:0:0:
256,192,21743,1,0,0:0:0:0:
128,64,21890,1,0,0:0:0:0:
256,320,22037,5,0,0:0:0:0:
256,320,22111,1,0,0:0:0:0:
256,320,22184,1,0,0:0:0:0:
256,64,22478,1,0,0:0:0:0:
384,64,22625,1,0,0:0:0:0:
256,192,23067,5,0,0:0:0:0:
128,320,23361,1,0,0:0:0:0:
256,192,23508,1,0,0:0:0:0:
384,64,23655,1,0,0:0:0:0:
128,64,23949,1,0,0:0:0:0:
256,192,24096,1,0,0:0:0:0:
384,320,24243,1,0,0:0:0:0:
128,320,24390,5,0,0:0:0:0:
128,320,24464,1,0,0:0:0:0:
128,320,24537,1,0,0:0:0:0:
256,64,24831,1,0,0:0:0:0:
256,192,24978,1,0,0:0:0:0:
256,320,25272,1,0,0:0:0:0:
256,192,25419,1,0,0:0:0:0:
128,64,25714,5,0,0:0:0:0:
256,192,25861,1,0,0:0:0:0:
384,64,26008,1,0,0:0:0:0:
256,64,26302,1,0,0:0:0:0:
384,192,26449,1,0,0:0:0:0:
128,64,26596,1,0,0:0:0:0:
256,192,26743,1,0,0:0:0:0:
384,320,26890,1,0,0:0:0:0:
128,320,27184,5,0,0:0:0:0:
128,64,27478,1,0,0:0:0:0:
256,64,27625,1,0,0:0:0:0:
384,64,27772,1,0,0:0:0:0:
128,192,28067,5,0,0:0:0:0:
384,192,28361,1,0,0:0:0:0:
256,192,28508,1,0,0:0:0:0:
384,64,28655,1,0,0:0:0:0:
256,64,28802,1,0,0:0:0:0:
128,192,28949,1,0,0:0:0:0:
128,64,29096,1,0,0:0:0:0:
128,320,29243,1,0,0:0:0:0:
384,64,29537,1,0,0:0:0:0:
128,64,29832,5,0,0:0:0:0:
256,64,29979,1,0,0:0:0:0:
128,192,30126,1,0,0:0:0:0:
384,320,30419,1,0,0:0:0:0:
256,320,30567,1,0,0:0:0:0:
384,192,30714,1,0,0:0:0:0:
384,320,30861,2,0,L|96:32,1,356.249990487099
128,64,31302,1,0,0:0:0:0:
256,64,31449,1,0,0:0:0:0:
128,320,31596,1,0,0:0:0:0:
384,64,31890,1,0,0:0:0:0:
384,320,32184,5,0,0:0:0:0:
128,64,32478,1,0,0:0:0:0:
256,64,32772,1,0,0:0:0:0:
384,192,32919,1,0,0:0:0:0:
256,320,33067,1,0,0:0:0:0:
128,192,33214,1,0,0:0:0:0:
384,192,33508,1,0,0:0:0:0:
128,192,33655,1,0,0:0:0:0:
384,192,33949,6,0,P|128:192|128:192,1,284.999992389679
128,192,34537,1,0,0:0:0:0:
384,64,34831,1,0,0:0:0:0:
128,192,34978,1,0,0:0:0:0:
128,64,35272,1,0,0:0:0:0:
384,192,35419,1,0,0:0:0:0:
384,64,35714,5,0,0:0:0:0:
256,64,35861,1,0,0:0:0:0:
128,64,36008,1,0,0:0:0:0:
128,192,36155,1,0,0:0:0:0:
384,320,36302,6,0,B|224:320|224:320|128:192|128:192,1,320.249986806107
384,320,36890,2,0,B|224:320|224:320|128:192|128:192,1,320.249986806107
384,320,37405,2,0,L|256:320,1,112.5
384,320,37772,2,0,B|224:320|224:320|128:192|128:192,1,320.249986806107
384,320,38214,2,0,L|252:320,1,112.500004291535
384,320,38655,6,0,L|384:32,1,262.5
384,64,39096,2,0,P|256:64|256:64,1,157.499995193482
384,64,39243,2,0,B|224:64|224:64|128:64|128:64,1,255.000004863739
129,64,39537,2,0,L|128:192,1,127.50000243187
129,58,39684,2,0,L|129:346,1,262.5
129,64,40125,2,0,L|128:192,1,127.50000243187
128,320,40272,2,0,B|288:320|288:320|384:320|384:320,1,255.000004863739
128,320,40567,2,0,L|257:319,1,127.50000243187
384,192,41008,6,0,B|320:192|320:192|279:192|256:165|256:122|256:122|256:64,1,225.750003444672
256,67,41596,2,0,B|256:122|256:122|256:165|233:192|192:192|192:192|128:192,1,225.750003444672
128,192,42184,2,0,B|192:192|192:192|233:192|256:219|256:262|256:262|256:316,1,225.750003444672
256,320,42772,2,0,L|256:160,1,129.000001968384
256,191,43361,6,0,B|256:136|256:136|256:93|233:66|192:66|192:66|128:66,1,225.750003444672
256,191,43949,2,0,B|256:136|256:136|256:93|279:66|320:66|320:66|384:66,1,225.750003444672
256,193,44537,6,0,B|256:247|256:247|256:290|233:317|192:317|192:317|128:317,1,225.750003444672
256,191,45125,2,0,L|256:320,1,129.000001968384
255,183,45714,2,0,P|256:182|258:190,1,11.2499996566773
128,64,47331,5,0,0:0:0:0:
128,64,47400,1,0,0:0:0:0:
128,64,47469,1,0,0:0:0:0:
128,320,47616,1,0,0:0:0:0:
384,320,47758,1,0,0:0:0:0:
128,320,47919,1,0,0:0:0:0:
128,192,48360,5,0,0:0:0:0:
256,64,48507,1,0,0:0:0:0:
256,320,48654,1,0,0:0:0:0:
384,192,48801,1,0,0:0:0:0:
128,192,48948,1,0,0:0:0:0:
384,64,49242,5,0,0:0:0:0:
256,192,49389,1,0,0:0:0:0:
384,64,49536,1,0,0:0:0:0:
384,320,49830,1,0,0:0:0:0:
256,192,49977,1,0,0:0:0:0:
128,64,50124,1,0,0:0:0:0:
128,320,50271,1,0,0:0:0:0:
384,64,50566,5,0,0:0:0:0:
128,192,50713,1,0,0:0:0:0:
128,64,51007,1,0,0:0:0:0:
256,64,51154,1,0,0:0:0:0:
256,320,51301,1,0,0:0:0:0:
256,64,51595,5,0,0:0:0:0:
384,64,51742,1,0,0:0:0:0:
256,320,51889,1,0,0:0:0:0:
128,320,52036,1,0,0:0:0:0:
384,192,52183,1,0,0:0:0:0:
384,320,52330,1,0,0:0:0:0:
128,192,52477,1,0,0:0:0:0:
384,64,52624,2,0,L|96:64,1,262.5
128,64,53066,5,0,0:0:0:0:
256,192,53360,1,0,0:0:0:0:
384,320,53654,1,0,0:0:0:0:
128,320,53948,5,0,0:0:0:0:
128,192,54095,1,0,0:0:0:0:
384,192,54242,1,0,0:0:0:0:
256,64,54536,1,0,0:0:0:0:
384,64,54683,1,0,0:0:0:0:
384,320,54830,1,0,0:0:0:0:
256,192,54977,2,0,B|384:320|384:320|384:160,1,314.999990386963
256,192,55713,5,0,0:0:0:0:
256,192,55860,1,0,0:0:0:0:
256,64,56007,1,0,0:0:0:0:
128,320,56301,6,0,L|416:32,1,367.49998878479
128,64,56889,6,0,L|384:320,1,356.249990487099
256,64,57330,6,0,B|448:64|448:64|254:323,1,515.625004917383
128,320,57771,5,0,0:0:0:0:
128,192,58066,1,0,0:0:0:0:
128,64,58360,1,0,0:0:0:0:
256,64,58654,1,0,0:0:0:0:
384,192,58948,5,0,0:0:0:0:
256,320,59095,1,0,0:0:0:0:
128,64,59242,1,0,0:0:0:0:
384,64,59389,1,0,0:0:0:0:
128,192,59536,1,0,0:0:0:0:
128,320,59683,2,0,B|256:320|256:320|384:192,1,309.37500295043
384,64,59977,5,0,0:0:0:0:
128,64,60124,1,0,0:0:0:0:
128,320,60418,1,0,0:0:0:0:
256,192,60566,1,0,0:0:0:0:
384,320,60713,1,0,0:0:0:0:
128,192,61007,5,0,0:0:0:0:
128,64,61154,1,0,0:0:0:0:
128,192,61301,1,0,0:0:0:0:
256,320,61595,1,0,0:0:0:0:
384,320,61742,1,0,0:0:0:0:
256,320,61889,1,0,0:0:0:0:
384,64,62036,2,0,B|256:64|256:64|128:192,1,309.37500295043
128,320,62330,5,0,0:0:0:0:
384,320,62477,1,0,0:0:0:0:
128,64,62771,1,0,0:0:0:0:
384,192,63066,1,0,0:0:0:0:
128,320,63360,5,0,0:0:0:0:
384,320,63507,1,0,0:0:0:0:
128,192,63654,1,0,0:0:0:0:
384,192,63801,1,0,0:0:0:0:
128,64,63948,1,0,0:0:0:0:
128,320,64095,1,0,0:0:0:0:
256,192,64242,1,0,0:0:0:0:
384,64,64389,2,0,L|384:196,1,131.249995994568
384,195,64830,1,0,0:0:0:0:
384,320,65124,5,0,0:0:0:0:
256,192,65271,1,0,0:0:0:0:
128,64,65418,1,0,0:0:0:0:
128,320,65713,1,0,0:0:0:0:
128,320,65786,1,0,0:0:0:0:
128,320,65860,1,0,0:0:0:0:
128,192,66007,1,0,0:0:0:0:
256,320,66154,1,0,0:0:0:0:
384,192,66301,5,0,0:0:0:0:
384,192,66374,1,0,0:0:0:0:
384,192,66448,1,0,0:0:0:0:
384,64,66595,1,0,0:0:0:0:
256,64,66742,1,0,0:0:0:0:
256,192,66889,5,0,0:0:0:0:
256,64,67036,1,0,0:0:0:0:
256,192,67183,1,0,0:0:0:0:
128,64,67330,1,0,0:0:0:0:
256,192,67477,1,0,0:0:0:0:
128,192,67624,1,0,0:0:0:0:
256,192,67771,1,0,0:0:0:0:
128,320,67918,5,0,0:0:0:0:
256,192,68066,1,0,0:0:0:0:
256,320,68213,1,0,0:0:0:0:
256,192,68360,1,0,0:0:0:0:
384,320,68507,1,0,0:0:0:0:
256,192,68654,1,0,0:0:0:0:
384,192,68801,1,0,0:0:0:0:
256,192,68874,1,0,0:0:0:0:
128,192,68948,1,0,0:0:0:0:
128,64,69242,5,0,0:0:0:0:
384,192,69389,1,0,0:0:0:0:
128,320,69536,1,0,0:0:0:0:
384,320,69683,1,0,0:0:0:0:
128,192,69830,1,0,0:0:0:0:
384,64,69977,1,0,0:0:0:0:
128,64,70124,1,0,0:0:0:0:
384,192,70271,5,0,0:0:0:0:
128,320,70418,1,0,0:0:0:0:
256,64,70566,1,0,0:0:0:0:
384,320,70713,1,0,0:0:0:0:
384,64,70860,1,0,0:0:0:0:
256,320,71007,1,0,0:0:0:0:
128,64,71154,5,0,0:0:0:0:
256,192,71227,1,0,0:0:0:0:
384,320,71301,1,0,0:0:0:0:
256,64,71595,5,0,0:0:0:0:
384,64,71742,1,0,0:0:0:0:
256,320,71889,1,0,0:0:0:0:
128,320,72036,1,0,0:0:0:0:
256,64,72183,1,0,0:0:0:0:
384,192,72330,1,0,0:0:0:0:
256,320,72477,1,0,0:0:0:0:
128,192,72624,1,0,0:0:0:0:
384,64,72771,5,0,0:0:0:0:
384,192,72918,1,0,0:0:0:0:
128,320,73066,1,0,0:0:0:0:
128,192,73213,1,0,0:0:0:0:
384,192,73360,1,0,0:0:0:0:
256,192,73654,1,0,0:0:0:0:
128,64,73948,5,0,0:0:0:0:
128,320,74095,1,0,0:0:0:0:
384,320,74242,1,0,0:0:0:0:
384,64,74389,1,0,0:0:0:0:
128,192,74536,1,0,0:0:0:0:
256,320,74683,1,0,0:0:0:0:
384,192,74830,1,0,0:0:0:0:
128,192,75124,5,0,0:0:0:0:
384,64,75271,1,0,0:0:0:0:
128,320,75418,1,0,0:0:0:0:
384,192,75566,1,0,0:0:0:0:
128,64,75713,1,0,0:0:0:0:
256,320,75860,1,0,0:0:0:0:
256,192,76007,1,0,0:0:0:0:
128,320,76301,2,0,B|256:64|256:64|384:320,1,562.5
379,311,77477,2,0,L|128:192,1,262.5
142,198,78066,2,0,B|142:322|142:322|384:64,1,472.499985580445
128,64,79830,5,0,0:0:0:0:
128,320,79977,1,0,0:0:0:0:
384,64,80124,1,0,0:0:0:0:
384,320,80271,1,0,0:0:0:0:
128,192,80566,1,0,0:0:0:0:
384,192,80713,1,0,0:0:0:0:
128,320,82183,5,0,0:0:0:0:
384,320,82330,1,0,0:0:0:0:
128,64,82477,1,0,0:0:0:0:
384,64,82624,1,0,0:0:0:0:
256,320,82919,1,0,0:0:0:0:
256,64,83066,1,0,0:0:0:0:
128,320,84536,5,0,0:0:0:0:
128,64,84683,1,0,0:0:0:0:
384,320,84830,1,0,0:0:0:0:
384,64,84977,1,0,0:0:0:0:
128,192,85272,1,0,0:0:0:0:
384,192,85419,1,0,0:0:0:0:
256,192,85713,5,0,0:0:0:0:
