osu file format v14

[General]
AudioFilename: audio.mp3
AudioLeadIn: 0
PreviewTime: 48286
Countdown: 0
SampleSet: Normal
StackLeniency: 0.7
Mode: 1
LetterboxInBreaks: 0
WidescreenStoryboard: 1

[Editor]
DistanceSpacing: 1
BeatDivisor: 2
GridSize: 32
TimelineZoom: 0.3999997

[Metadata]
Title:Black Rover (TV Size)
TitleUnicode:Black Rover (TV Size)
Artist:Vickeblanka
ArtistUnicode:ビッケブランカ
Creator:Yales
Version:Kantan
Source:ブラッククローバー
Tags:clover opening op [r] ron
BeatmapID:1668281
BeatmapSetID:793763

[Difficulty]
HPDrainRate:7
CircleSize:2
OverallDifficulty:3
ApproachRate:7
SliderMultiplier:1.2
SliderTickRate:1

[Events]
//Background and Video events
0,0,"BG.jpg",0,0
//Break Periods
//Storyboard Layer 0 (Background)
//Storyboard Layer 1 (Fail)
//Storyboard Layer 2 (Pass)
//Storyboard Layer 3 (Foreground)
//Storyboard Sound Samples

[TimingPoints]
1028,294.117647058824,4,1,0,40,1,0
4557,291.26213592233,4,1,0,40,1,0
4557,-101.010101010101,4,1,0,40,0,0
6887,300,4,1,0,40,1,0
6887,-98.0392156862745,4,1,0,40,0,0
7337,277.777777777778,4,1,0,40,1,8
7337,-106.382978723404,4,1,0,40,0,8
7475,294.117647058824,4,1,0,40,1,8
7622,260.869565217391,4,1,0,40,1,8
7622,-112.359550561798,4,1,0,40,0,0
7920,294.117647058824,4,1,0,70,1,8
8067,294.117647058824,4,1,0,70,1,0
17772,-100,4,1,0,50,0,0
26890,-100,4,1,0,60,0,0
47331,277.777777777778,4,1,0,70,1,8
47331,-106.382978723404,4,1,0,70,0,8
47469,294.117647058824,4,1,0,70,1,8
47616,285.714285714286,4,1,0,70,1,8
47616,-103.092783505155,4,1,0,70,0,8
47919,294.117647058824,4,1,0,80,1,9
48066,294.117647058824,4,1,0,80,1,1
66889,-100,4,1,0,90,0,1
76301,-100,4,1,0,70,0,0
85639,-100,4,1,0,50,0,0

[HitObjects]
256,192,1028,5,0,0:0:0:0:
256,192,2204,1,0,0:0:0:0:
256,192,3380,1,8,0:0:0:0:
256,192,4557,1,8,0:0:0:0:
256,192,5722,1,0,0:0:0:0:
256,192,6887,1,8,0:0:0:0:
256,192,7920,1,4,0:0:0:0:
256,192,8655,1,0,0:0:0:0:
256,192,8949,1,8,0:0:0:0:
256,192,9831,1,8,0:0:0:0:
256,192,10272,1,0,0:0:0:0:
256,192,11008,1,0,0:0:0:0:
256,192,11743,1,0,0:0:0:0:
256,192,12625,1,8,0:0:0:0:
256,192,13361,1,0,0:0:0:0:
256,192,13655,1,8,0:0:0:0:
256,192,14537,1,8,0:0:0:0:
256,192,15125,1,8,0:0:0:0:
256,192,15419,1,8,0:0:0:0:
256,192,15714,1,0,0:0:0:0:
256,192,16302,1,8,0:0:0:0:
256,192,16890,1,8,0:0:0:0:
256,192,17478,1,4,0:0:0:0:
256,192,18361,1,0,0:0:0:0:
256,192,18949,1,0,0:0:0:0:
256,192,19537,1,0,0:0:0:0:
256,192,19831,1,8,0:0:0:0:
256,192,20714,1,0,0:0:0:0:
256,192,21302,1,8,0:0:0:0:
256,192,21890,1,0,0:0:0:0:
256,192,22184,1,8,0:0:0:0:
256,192,23067,1,0,0:0:0:0:
256,192,23655,1,0,0:0:0:0:
256,192,24243,1,0,0:0:0:0:
256,192,24537,1,8,0:0:0:0:
256,192,25125,1,0,0:0:0:0:
256,192,25714,1,0,0:0:0:0:
256,192,26008,1,8,0:0:0:0:
256,192,26302,1,0,0:0:0:0:
256,192,26890,1,12,0:0:0:0:
256,192,28067,1,8,0:0:0:0:
256,192,28655,1,0,0:0:0:0:
256,192,28949,1,0,0:0:0:0:
256,192,29243,1,8,0:0:0:0:
256,192,30419,1,0,0:0:0:0:
256,192,31008,1,8,0:0:0:0:
256,192,31302,1,8,0:0:0:0:
256,192,31596,1,0,0:0:0:0:
256,192,32772,1,8,0:0:0:0:
256,192,33361,1,0,0:0:0:0:
256,192,33655,1,0,0:0:0:0:
256,192,33949,1,8,0:0:0:0:
256,192,35125,1,0,0:0:0:0:
256,192,35714,1,8,0:0:0:0:
256,192,36008,1,0,0:0:0:0:
256,192,36302,1,12,0:0:0:0:
256,192,36890,1,0,0:0:0:0:
256,192,37772,1,0,0:0:0:0:
256,192,38655,1,8,0:0:0:0:
256,192,39243,1,0,0:0:0:0:
256,192,40125,1,0,0:0:0:0:
256,192,41008,1,8,0:0:0:0:
256,192,41596,1,8,0:0:0:0:
256,192,42184,1,8,0:0:0:0:
256,192,43361,1,0,0:0:0:0:
256,192,43949,1,0,0:0:0:0:
256,192,44537,1,0,0:0:0:0:
256,192,45714,1,12,0:0:0:0:
256,192,47469,1,0,0:0:0:0:
256,192,47919,1,12,0:0:0:0:
256,192,48360,1,0,0:0:0:0:
256,192,48654,1,8,0:0:0:0:
256,192,49242,1,0,0:0:0:0:
256,192,49536,1,0,0:0:0:0:
256,192,49830,1,8,0:0:0:0:
256,192,50271,1,8,0:0:0:0:
256,192,50713,1,0,0:0:0:0:
256,192,51007,1,8,0:0:0:0:
256,192,51595,1,8,0:0:0:0:
256,192,52183,1,8,0:0:0:0:
256,192,52624,1,0,0:0:0:0:
256,192,53066,1,0,0:0:0:0:
256,192,53360,1,8,0:0:0:0:
256,192,53948,1,8,0:0:0:0:
256,192,54242,1,8,0:0:0:0:
256,192,54536,1,0,0:0:0:0:
256,192,54977,1,8,0:0:0:0:
256,192,56007,1,8,0:0:0:0:
256,192,56301,1,4,0:0:0:0:
256,192,56889,1,4,0:0:0:0:
256,192,57330,1,12,0:0:0:0:
256,192,57771,1,0,0:0:0:0:
256,192,58066,1,8,0:0:0:0:
256,192,58654,1,0,0:0:0:0:
256,192,58948,1,0,0:0:0:0:
256,192,59242,1,8,0:0:0:0:
256,192,59683,1,8,0:0:0:0:
256,192,60124,1,0,0:0:0:0:
256,192,60418,1,8,0:0:0:0:
256,192,61007,1,8,0:0:0:0:
256,192,61595,1,8,0:0:0:0:
256,192,62036,1,0,0:0:0:0:
256,192,62477,1,0,0:0:0:0:
256,192,62771,1,8,0:0:0:0:
256,192,63360,1,8,0:0:0:0:
256,192,63654,1,8,0:0:0:0:
256,192,63948,1,0,0:0:0:0:
256,192,64389,1,8,0:0:0:0:
256,192,65418,1,8,0:0:0:0:
256,192,65713,1,4,0:0:0:0:
256,192,66301,1,4,0:0:0:0:
256,192,66889,1,12,0:0:0:0:
256,192,67477,1,0,0:0:0:0:
256,192,67771,1,0,0:0:0:0:
256,192,68066,1,8,0:0:0:0:
256,192,69242,1,0,0:0:0:0:
256,192,69830,1,0,0:0:0:0:
256,192,70124,1,0,0:0:0:0:
256,192,70418,1,8,0:0:0:0:
256,192,71595,1,12,0:0:0:0:
256,192,72183,1,8,0:0:0:0:
256,192,72477,1,0,0:0:0:0:
256,192,72771,1,8,0:0:0:0:
256,192,73360,1,0,0:0:0:0:
256,192,73948,1,8,0:0:0:0:
256,192,74536,1,8,0:0:0:0:
256,192,74830,1,0,0:0:0:0:
256,192,75124,1,8,0:0:0:0:
256,192,75713,1,0,0:0:0:0:
256,192,76301,1,12,0:0:0:0:
256,192,77477,1,4,0:0:0:0:
256,192,78654,1,12,0:0:0:0:
256,192,79830,1,4,0:0:0:0:
256,192,80124,1,4,0:0:0:0:
256,192,80713,1,4,0:0:0:0:
256,192,81007,1,8,0:0:0:0:
256,192,82183,1,4,0:0:0:0:
256,192,82477,1,4,0:0:0:0:
256,192,83066,1,4,0:0:0:0:
256,192,83360,1,8,0:0:0:0:
256,192,84536,1,4,0:0:0:0:
256,192,84830,1,4,0:0:0:0:
256,192,85418,1,4,0:0:0:0:
256,192,85713,1,8,0:0:0:0:
