osu file format v14

[General]
AudioFilename: audio.mp3
AudioLeadIn: 0
PreviewTime: 48286
Countdown: 0
SampleSet: Normal
StackLeniency: 0.7
Mode: 1
LetterboxInBreaks: 0
WidescreenStoryboard: 0

[Editor]
DistanceSpacing: 1
BeatDivisor: 4
GridSize: 32
TimelineZoom: 1.9

[Metadata]
Title:Black Rover (TV Size)
TitleUnicode:Black Rover (TV Size)
Artist:Vickeblanka
ArtistUnicode:ビッケブランカ
Creator:Yales
Version:Inner Oni
Source:ブラッククローバー
Tags:clover opening op [r] ron
BeatmapID:1666968
BeatmapSetID:793763

[Difficulty]
HPDrainRate:6
CircleSize:2
OverallDifficulty:6
ApproachRate:7
SliderMultiplier:1.4
SliderTickRate:1

[Events]
//Background and Video events
0,0,"BG.jpg",0,0
//Break Periods
//Storyboard Layer 0 (Background)
//Storyboard Layer 1 (Fail)
//Storyboard Layer 2 (Pass)
//Storyboard Layer 3 (Foreground)
//Storyboard Sound Samples

[TimingPoints]
1028,294.117647058824,4,1,0,40,1,0
1028,-133.333333333333,4,1,0,40,0,0
4557,291.26213592233,4,1,0,40,1,0
4557,-135.135135135135,4,1,0,40,0,0
6887,300,4,1,0,40,1,0
6887,-131.578947368421,4,1,0,40,0,0
7187,-112.359550561798,4,1,0,40,0,0
7337,277.777777777778,4,1,0,40,1,8
7337,-106.382978723404,4,1,0,40,0,8
7475,294.117647058824,4,1,0,40,1,8
7622,260.869565217391,4,1,0,40,1,8
7622,-112.359550561798,4,1,0,40,0,0
7920,294.117647058824,4,1,0,70,1,8
8067,294.117647058824,4,1,0,70,1,0
17772,-100,4,1,0,50,0,0
26890,-100,4,1,0,60,0,0
36449,-114.942528735632,4,1,0,60,0,0
41155,-117.647058823529,4,1,0,60,0,0
43361,-120.481927710843,4,1,0,60,0,0
43655,-123.456790123457,4,1,0,60,0,0
43949,-126.582278481013,4,1,0,60,0,0
44243,-129.87012987013,4,1,0,60,0,0
44390,-131.578947368421,4,1,0,60,0,0
44537,-133.333333333333,4,1,0,60,0,0
44831,-136.986301369863,4,1,0,60,0,0
45125,-140.845070422535,4,1,0,60,0,0
45419,-144.927536231884,4,1,0,60,0,0
45714,-140.845070422535,4,1,0,60,0,0
47331,277.777777777778,4,1,0,70,1,8
47331,-106.382978723404,4,1,0,70,0,8
47469,294.117647058824,4,1,0,70,1,8
47616,285.714285714286,4,1,0,70,1,8
47616,-103.092783505155,4,1,0,70,0,8
47919,294.117647058824,4,1,0,80,1,9
48066,294.117647058824,4,1,0,80,1,1
66889,-100,4,1,0,90,0,1
76301,-100,4,1,0,70,0,0
85639,-100,4,1,0,50,0,0

[HitObjects]
256,192,1028,5,0,0:0:0:0:
256,192,1322,1,0,0:0:0:0:
256,192,1616,1,8,0:0:0:0:
256,192,1910,1,8,0:0:0:0:
256,192,2204,1,0,0:0:0:0:
256,192,2498,1,0,0:0:0:0:
256,192,2792,1,8,0:0:0:0:
256,192,3086,1,8,0:0:0:0:
256,192,3380,1,0,0:0:0:0:
256,192,3675,1,0,0:0:0:0:
256,192,3969,1,8,0:0:0:0:
256,192,4263,1,8,0:0:0:0:
256,192,4410,1,8,0:0:0:0:
256,192,4557,1,0,0:0:0:0:
256,192,4848,1,0,0:0:0:0:
256,192,5139,1,8,0:0:0:0:
256,192,5430,1,8,0:0:0:0:
256,192,5722,1,0,0:0:0:0:
256,192,6013,1,0,0:0:0:0:
256,192,6304,1,8,0:0:0:0:
256,192,6595,1,8,0:0:0:0:
256,192,6741,1,0,0:0:0:0:
256,192,6887,1,8,0:0:0:0:
256,192,7187,1,8,0:0:0:0:
256,192,7337,1,0,0:0:0:0:
256,192,7406,1,0,0:0:0:0:
256,192,7475,1,8,0:0:0:0:
256,192,7622,1,0,0:0:0:0:
256,192,7752,1,8,0:0:0:0:
256,192,7920,1,4,0:0:0:0:
256,192,8214,1,0,0:0:0:0:
256,192,8361,1,8,0:0:0:0:
256,192,8508,1,0,0:0:0:0:
256,192,8581,1,0,0:0:0:0:
256,192,8655,1,8,0:0:0:0:
256,192,8802,1,0,0:0:0:0:
256,192,8949,1,8,0:0:0:0:
256,192,9243,1,0,0:0:0:0:
256,192,9390,1,8,0:0:0:0:
256,192,9537,1,8,0:0:0:0:
256,192,9684,1,8,0:0:0:0:
256,192,9831,1,0,0:0:0:0:
256,192,9905,1,0,0:0:0:0:
256,192,9978,1,8,0:0:0:0:
256,192,10125,1,0,0:0:0:0:
256,192,10272,1,8,0:0:0:0:
256,192,10419,1,8,0:0:0:0:
256,192,10567,1,8,0:0:0:0:
256,192,10714,1,0,0:0:0:0:
256,192,10861,1,8,0:0:0:0:
256,192,10934,1,8,0:0:0:0:
256,192,11008,1,0,0:0:0:0:
256,192,11155,1,8,0:0:0:0:
256,192,11302,1,0,0:0:0:0:
256,192,11596,1,0,0:0:0:0:
256,192,11743,1,8,0:0:0:0:
256,192,11890,1,0,0:0:0:0:
256,192,12037,1,0,0:0:0:0:
256,192,12184,1,8,0:0:0:0:
256,192,12331,1,0,0:0:0:0:
256,192,12405,1,0,0:0:0:0:
256,192,12478,1,0,0:0:0:0:
256,192,12625,1,12,0:0:0:0:
256,192,12919,1,0,0:0:0:0:
256,192,13067,1,8,0:0:0:0:
256,192,13214,1,0,0:0:0:0:
256,192,13287,1,0,0:0:0:0:
256,192,13361,1,8,0:0:0:0:
256,192,13508,1,8,0:0:0:0:
256,192,13655,1,0,0:0:0:0:
256,192,13949,1,0,0:0:0:0:
256,192,14096,1,8,0:0:0:0:
256,192,14243,1,8,0:0:0:0:
256,192,14390,1,8,0:0:0:0:
256,192,14537,1,0,0:0:0:0:
256,192,14684,1,0,0:0:0:0:
256,192,14758,1,0,0:0:0:0:
256,192,14831,1,0,0:0:0:0:
256,192,14978,1,0,0:0:0:0:
256,192,15125,1,8,0:0:0:0:
256,192,15346,1,8,0:0:0:0:
256,192,15567,1,8,0:0:0:0:
256,192,15714,1,0,0:0:0:0:
256,192,15861,1,0,0:0:0:0:
256,192,16008,1,8,0:0:0:0:
256,192,16155,1,0,0:0:0:0:
256,192,16302,1,8,0:0:0:0:
256,192,16375,1,0,0:0:0:0:
256,192,16449,1,0,0:0:0:0:
256,192,16522,1,0,0:0:0:0:
256,192,16596,1,8,0:0:0:0:
256,192,16669,1,8,0:0:0:0:
256,192,16743,1,0,0:0:0:0:
256,192,16817,1,0,0:0:0:0:
256,192,16890,1,8,0:0:0:0:
256,192,16964,1,8,0:0:0:0:
256,192,17037,1,0,0:0:0:0:
256,192,17111,1,0,0:0:0:0:
256,192,17184,1,0,0:0:0:0:
256,192,17258,1,0,0:0:0:0:
256,192,17331,1,8,0:0:0:0:
256,192,17405,1,0,0:0:0:0:
256,192,17478,1,8,0:0:0:0:
256,192,17772,1,8,0:0:0:0:
256,192,17919,1,0,0:0:0:0:
256,192,18214,1,0,0:0:0:0:
256,192,18361,1,8,0:0:0:0:
256,192,18655,1,0,0:0:0:0:
256,192,18802,1,0,0:0:0:0:
256,192,18949,1,8,0:0:0:0:
256,192,19243,1,8,0:0:0:0:
256,192,19390,1,0,0:0:0:0:
256,192,19537,1,8,0:0:0:0:
256,192,19684,1,0,0:0:0:0:
256,192,19758,1,0,0:0:0:0:
256,192,19831,1,8,0:0:0:0:
256,192,20125,1,8,0:0:0:0:
256,192,20272,1,0,0:0:0:0:
256,192,20567,1,0,0:0:0:0:
256,192,20714,1,8,0:0:0:0:
256,192,21008,1,0,0:0:0:0:
256,192,21155,1,0,0:0:0:0:
256,192,21302,1,8,0:0:0:0:
256,192,21596,1,8,0:0:0:0:
256,192,21743,1,0,0:0:0:0:
256,192,21890,1,8,0:0:0:0:
256,192,22037,1,0,0:0:0:0:
256,192,22111,1,0,0:0:0:0:
256,192,22184,1,8,0:0:0:0:
256,192,22478,1,8,0:0:0:0:
256,192,22625,1,0,0:0:0:0:
256,192,22919,1,0,0:0:0:0:
256,192,23067,1,8,0:0:0:0:
256,192,23361,1,0,0:0:0:0:
256,192,23508,1,0,0:0:0:0:
256,192,23655,1,8,0:0:0:0:
256,192,23949,1,8,0:0:0:0:
256,192,24096,1,0,0:0:0:0:
256,192,24243,1,8,0:0:0:0:
256,192,24390,1,0,0:0:0:0:
256,192,24464,1,0,0:0:0:0:
256,192,24537,1,8,0:0:0:0:
256,192,24831,1,8,0:0:0:0:
256,192,24978,1,8,0:0:0:0:
256,192,25125,1,0,0:0:0:0:
256,192,25272,1,0,0:0:0:0:
256,192,25419,1,8,0:0:0:0:
256,192,25493,1,8,0:0:0:0:
256,192,25567,1,0,0:0:0:0:
256,192,25714,1,8,0:0:0:0:
256,192,25787,1,8,0:0:0:0:
256,192,25861,1,0,0:0:0:0:
256,192,26008,1,8,0:0:0:0:
256,192,26155,1,0,0:0:0:0:
256,192,26302,1,8,0:0:0:0:
256,192,26449,1,8,0:0:0:0:
256,192,26596,1,8,0:0:0:0:
256,192,26743,1,8,0:0:0:0:
256,192,26890,1,4,0:0:0:0:
256,192,27037,1,0,0:0:0:0:
256,192,27184,1,8,0:0:0:0:
256,192,27478,1,8,0:0:0:0:
256,192,27625,1,0,0:0:0:0:
256,192,27772,1,8,0:0:0:0:
256,192,27919,1,0,0:0:0:0:
256,192,28067,1,8,0:0:0:0:
256,192,28214,1,0,0:0:0:0:
256,192,28287,1,0,0:0:0:0:
256,192,28361,1,8,0:0:0:0:
256,192,28508,1,0,0:0:0:0:
256,192,28655,1,8,0:0:0:0:
256,192,28728,1,8,0:0:0:0:
256,192,28802,1,0,0:0:0:0:
256,192,28875,1,0,0:0:0:0:
256,192,28949,1,8,0:0:0:0:
256,192,29096,1,0,0:0:0:0:
256,192,29243,1,12,0:0:0:0:
256,192,29390,1,0,0:0:0:0:
256,192,29537,1,8,0:0:0:0:
256,192,29831,1,8,0:0:0:0:
256,192,29978,1,0,0:0:0:0:
256,192,30125,1,8,0:0:0:0:
256,192,30272,1,0,0:0:0:0:
256,192,30419,1,8,0:0:0:0:
256,192,30567,1,0,0:0:0:0:
256,192,30640,1,8,0:0:0:0:
256,192,30714,1,8,0:0:0:0:
256,192,30861,1,0,0:0:0:0:
256,192,31008,1,8,0:0:0:0:
256,192,31081,1,0,0:0:0:0:
256,192,31155,1,0,0:0:0:0:
256,192,31228,1,0,0:0:0:0:
256,192,31302,1,8,0:0:0:0:
256,192,31449,1,8,0:0:0:0:
256,192,31596,1,4,0:0:0:0:
256,192,31743,1,0,0:0:0:0:
256,192,31890,1,8,0:0:0:0:
256,192,32184,1,8,0:0:0:0:
256,192,32331,1,0,0:0:0:0:
256,192,32478,1,8,0:0:0:0:
256,192,32625,1,0,0:0:0:0:
256,192,32772,1,8,0:0:0:0:
256,192,32919,1,0,0:0:0:0:
256,192,32993,1,8,0:0:0:0:
256,192,33067,1,0,0:0:0:0:
256,192,33214,1,8,0:0:0:0:
256,192,33361,1,0,0:0:0:0:
256,192,33508,1,0,0:0:0:0:
256,192,33581,1,0,0:0:0:0:
256,192,33655,1,8,0:0:0:0:
256,192,33802,1,0,0:0:0:0:
256,192,33949,1,12,0:0:0:0:
256,192,34169,1,0,0:0:0:0:
256,192,34390,1,0,0:0:0:0:
256,192,34537,1,8,0:0:0:0:
256,192,34758,1,0,0:0:0:0:
256,192,34978,1,0,0:0:0:0:
256,192,35125,1,8,0:0:0:0:
256,192,35272,1,0,0:0:0:0:
256,192,35419,1,8,0:0:0:0:
256,192,35714,1,8,0:0:0:0:
256,192,35861,1,0,0:0:0:0:
256,192,35934,1,0,0:0:0:0:
256,192,36008,1,8,0:0:0:0:
256,192,36155,1,0,0:0:0:0:
256,192,36302,1,12,0:0:0:0:
256,192,36596,1,0,0:0:0:0:
256,192,36890,1,0,0:0:0:0:
256,192,37184,1,0,0:0:0:0:
256,192,37331,1,0,0:0:0:0:
256,192,37405,1,8,0:0:0:0:
256,192,37478,1,0,0:0:0:0:
256,192,37772,1,0,0:0:0:0:
256,192,38067,1,0,0:0:0:0:
256,192,38214,1,8,0:0:0:0:
256,192,38361,1,0,0:0:0:0:
256,192,38655,1,8,0:0:0:0:
256,192,38949,1,0,0:0:0:0:
256,192,39096,1,8,0:0:0:0:
256,192,39243,1,8,0:0:0:0:
256,192,39537,1,0,0:0:0:0:
256,192,39684,1,8,0:0:0:0:
256,192,39758,1,0,0:0:0:0:
256,192,39831,1,8,0:0:0:0:
256,192,40125,1,8,0:0:0:0:
256,192,40419,1,0,0:0:0:0:
256,192,40567,1,8,0:0:0:0:
256,192,40714,1,0,0:0:0:0:
256,192,40861,1,0,0:0:0:0:
256,192,41008,1,8,0:0:0:0:
256,192,41302,1,0,0:0:0:0:
256,192,41596,1,8,0:0:0:0:
256,192,41890,1,0,0:0:0:0:
256,192,42037,1,0,0:0:0:0:
256,192,42111,1,0,0:0:0:0:
256,192,42184,1,8,0:0:0:0:
256,192,42478,1,0,0:0:0:0:
256,192,42772,1,8,0:0:0:0:
256,192,43067,1,0,0:0:0:0:
256,192,43361,1,8,0:0:0:0:
256,192,43655,1,0,0:0:0:0:
256,192,43949,1,8,0:0:0:0:
256,192,44243,1,0,0:0:0:0:
256,192,44390,1,8,0:0:0:0:
256,192,44464,1,8,0:0:0:0:
256,192,44537,1,0,0:0:0:0:
256,192,44831,1,0,0:0:0:0:
256,192,45125,1,8,0:0:0:0:
256,192,45419,1,0,0:0:0:0:
256,192,45714,1,12,0:0:0:0:
256,192,47331,5,0,0:0:0:0:
256,192,47400,1,0,0:0:0:0:
256,192,47469,1,8,0:0:0:0:
256,192,47616,1,0,0:0:0:0:
256,192,47758,1,0,0:0:0:0:
256,192,47919,5,12,0:0:0:0:
256,192,48213,5,0,0:0:0:0:
256,192,48360,1,8,0:0:0:0:
256,192,48507,1,0,0:0:0:0:
256,192,48580,1,0,0:0:0:0:
256,192,48654,1,8,0:0:0:0:
256,192,48801,1,0,0:0:0:0:
256,192,48948,1,8,0:0:0:0:
256,192,49095,1,0,0:0:0:0:
256,192,49168,1,8,0:0:0:0:
256,192,49242,1,0,0:0:0:0:
256,192,49389,1,0,0:0:0:0:
256,192,49536,1,8,0:0:0:0:
256,192,49610,1,8,0:0:0:0:
256,192,49683,1,0,0:0:0:0:
256,192,49757,1,0,0:0:0:0:
256,192,49830,1,8,0:0:0:0:
256,192,49977,1,0,0:0:0:0:
256,192,50124,1,8,0:0:0:0:
256,192,50198,1,0,0:0:0:0:
256,192,50271,1,8,0:0:0:0:
256,192,50345,1,8,0:0:0:0:
256,192,50418,1,0,0:0:0:0:
256,192,50566,5,8,0:0:0:0:
256,192,50713,1,0,0:0:0:0:
256,192,50860,1,8,0:0:0:0:
256,192,51007,1,0,0:0:0:0:
256,192,51080,1,0,0:0:0:0:
256,192,51154,1,0,0:0:0:0:
256,192,51301,1,8,0:0:0:0:
256,192,51374,1,8,0:0:0:0:
256,192,51448,1,0,0:0:0:0:
256,192,51521,1,0,0:0:0:0:
256,192,51595,1,8,0:0:0:0:
256,192,51742,1,0,0:0:0:0:
256,192,51889,1,8,0:0:0:0:
256,192,51963,1,0,0:0:0:0:
256,192,52110,1,0,0:0:0:0:
256,192,52183,1,8,0:0:0:0:
256,192,52330,1,0,0:0:0:0:
256,192,52477,1,8,0:0:0:0:
256,192,52551,1,0,0:0:0:0:
256,192,52624,1,8,0:0:0:0:
256,192,52918,1,0,0:0:0:0:
256,192,53066,1,8,0:0:0:0:
256,192,53213,1,0,0:0:0:0:
256,192,53286,1,0,0:0:0:0:
256,192,53360,1,8,0:0:0:0:
256,192,53507,1,0,0:0:0:0:
256,192,53654,1,8,0:0:0:0:
256,192,53801,1,0,0:0:0:0:
256,192,53874,1,8,0:0:0:0:
256,192,53948,1,0,0:0:0:0:
256,192,54095,1,0,0:0:0:0:
256,192,54242,1,8,0:0:0:0:
256,192,54316,1,8,0:0:0:0:
256,192,54389,1,0,0:0:0:0:
256,192,54463,1,0,0:0:0:0:
256,192,54536,1,8,0:0:0:0:
256,192,54683,1,0,0:0:0:0:
256,192,54830,1,8,0:0:0:0:
256,192,54904,1,0,0:0:0:0:
256,192,54977,1,0,0:0:0:0:
256,192,55051,1,8,0:0:0:0:
256,192,55124,1,0,0:0:0:0:
256,192,55271,1,8,0:0:0:0:
256,192,55418,1,0,0:0:0:0:
256,192,55566,1,0,0:0:0:0:
256,192,55713,1,8,0:0:0:0:
256,192,55786,1,8,0:0:0:0:
256,192,55860,1,0,0:0:0:0:
256,192,55933,1,0,0:0:0:0:
256,192,56007,1,0,0:0:0:0:
256,192,56154,1,0,0:0:0:0:
256,192,56301,1,12,0:0:0:0:
256,192,56595,1,0,0:0:0:0:
256,192,56742,1,8,0:0:0:0:
256,192,56816,1,0,0:0:0:0:
256,192,56889,1,8,0:0:0:0:
256,192,56963,1,8,0:0:0:0:
256,192,57036,1,0,0:0:0:0:
256,192,57110,1,0,0:0:0:0:
256,192,57183,1,0,0:0:0:0:
256,192,57330,1,12,0:0:0:0:
256,192,57624,1,0,0:0:0:0:
256,192,57771,1,8,0:0:0:0:
256,192,57918,1,0,0:0:0:0:
256,192,57992,1,0,0:0:0:0:
256,192,58066,1,8,0:0:0:0:
256,192,58213,1,0,0:0:0:0:
256,192,58360,1,8,0:0:0:0:
256,192,58507,1,0,0:0:0:0:
256,192,58580,1,8,0:0:0:0:
256,192,58654,1,0,0:0:0:0:
256,192,58801,1,0,0:0:0:0:
256,192,58948,1,8,0:0:0:0:
256,192,59021,1,8,0:0:0:0:
256,192,59095,1,0,0:0:0:0:
256,192,59168,1,0,0:0:0:0:
256,192,59242,1,8,0:0:0:0:
256,192,59389,1,0,0:0:0:0:
256,192,59536,1,8,0:0:0:0:
256,192,59610,1,0,0:0:0:0:
256,192,59683,1,8,0:0:0:0:
256,192,59757,1,8,0:0:0:0:
256,192,59830,1,0,0:0:0:0:
256,192,59977,5,8,0:0:0:0:
256,192,60124,1,0,0:0:0:0:
256,192,60271,1,8,0:0:0:0:
256,192,60418,1,0,0:0:0:0:
256,192,60492,1,0,0:0:0:0:
256,192,60566,1,0,0:0:0:0:
256,192,60713,1,8,0:0:0:0:
256,192,60786,1,8,0:0:0:0:
256,192,60860,1,0,0:0:0:0:
256,192,60933,1,0,0:0:0:0:
256,192,61007,1,8,0:0:0:0:
256,192,61154,1,0,0:0:0:0:
256,192,61301,1,8,0:0:0:0:
256,192,61374,1,0,0:0:0:0:
256,192,61521,1,0,0:0:0:0:
256,192,61595,1,8,0:0:0:0:
256,192,61742,1,0,0:0:0:0:
256,192,61889,1,8,0:0:0:0:
256,192,61963,1,0,0:0:0:0:
256,192,62036,1,8,0:0:0:0:
256,192,62330,1,0,0:0:0:0:
256,192,62477,1,8,0:0:0:0:
256,192,62624,1,0,0:0:0:0:
256,192,62698,1,0,0:0:0:0:
256,192,62771,1,8,0:0:0:0:
256,192,62918,1,0,0:0:0:0:
256,192,63066,1,8,0:0:0:0:
256,192,63213,1,0,0:0:0:0:
256,192,63286,1,8,0:0:0:0:
256,192,63360,1,0,0:0:0:0:
256,192,63507,1,0,0:0:0:0:
256,192,63654,1,8,0:0:0:0:
256,192,63727,1,8,0:0:0:0:
256,192,63801,1,0,0:0:0:0:
256,192,63874,1,0,0:0:0:0:
256,192,63948,1,8,0:0:0:0:
256,192,64095,1,0,0:0:0:0:
256,192,64242,1,8,0:0:0:0:
256,192,64316,1,0,0:0:0:0:
256,192,64389,1,0,0:0:0:0:
256,192,64463,1,8,0:0:0:0:
256,192,64536,1,0,0:0:0:0:
256,192,64683,1,8,0:0:0:0:
256,192,64830,1,0,0:0:0:0:
256,192,64977,1,0,0:0:0:0:
256,192,65124,1,8,0:0:0:0:
256,192,65198,1,8,0:0:0:0:
256,192,65271,1,0,0:0:0:0:
256,192,65345,1,0,0:0:0:0:
256,192,65418,1,0,0:0:0:0:
256,192,65566,1,0,0:0:0:0:
256,192,65713,1,12,0:0:0:0:
256,192,66007,1,0,0:0:0:0:
256,192,66154,1,8,0:0:0:0:
256,192,66227,1,0,0:0:0:0:
256,192,66301,1,8,0:0:0:0:
256,192,66374,1,8,0:0:0:0:
256,192,66448,1,0,0:0:0:0:
256,192,66521,1,0,0:0:0:0:
256,192,66595,1,0,0:0:0:0:
256,192,66742,1,12,0:0:0:0:
256,192,66889,1,4,0:0:0:0:
256,192,67183,1,8,0:0:0:0:
256,192,67330,1,0,0:0:0:0:
256,192,67477,1,8,0:0:0:0:
256,192,67551,1,8,0:0:0:0:
256,192,67624,1,0,0:0:0:0:
256,192,67771,1,8,0:0:0:0:
256,192,67918,1,0,0:0:0:0:
256,192,67992,1,0,0:0:0:0:
256,192,68066,1,8,0:0:0:0:
256,192,68139,1,0,0:0:0:0:
256,192,68213,1,0,0:0:0:0:
256,192,68360,1,8,0:0:0:0:
256,192,68507,1,0,0:0:0:0:
256,192,68654,1,8,0:0:0:0:
256,192,68727,1,0,0:0:0:0:
256,192,68801,1,8,0:0:0:0:
256,192,68948,1,8,0:0:0:0:
256,192,69095,1,0,0:0:0:0:
256,192,69242,1,12,0:0:0:0:
256,192,69389,1,0,0:0:0:0:
256,192,69463,1,0,0:0:0:0:
256,192,69536,1,8,0:0:0:0:
256,192,69683,1,0,0:0:0:0:
256,192,69830,1,8,0:0:0:0:
256,192,69904,1,8,0:0:0:0:
256,192,69977,1,0,0:0:0:0:
256,192,70124,1,8,0:0:0:0:
256,192,70271,1,0,0:0:0:0:
256,192,70345,1,0,0:0:0:0:
256,192,70418,1,8,0:0:0:0:
256,192,70492,1,0,0:0:0:0:
256,192,70566,1,0,0:0:0:0:
256,192,70713,1,8,0:0:0:0:
256,192,70860,1,0,0:0:0:0:
256,192,71007,1,8,0:0:0:0:
256,192,71080,1,0,0:0:0:0:
256,192,71154,1,8,0:0:0:0:
256,192,71301,1,8,0:0:0:0:
256,192,71448,1,0,0:0:0:0:
256,192,71595,1,12,0:0:0:0:
256,192,71742,1,0,0:0:0:0:
256,192,71816,1,0,0:0:0:0:
256,192,71889,1,8,0:0:0:0:
256,192,72036,1,0,0:0:0:0:
256,192,72183,1,8,0:0:0:0:
256,192,72257,1,8,0:0:0:0:
256,192,72330,1,0,0:0:0:0:
256,192,72477,1,8,0:0:0:0:
256,192,72624,1,0,0:0:0:0:
256,192,72771,1,8,0:0:0:0:
256,192,72845,1,8,0:0:0:0:
256,192,72918,1,8,0:0:0:0:
256,192,72992,1,8,0:0:0:0:
256,192,73066,1,0,0:0:0:0:
256,192,73139,1,0,0:0:0:0:
256,192,73213,1,8,0:0:0:0:
256,192,73286,1,0,0:0:0:0:
256,192,73360,1,8,0:0:0:0:
256,192,73507,1,0,0:0:0:0:
256,192,73654,1,8,0:0:0:0:
256,192,73801,1,0,0:0:0:0:
256,192,73948,1,12,0:0:0:0:
256,192,74095,1,0,0:0:0:0:
256,192,74168,1,0,0:0:0:0:
256,192,74242,1,8,0:0:0:0:
256,192,74389,1,0,0:0:0:0:
256,192,74536,1,8,0:0:0:0:
256,192,74610,1,8,0:0:0:0:
256,192,74683,1,0,0:0:0:0:
256,192,74830,1,8,0:0:0:0:
256,192,74977,1,0,0:0:0:0:
256,192,75124,1,8,0:0:0:0:
256,192,75198,1,8,0:0:0:0:
256,192,75271,1,8,0:0:0:0:
256,192,75345,1,8,0:0:0:0:
256,192,75418,1,0,0:0:0:0:
256,192,75492,1,0,0:0:0:0:
256,192,75566,1,8,0:0:0:0:
256,192,75639,1,0,0:0:0:0:
256,192,75713,1,8,0:0:0:0:
256,192,75860,1,0,0:0:0:0:
256,192,76007,1,8,0:0:0:0:
256,192,76154,1,4,0:0:0:0:
256,192,76301,1,12,0:0:0:0:
256,192,77477,1,4,0:0:0:0:
256,192,78066,1,0,0:0:0:0:
256,192,78213,1,8,0:0:0:0:
256,192,78262,1,8,0:0:0:0:
256,192,78311,1,8,0:0:0:0:
256,192,78360,1,0,0:0:0:0:
256,192,78654,1,4,0:0:0:0:
256,192,78948,1,0,0:0:0:0:
256,192,79095,1,8,0:0:0:0:
256,192,79242,1,0,0:0:0:0:
256,192,79389,1,8,0:0:0:0:
256,192,79536,1,0,0:0:0:0:
256,192,79830,1,4,0:0:0:0:
256,192,79977,1,4,0:0:0:0:
256,192,80124,1,4,0:0:0:0:
256,192,80271,1,4,0:0:0:0:
256,192,80418,1,8,0:0:0:0:
256,192,80566,1,4,0:0:0:0:
256,192,80713,1,4,0:0:0:0:
256,192,81007,1,8,0:0:0:0:
256,192,81301,1,8,0:0:0:0:
256,192,81448,1,0,0:0:0:0:
256,192,81595,1,8,0:0:0:0:
256,192,81742,1,0,0:0:0:0:
256,192,81889,1,8,0:0:0:0:
256,192,82183,1,4,0:0:0:0:
256,192,82330,1,4,0:0:0:0:
256,192,82477,1,4,0:0:0:0:
256,192,82624,1,4,0:0:0:0:
256,192,82771,1,8,0:0:0:0:
256,192,82918,1,4,0:0:0:0:
256,192,83066,1,4,0:0:0:0:
256,192,83360,1,8,0:0:0:0:
256,192,83654,1,0,0:0:0:0:
256,192,83801,1,8,0:0:0:0:
256,192,83948,1,0,0:0:0:0:
256,192,84095,1,8,0:0:0:0:
256,192,84242,1,0,0:0:0:0:
256,192,84536,1,4,0:0:0:0:
256,192,84683,1,4,0:0:0:0:
256,192,84830,1,4,0:0:0:0:
256,192,84977,1,4,0:0:0:0:
256,192,85124,1,8,0:0:0:0:
256,192,85271,1,4,0:0:0:0:
256,192,85418,1,4,0:0:0:0:
256,192,85713,1,8,0:0:0:0:
