osu file format v14

[General]
AudioFilename: audio.mp3
AudioLeadIn: 0
PreviewTime: 48294
Countdown: 0
SampleSet: Soft
StackLeniency: 0.7
Mode: 0
LetterboxInBreaks: 0
WidescreenStoryboard: 0

[Editor]
DistanceSpacing: 1.6
BeatDivisor: 4
GridSize: 32
TimelineZoom: 2.5

[Metadata]
Title:Black Rover (TV Size)
TitleUnicode:Black Rover (TV Size)
Artist:Vickeblanka
ArtistUnicode:ビッケブランカ
Creator:Sotarks
Version:Shunao's Hard
Source:ブラッククローバー
Tags:clover opening op akitoshi corinn -laura- doormat lami intoon mir nevo snownino_ shunao shogunmoon naotoshi nao_tomori
BeatmapID:1645700
BeatmapSetID:781509

[Difficulty]
HPDrainRate:5
CircleSize:3.7
OverallDifficulty:6
ApproachRate:8
SliderMultiplier:1.3
SliderTickRate:1

[Events]
//Background and Video events
Video,0,"video.avi"
0,0,"BG.jpg",0,0
//Break Periods
2,45920,46725
//Storyboard Layer 0 (Background)
//Storyboard Layer 1 (Fail)
//Storyboard Layer 2 (Pass)
//Storyboard Layer 3 (Foreground)
//Storyboard Sound Samples

[TimingPoints]
1022,294.117647058824,4,2,22,42,1,0
7333,-100,4,2,22,52,0,0
7344,255.31914893617,4,2,22,62,1,0
7471,335.195530726257,4,2,22,62,1,0
7638,250,4,2,22,62,1,0
7763,294.117647058824,4,2,22,62,1,0
7901,-100,4,2,22,72,0,0
7918,329.67032967033,4,2,22,72,1,0
8082,329.67032967033,4,2,22,72,1,0
8247,294.117647058824,4,2,22,72,1,0
8368,294.117647058824,4,2,22,72,1,0
9250,294.117647058824,4,2,22,72,1,0
17459,-125,4,2,22,52,0,0
26004,294.117647058824,4,2,22,52,1,0
26004,-125,4,2,22,52,0,0
26871,-100,4,2,22,62,0,0
26897,294.117647058824,4,2,22,62,1,0
36283,-142.857142857143,4,2,22,52,0,0
45695,-142.857142857143,4,2,22,42,0,0
47328,294.117647058824,4,2,22,72,1,0
47475,346.820809248555,4,2,22,72,1,0
47648,250,4,2,22,72,1,0
47773,306.122448979592,4,2,22,72,1,0
47926,294.117647058824,4,2,22,82,1,0
47926,-86.9565217391304,4,2,22,82,0,1
48073,294.117647058824,4,2,22,82,1,1
48073,-86.9565217391304,4,2,22,82,0,1
57190,-86.9565217391304,4,2,22,82,0,0
57337,-86.9565217391304,4,2,22,82,0,1
66602,-86.9565217391304,4,2,22,82,0,0
66896,-86.9565217391304,4,2,22,92,0,1
72768,294.117647058824,4,2,22,92,1,1
72768,-86.9565217391304,4,2,22,92,0,1
76297,294.117647058824,4,2,22,92,1,9
76310,294.117647058824,4,2,22,92,1,1
76310,-125,4,2,22,72,0,0
76341,-125,4,2,22,62,0,0
78620,-111.111111111111,4,2,22,62,0,0
85679,-111.111111111111,4,2,22,52,0,0
86415,-111.111111111111,4,2,22,5,0,0

[Colours]
Combo1 : 224,214,214
Combo2 : 255,17,17
Combo3 : 135,255,47
Combo4 : 36,244,255

[HitObjects]
330,71,7344,5,0,1:0:0:0:
394,133,7471,2,0,L|389:228,1,65,8|0,0:0|1:0,0:0:0:0:
426,274,7763,1,8,0:0:0:0:
363,356,7918,6,0,P|301:341|214:348,1,130,6|2,1:0|0:0,0:0:0:0:
146,364,8368,2,0,P|141:327|133:290,1,65,12|0,0:0|0:0,0:0:0:0:
55,257,8662,2,0,P|60:220|68:183,1,65,2|0,1:0|1:0,0:0:0:0:
125,124,8956,1,10,0:0:0:0:
286,39,9250,5,0,1:0:0:0:
286,39,9397,2,0,P|319:46|357:37,1,65,2|10,1:0|0:0,0:0:0:0:
415,103,9691,2,0,P|446:99|481:105,2,65,2|2|2,0:0|1:0|1:0,0:0:0:0:
333,144,10132,1,10,0:0:0:0:
333,144,10279,6,0,B|317:181|317:181|334:276,1,130,6|2,1:0|0:0,0:0:0:0:
377,349,10720,1,8,0:0:0:0:
377,349,10867,2,0,P|417:341|460:343,2,65,0|2|0,0:0|1:0|1:0,0:0:0:0:
287,365,11308,1,10,0:0:0:0:
144,251,11602,5,0,1:0:0:0:
144,251,11750,2,0,L|225:243,1,65,2|8,1:0|0:0,0:0:0:0:
268,175,12044,2,0,L|347:183,2,65,0|2|2,0:0|1:0|1:0,0:0:0:0:
220,97,12485,1,10,0:0:0:0:
220,97,12632,6,0,P|176:51|101:58,1,130,6|2,1:0|0:0,0:0:0:0:
29,89,13073,1,10,0:0:0:0:
29,89,13220,2,0,P|34:126|34:180,1,65,0|2,0:0|1:0,0:0:0:0:
126,151,13514,1,0,1:0:0:0:
126,151,13661,6,0,P|119:216|114:295,1,130,10|2,0:0|1:0,0:0:0:0:
61,354,14102,2,0,P|27:344|-15:349,2,65,2|8|0,1:0|0:0|0:0,0:0:0:0:
151,362,14544,2,0,P|190:368|242:355,1,65,2|2,1:0|1:0,0:0:0:0:
282,303,14838,2,0,L|288:213,1,65,10|0,0:0|0:0,0:0:0:0:
338,163,15132,6,0,P|379:153|451:151,2,97.5,2|2|2,1:0|0:0|0:0,0:0:0:0:
263,110,15720,2,0,P|257:76|264:35,1,65,2|0,1:0|1:0,0:0:0:0:
344,10,16014,2,0,P|350:44|343:85,1,65,8|0,0:0|0:0,0:0:0:0:
338,163,16308,6,0,P|332:197|339:238,1,65,2|0,1:0|1:0,0:0:0:0:
395,295,16602,1,8,0:0:0:0:
395,295,16750,1,8,0:0:0:0:
336,364,16897,2,0,P|297:357|252:357,1,65,8|4,3:0|3:0,0:0:0:0:
181,363,17191,1,8,3:0:0:0:
98,324,17338,1,4,3:0:0:0:
61,225,17485,6,0,B|51:176|51:176|68:124,1,104,0|8,1:0|0:0,0:0:0:0:
106,50,17926,1,0,1:0:0:0:
267,93,18220,1,0,1:0:0:0:
267,93,18367,2,0,P|306:83|385:77,1,104,10|2,0:0|1:0,0:0:0:0:
449,97,18808,2,0,P|477:101|511:104,1,52,2|8,1:0|0:0,0:0:0:0:
437,257,19250,2,0,P|411:259|385:263,1,52,2|2,1:0|1:0,0:0:0:0:
310,298,19544,1,8,0:0:0:0:
239,254,19691,1,10,0:0:0:0:
239,254,19764,1,8,0:0:0:0:
239,254,19838,6,0,P|227:201|178:167,1,104,2|8,1:0|0:0,0:0:0:0:
107,157,20279,1,0,1:0:0:0:
8,275,20573,1,0,1:0:0:0:
8,275,20720,2,0,P|19:318|27:381,1,104,10|2,0:0|1:0,0:0:0:0:
108,360,21161,2,0,P|113:319|119:290,1,52,2|8,1:0|0:0,0:0:0:0:
255,218,21602,2,0,P|259:243|261:269,1,52,2|2,1:0|1:0,0:0:0:0:
268,352,21897,1,8,0:0:0:0:
370,355,22044,1,10,0:0:0:0:
370,355,22117,1,8,0:0:0:0:
370,355,22191,6,0,B|423:337|420:379|478:358,1,104,2|8,1:0|0:0,0:0:0:0:
505,284,22632,1,0,1:0:0:0:
452,126,22926,2,0,P|455:89|462:59,1,52,0|10,1:0|0:0,0:0:0:0:
299,22,23367,2,0,P|303:47|304:73,1,52,2|0,1:0|1:0,0:0:0:0:
305,156,23661,1,10,0:0:0:0:
159,237,23955,2,0,P|154:262|153:288,1,52,2|0,1:0|1:0,0:0:0:0:
153,371,24250,1,10,0:0:0:0:
252,358,24397,1,8,0:0:0:0:
252,358,24470,1,8,0:0:0:0:
252,358,24544,6,0,P|299:336|359:345,1,104,2|8,1:0|0:0,0:0:0:0:
429,365,24985,1,0,1:0:0:0:
375,207,25279,1,0,1:0:0:0:
375,207,25426,2,0,P|323:201|263:211,1,104,12|2,0:0|1:0,0:0:0:0:
191,230,25867,1,0,1:0:0:0:
115,195,26004,2,0,P|86:188|50:187,1,52,12|0,0:0|0:0,0:0:0:0:
15,118,26298,1,10,0:0:0:0:
15,118,26445,2,0,L|9:59,1,52,8|8,0:0|0:0,0:0:0:0:
82,26,26739,1,8,0:0:0:0:
178,65,26897,6,0,P|221:60|265:62,1,65,6|0,1:0|0:0,0:0:0:0:
320,28,27191,2,0,P|285:78|305:153,1,130,8|2,0:0|1:0,0:0:0:0:
367,188,27632,1,0,1:0:0:0:
367,188,27779,2,0,L|374:268,1,65,10|0,0:0|0:0,0:0:0:0:
448,291,28073,6,0,L|440:371,1,65,2|0,1:0|1:0,0:0:0:0:
357,368,28367,1,10,0:0:0:0:
357,368,28514,2,0,B|288:363,1,65,2|0,0:0|1:0,0:0:0:0:
221,317,28808,2,0,L|149:322,1,65,2|8,1:0|0:0,0:0:0:0:
79,286,29102,1,2,0:0:0:0:
38,211,29249,6,0,P|32:173|30:135,1,65,2|0,1:0|1:0,0:0:0:0:
31,61,29544,2,0,P|91:83|169:52,1,130,8|2,0:0|1:0,0:0:0:0:
224,17,29985,1,0,1:0:0:0:
224,17,30132,2,0,L|232:111,1,65,10|0,0:0|0:0,0:0:0:0:
310,104,30426,6,0,L|318:10,1,65,2|0,1:0|1:0,0:0:0:0:
395,10,30720,1,10,0:0:0:0:
395,10,30867,2,0,P|462:16|498:70,1,130,2|0,0:0|1:0,0:0:0:0:
502,147,31308,2,0,L|495:231,1,65,10|2,0:0|0:0,0:0:0:0:
419,245,31602,6,0,P|386:238|347:247,1,65,2|0,1:0|0:0,0:0:0:0:
280,205,31897,2,0,P|217:224|145:200,1,130,8|2,0:0|1:0,0:0:0:0:
83,166,32338,1,0,1:0:0:0:
83,166,32485,2,0,P|75:201|70:251,1,65,10|0,0:0|0:0,0:0:0:0:
11,289,32779,6,0,P|15:321|22:352,1,65,2|2,1:0|1:0,0:0:0:0:
105,372,33073,1,10,0:0:0:0:
105,372,33220,2,0,P|161:339|231:357,1,130,2|2,0:0|1:0,0:0:0:0:
303,373,33661,2,0,L|311:300,1,65,10|0,0:0|0:0,0:0:0:0:
381,263,33955,6,0,L|369:158,2,97.5,2|0|0,1:0|0:0|1:0,0:0:0:0:
460,233,34544,2,0,L|473:121,2,97.5,8|0|8,0:0|0:0|0:0,0:0:0:0:
381,263,35132,6,0,B|311:241|319:293|242:268,1,130,0|8,0:0|0:0,0:0:0:0:
122,165,35720,2,0,P|82:119|6:103,1,130,10|8,0:0|3:0,0:0:0:0:
17,220,36308,6,0,P|25:267|29:324,1,90.9999972229005,2|0,1:0|1:0,0:0:0:0:
192,365,36897,2,0,P|239:353|284:357,1,90.9999972229005,2|2,1:0|1:0,0:0:0:0:
304,273,37338,6,0,P|312:210|371:163,1,136.499995834351,2|2,0:0|1:0,0:0:0:0:
507,65,38073,1,0,1:0:0:0:
337,29,38367,1,0,1:0:0:0:
182,106,38661,6,0,B|28:91,1,136.499995834351,2|2,1:0|0:0,0:0:0:0:
9,170,39249,2,0,P|-3:203|10:271,1,90.9999972229005,2|2,1:0|1:0,0:0:0:0:
77,301,39691,6,0,L|227:286,1,136.499995834351,2|2,0:0|1:0,0:0:0:0:
298,275,40279,1,2,0:0:0:0:
462,219,40573,2,0,P|454:259|451:322,1,90.9999972229005,2|0,0:0|0:0,0:0:0:0:
380,359,41014,6,0,P|339:352|289:376,1,90.9999972229005,2|0,1:0|1:0,0:0:0:0:
134,306,41602,2,0,P|91:316|41:302,1,90.9999972229005,2|0,1:0|1:0,0:0:0:0:
80,135,42191,6,0,P|89:184|94:233,1,90.9999972229005,2|0,1:0|1:0,0:0:0:0:
214,101,42779,2,0,P|205:150|200:199,1,90.9999972229005,2|0,1:0|1:0,0:0:0:0:
351,275,43367,6,0,P|396:279|452:257,1,90.9999972229005,2|0,1:0|1:0,0:0:0:0:
420,93,43955,2,0,P|374:89|331:102,1,90.9999972229005,2|0,1:0|1:0,0:0:0:0:
278,170,44397,1,0,0:0:0:0:
278,170,44544,6,0,L|181:160,1,90.9999972229005,2|0,1:0|1:0,0:0:0:0:
64,38,45132,2,0,L|154:28,1,90.9999972229005,2|0,1:0|1:0,0:0:0:0:
327,16,45720,5,2,0:0:0:0:
327,16,47475,5,10,0:0:0:0:
443,156,47773,1,8,0:0:0:0:
405,263,47926,6,0,P|341:230|257:259,1,149.500002851486,6|0,1:0|1:0,0:0:0:0:
193,310,48367,2,0,L|106:304,1,74.7500014257431,10|0,0:0|0:0,0:0:0:0:
39,248,48661,2,0,B|21:196|21:196|45:97,1,149.500002851486,2|8,1:0|0:0,0:0:0:0:
105,29,49102,1,0,0:0:0:0:
189,77,49249,6,0,L|278:71,1,74.7500014257431,2|0,1:0|1:0,0:0:0:0:
347,22,49544,2,0,L|426:28,1,74.7500014257431,10|0,0:0|0:0,0:0:0:0:
492,93,49838,2,0,P|482:162|478:253,1,149.500002851486,2|10,1:0|0:0,0:0:0:0:
389,281,50279,6,0,P|385:206|374:132,1,149.500002851486,6|0,1:0|1:0,0:0:0:0:
281,102,50720,1,10,0:0:0:0:
204,162,50867,1,0,0:0:0:0:
217,258,51014,2,0,B|134:227|148:298|56:268,1,149.500002851486,2|8,1:0|0:0,0:0:0:0:
8,201,51455,1,0,0:0:0:0:
0,313,51602,6,0,P|70:318|127:377,1,149.500002851486,2|10,1:0|0:0,0:0:0:0:
315,336,52191,2,0,L|333:168,1,149.500002851486,2|10,1:0|0:0,0:0:0:0:
277,88,52632,6,0,P|347:74|419:118,1,149.500002851486,6|0,1:0|1:0,0:0:0:0:
482,179,53073,2,0,P|473:213|468:265,1,74.7500014257431,10|0,0:0|0:0,0:0:0:0:
450,347,53367,2,0,P|385:314|306:341,1,149.500002851486,2|8,1:0|0:0,0:0:0:0:
222,365,53808,1,0,0:0:0:0:
142,309,53955,6,0,B|129:265|129:265|149:157,1,149.500002851486,2|10,1:0|0:0,0:0:0:0:
216,94,54397,1,0,0:0:0:0:
132,45,54544,2,0,P|61:35|2:90,1,149.500002851486,2|10,1:0|0:0,0:0:0:0:
1,179,54985,6,0,L|14:328,1,149.500002851486,6|0,1:0|1:0,0:0:0:0:
94,382,55426,2,0,P|130:373|185:379,1,74.7500014257431,8|0,0:0|0:0,0:0:0:0:
254,330,55720,2,0,P|290:339|327:337,1,74.7500014257431,0|0,1:0|1:0,0:0:0:0:
421,313,56014,1,8,0:0:0:0:
471,229,56161,1,0,0:0:0:0:
402,160,56308,6,0,B|329:180|329:180|251:160,1,149.500002851486,2|8,1:0|0:0,0:0:0:0:
180,102,56749,1,0,0:0:0:0:
257,43,56897,2,0,B|328:24|328:24|401:44,1,149.500002851486,2|8,1:0|0:0,0:0:0:0:
486,117,57338,6,0,P|477:190|475:282,1,149.500002851486,6|0,1:0|0:0,0:0:0:0:
396,324,57779,2,0,P|393:285|382:236,1,74.7500014257431,10|0,0:0|0:0,0:0:0:0:
304,197,58073,2,0,P|241:226|155:201,1,149.500002851486,2|8,1:0|0:0,0:0:0:0:
85,153,58514,1,0,0:0:0:0:
22,227,58661,6,0,L|28:314,1,74.7500014257431,2|0,1:0|0:0,0:0:0:0:
103,361,58955,2,0,L|110:281,1,74.7500014257431,10|0,0:0|0:0,0:0:0:0:
165,208,59249,2,0,P|237:205|293:262,1,149.500002851486,2|10,1:0|0:0,0:0:0:0:
346,334,59691,6,0,L|513:323,1,149.500002851486,6|2,1:0|1:0,0:0:0:0:
510,227,60132,1,10,0:0:0:0:
470,138,60279,1,0,0:0:0:0:
372,138,60426,2,0,P|300:129|218:131,1,149.500002851486,2|8,1:0|0:0,0:0:0:0:
165,208,60867,1,0,0:0:0:0:
101,301,61014,6,0,P|175:302|249:293,1,149.500002851486,6|8,1:0|0:0,0:0:0:0:
297,105,61602,2,0,P|361:59|441:91,1,149.500002851486,2|10,1:0|0:0,0:0:0:0:
482,172,62044,6,0,P|468:241|464:326,1,149.500002851486,6|0,1:0|1:0,0:0:0:0:
382,373,62485,2,0,L|299:368,1,74.7500014257431,10|0,0:0|0:0,0:0:0:0:
227,314,62779,2,0,L|74:322,1,149.500002851486,2|8,1:0|0:0,0:0:0:0:
7,254,63220,1,0,0:0:0:0:
6,156,63367,6,0,P|31:88|114:55,1,149.500002851486,2|10,1:0|0:0,0:0:0:0:
190,80,63808,1,0,0:0:0:0:
280,115,63955,2,0,L|295:265,1,149.500002851486,2|10,1:0|0:0,0:0:0:0:
381,308,64397,6,0,L|398:149,1,149.500002851486,6|0,1:0|1:0,0:0:0:0:
441,73,64838,2,0,P|403:78|355:63,1,74.7500014257431,8|0,0:0|0:0,0:0:0:0:
274,40,65132,2,0,L|280:122,1,74.7500014257431,8|0,0:0|1:0,0:0:0:0:
211,183,65426,1,8,0:0:0:0:
123,140,65573,1,0,1:0:0:0:
43,195,65720,6,0,B|18:234|18:234|28:346,1,149.500002851486,6|8,1:0|0:0,0:0:0:0:
118,369,66161,1,0,1:0:0:0:
212,346,66308,2,0,B|286:324|282:378|360:358,1,149.500002851486,10|8,0:0|0:0,0:0:0:0:
454,349,66749,1,2,1:0:0:0:
507,268,66897,6,0,L|511:193,1,74.7500014257431,10|0,0:0|1:0,0:0:0:0:
450,117,67191,2,0,P|408:109|373:117,1,74.7500014257431,8|0,0:0|1:0,0:0:0:0:
309,185,67485,2,0,P|269:193|224:184,1,74.7500014257431,10|0,0:0|1:0,0:0:0:0:
148,144,67779,1,10,0:0:0:0:
148,144,67926,6,0,B|132:192|132:192|140:306,1,149.500002851486,2|2,1:0|1:0,0:0:0:0:
49,329,68367,2,0,L|37:173,1,149.500002851486,10|8,0:0|0:0,0:0:0:0:
76,90,68808,2,0,B|154:59|147:131|231:100,1,149.500002851486,2|0,1:0|1:0,0:0:0:0:
312,77,69249,6,0,L|321:-11,2,74.7500014257431,10|0|8,0:0|1:0|0:0,0:0:0:0:
394,128,69691,1,2,1:0:0:0:
394,128,69838,2,0,P|433:122|473:132,1,74.7500014257431,10|0,0:0|1:0,0:0:0:0:
498,221,70132,1,10,0:0:0:0:
498,221,70279,6,0,P|487:287|480:378,1,149.500002851486,2|0,1:0|1:0,0:0:0:0:
383,352,70720,1,10,0:0:0:0:
383,352,70867,2,0,P|380:313|373:265,1,74.7500014257431,2|10,1:0|0:0,0:0:0:0:
300,215,71161,2,0,B|246:209|246:209|204:228|204:228|144:221,1,149.500002851486,2|0,1:0|1:0,0:0:0:0:
59,206,71602,6,0,L|73:372,1,149.500002851486,10|8,0:0|0:0,0:0:0:0:
164,368,72044,1,0,1:0:0:0:
164,368,72191,2,0,P|203:358|248:363,1,74.7500014257431,10|0,0:0|1:0,0:0:0:0:
334,361,72485,2,0,L|341:275,1,74.7500014257431,8|0,0:0|1:0,0:0:0:0:
249,251,72768,6,0,L|236:96,1,149.500002851486,10|8,0:0|0:0,0:0:0:0:
165,35,73209,1,0,1:0:0:0:
165,35,73356,2,0,L|76:29,1,74.7500014257431,10|0,0:2|1:0,0:0:0:0:
20,96,73650,2,0,P|13:132|21:186,1,74.7500014257431,8|0,0:0|1:0,0:0:0:0:
94,227,73944,6,0,L|88:312,2,74.7500014257431,10|0|8,0:0|1:0|0:0,0:0:0:0:
167,164,74385,1,0,1:0:0:0:
167,164,74532,2,0,P|204:156|251:163,1,74.7500014257431,10|0,0:0|1:0,0:0:0:0:
330,195,74826,2,0,P|368:204|419:193,1,74.7500014257431,8|0,0:0|1:0,0:0:0:0:
498,180,75120,6,0,L|509:25,1,149.500002851486,10|8,0:0|0:0,0:0:0:0:
410,33,75562,1,0,1:0:0:0:
410,33,75709,2,0,P|374:25|326:26,1,74.7500014257431,10|0,0:0|1:0,0:0:0:0:
255,22,76003,1,8,3:0:0:0:
172,59,76150,1,4,3:0:0:0:
101,128,76310,6,0,B|65:240|146:218|96:354,1,208,6|2,1:0|0:0,0:0:0:0:
465,236,77486,6,0,P|403:158|296:185,1,208,6|2,1:0|0:0,0:0:0:0:
11,365,78662,6,0,L|140:357,1,116.999996429443,6|2,1:0|0:0,0:0:0:0:
184,288,79104,2,0,L|314:296,1,116.999996429443,2|2,1:0|1:0,0:0:0:0:
365,353,79545,1,2,1:0:0:0:
497,237,79839,6,0,P|501:200|510:164,2,58.4999982147217,2|2|2,1:0|1:0|0:0,0:0:0:0:
410,251,80280,2,0,P|405:189|394:125,1,116.999996429443,2|2,1:0|1:0,0:0:0:0:
355,56,80721,1,2,1:0:0:0:
212,158,81015,6,0,L|96:147,1,116.999996429443,6|2,1:0|0:0,0:0:0:0:
57,67,81457,2,0,L|181:57,1,116.999996429443,2|2,1:0|1:0,0:0:0:0:
258,80,81898,1,2,1:0:0:0:
178,236,82192,6,0,P|173:269|170:308,1,58.4999982147217,2|2,1:0|1:0,0:0:0:0:
223,363,82486,1,2,0:0:0:0:
223,363,82633,2,0,P|276:343|346:363,1,116.999996429443,2|2,1:0|1:0,0:0:0:0:
419,373,83074,1,2,1:0:0:0:
490,213,83368,6,0,P|443:174|371:181,1,116.999996429443,6|2,1:0|0:0,0:0:0:0:
302,189,83810,2,0,L|292:67,1,116.999996429443,2|2,1:0|1:0,0:0:0:0:
367,27,84251,1,2,1:0:0:0:
192,43,84545,6,0,L|129:36,2,58.4999982147217,2|2|2,1:0|1:0|0:0,0:0:0:0:
164,126,84986,2,0,L|31:112,1,116.999996429443,2|2,1:0|1:0,0:0:0:0:
1,188,85427,1,2,1:0:0:0:
117,319,85721,6,0,B|266:264|237:408|419:342,1,292.499991073609,2|0,1:0|0:0,0:0:0:0:
