osu file format v14

[General]
AudioFilename: audio.mp3
AudioLeadIn: 0
PreviewTime: 48294
Countdown: 0
SampleSet: Soft
StackLeniency: 0.2
Mode: 0
LetterboxInBreaks: 0
WidescreenStoryboard: 1

[Editor]
DistanceSpacing: 1
BeatDivisor: 4
GridSize: 32
TimelineZoom: 2.799999

[Metadata]
Title:Black Rover (TV Size)
TitleUnicode:Black Rover (TV Size)
Artist:Vickeblanka
ArtistUnicode:ビッケブランカ
Creator:Sotarks
Version:NiNo's Insane
Source:ブラッククローバー
Tags:clover opening op akitoshi corinn -laura- doormat lami intoon mir nevo snownino_ shunao shogunmoon naotoshi nao_tomori
BeatmapID:1645699
BeatmapSetID:781509

[Difficulty]
HPDrainRate:5
CircleSize:4
OverallDifficulty:8
ApproachRate:9
SliderMultiplier:1.8
SliderTickRate:1

[Events]
//Background and Video events
0,0,"BG.jpg",0,0
Video,0,"video.avi"
//Break Periods
//Storyboard Layer 0 (Background)
//Storyboard Layer 1 (Fail)
//Storyboard Layer 2 (Pass)
//Storyboard Layer 3 (Foreground)
//Storyboard Sound Samples

[TimingPoints]
1022,294.117647058824,4,2,22,42,1,0
1022,-133.333333333333,4,2,22,42,0,0
7333,-100,4,2,22,52,0,0
7344,255.31914893617,4,2,22,62,1,0
7471,335.195530726257,4,2,22,62,1,0
7638,250,4,2,22,62,1,0
7763,294.117647058824,4,2,22,62,1,0
7905,-100,4,2,22,72,0,0
7918,329.67032967033,4,2,22,72,1,0
8082,329.67032967033,4,2,22,72,1,0
8247,294.117647058824,4,2,22,72,1,0
8368,294.117647058824,4,2,22,72,1,0
9250,294.117647058824,4,2,22,72,1,0
17463,-133.333333333333,4,2,22,52,0,0
18930,-133.333333333333,4,2,22,52,0,0
19827,-133.333333333333,4,2,22,52,0,0
22193,-133.333333333333,4,2,22,52,0,0
22474,-133.333333333333,4,2,22,52,0,0
23058,-133.333333333333,4,2,22,52,0,0
24530,-133.333333333333,4,2,22,52,0,0
25407,-133.333333333333,4,2,22,52,0,0
26003,-133.333333333333,4,2,22,52,0,0
26004,294.117647058824,4,2,22,52,1,0
26004,-133.333333333333,4,2,22,52,0,0
26879,-100,4,2,22,62,0,0
26897,294.117647058824,4,2,22,62,1,0
36290,-133.333333333333,4,2,22,52,0,0
45702,-133.333333333333,4,2,22,42,0,0
47328,294.117647058824,4,2,22,72,1,0
47328,-100,4,2,22,72,0,0
47475,346.820809248555,4,2,22,72,1,0
47648,250,4,2,22,72,1,0
47773,306.122448979592,4,2,22,72,1,0
47926,294.117647058824,4,2,22,82,1,0
48073,294.117647058824,4,2,22,82,1,0
48367,-100,4,2,22,82,0,1
66870,-100,4,2,22,92,0,1
72768,294.117647058824,4,2,22,92,1,1
76297,294.117647058824,4,2,22,42,1,9
76310,294.117647058824,4,2,22,92,1,1
76310,-100,4,2,22,62,0,0
85679,-100,4,2,22,52,0,0
86415,-100,4,2,22,5,0,0

[Colours]
Combo1 : 224,214,214
Combo2 : 255,17,17
Combo3 : 135,255,47
Combo4 : 36,244,255

[HitObjects]
106,115,1022,6,0,P|137:102|184:104,1,67.5000025749208,2|0,0:0|0:0,0:0:0:0:
229,156,1316,2,0,P|262:154|293:141,1,67.5000025749208,2|0,0:0|0:0,0:0:0:0:
331,70,1610,2,0,L|405:78,1,67.5000025749208,2|0,0:0|0:0,0:0:0:0:
478,88,1904,2,0,P|490:123|491:166,1,67.5000025749208,2|0,0:0|0:0,0:0:0:0:
426,201,2198,6,0,P|414:236|413:279,1,67.5000025749208,2|0,0:0|0:0,0:0:0:0:
401,346,2492,2,0,P|361:358|333:355,1,67.5000025749208,2|0,0:0|0:0,0:0:0:0:
279,297,2786,2,0,P|245:295|213:306,1,67.5000025749208,2|0,0:0|0:0,0:0:0:0:
134,322,3080,2,0,P|135:278|129:244,1,67.5000025749208,2|0,0:0|0:0,0:0:0:0:
63,210,3374,6,0,P|62:166|68:132,1,67.5000025749208,2|0,0:0|0:0,0:0:0:0:
86,64,3669,2,0,P|127:68|162:60,1,67.5000025749208,2|0,0:0|0:0,0:0:0:0:
215,12,3963,2,0,P|248:6|281:11,1,67.5000025749208,2|0,0:0|0:0,0:0:0:0:
333,73,4257,2,0,P|374:77|409:69,1,67.5000025749208,2|0,0:0|0:0,0:0:0:0:
477,51,4551,6,0,P|480:92|488:129,1,67.5000025749208,2|0,0:0|0:0,0:0:0:0:
421,168,4845,2,0,P|418:209|410:246,1,67.5000025749208,2|0,0:0|0:0,0:0:0:0:
377,307,5139,2,0,L|305:297,1,67.5000025749208,2|0,0:0|0:0,0:0:0:0:
259,234,5433,2,0,L|187:244,1,67.5000025749208,2|0,0:0|0:0,0:0:0:0:
135,185,5727,6,0,L|63:175,2,67.5000025749208,2|0|2,0:0|0:0|0:0,0:0:0:0:
195,130,6168,1,0,0:0:0:0:
195,130,6315,2,0,L|267:120,2,67.5000025749208,2|0|2,0:0|0:0|0:0,0:0:0:0:
137,71,6756,1,0,0:0:0:0:
137,71,6903,6,0,L|65:61,1,67.5000025749208,2|0,0:0|0:0,0:0:0:0:
20,125,7197,2,0,P|12:163|19:199,1,67.5000025749208,2|0,0:0|1:0,0:0:0:0:
32,228,7407,1,0,1:0:0:0:
32,228,7471,5,8,0:0:0:0:
93,293,7638,1,0,1:0:0:0:
142,218,7763,1,8,0:0:0:0:
214,332,7918,6,0,L|412:350,1,180,6|2,1:0|0:0,0:0:0:0:
471,307,8368,2,0,P|459:258|469:206,1,90,12|0,0:0|0:0,0:0:0:0:
385,176,8662,2,0,P|397:127|387:75,1,90,2|0,1:0|1:0,0:0:0:0:
336,17,8956,2,0,B|300:71|300:71|174:45,1,180,10|0,0:0|1:0,0:0:0:0:
97,42,9397,5,2,1:0:0:0:
97,42,9544,2,0,P|82:89|99:150,1,90,10|2,0:0|0:0,0:0:0:0:
161,179,9838,2,0,P|176:226|159:287,1,90,2|2,1:0|1:0,0:0:0:0:
99,321,10132,1,10,0:0:0:0:
182,354,10279,6,0,L|388:365,1,180,6|2,1:0|0:0,0:0:0:0:
452,361,10720,2,0,P|466:313|459:264,1,90,8|0,0:0|0:0,0:0:0:0:
377,242,11014,2,0,P|363:194|370:145,1,90,2|0,1:0|1:0,0:0:0:0:
451,125,11308,2,0,P|471:78|463:28,1,90,10|0,0:0|0:0,0:0:0:0:
384,68,11602,5,0,1:0:0:0:
366,154,11750,2,0,P|363:199|377:242,1,90,2|8,1:0|0:0,0:0:0:0:
421,320,12044,1,0,0:0:0:0:
421,320,12191,2,0,L|307:327,1,90,2|2,1:0|1:0,0:0:0:0:
248,361,12485,1,10,0:0:0:0:
212,278,12632,6,0,B|230:159|230:159|182:103,1,180,6|2,1:0|0:0,0:0:0:0:
113,66,13073,2,0,L|23:75,1,90,10|0,0:0|0:0,0:0:0:0:
22,164,13367,2,0,L|112:155,1,90,2|0,1:0|1:0,0:0:0:0:
191,113,13661,2,0,B|152:158|152:158|170:277,1,180,10|2,0:0|1:0,0:0:0:0:
216,354,14102,5,2,1:0:0:0:
260,275,14250,2,0,L|241:163,1,90,8|0,0:0|0:0,0:0:0:0:
306,352,14544,2,0,L|418:333,1,90,2|2,1:0|1:0,0:0:0:0:
170,277,14838,2,0,L|81:261,1,90,10|0,0:0|0:0,0:0:0:0:
25,191,15132,6,0,P|46:139|43:91,1,90,2|0,1:0|1:0,0:0:0:0:
29,63,15352,2,0,L|129:74,1,90,2|0,0:0|0:0,0:0:0:0:
163,78,15573,1,2,0:0:0:0:
221,146,15720,2,0,L|321:135,1,90,2|0,1:0|1:0,0:0:0:0:
358,60,16014,2,0,L|458:71,1,90,8|0,0:0|0:0,0:0:0:0:
488,149,16308,6,0,P|459:188|461:247,1,90,2|0,1:0|1:0,0:0:0:0:
469,316,16602,1,8,0:0:0:0:
384,284,16750,1,8,0:0:0:0:
455,228,16897,1,8,3:0:0:0:
370,196,17044,1,4,3:0:0:0:
441,140,17191,2,0,P|456:94|445:41,1,90,8|4,3:0|3:0,0:0:0:0:
378,17,17485,6,0,P|344:47|243:47,1,135.000005149842,0|8,1:0|0:0,0:0:0:0:
181,26,17926,2,0,P|205:52|204:156,1,135.000005149842,0|0,1:0|1:0,0:0:0:0:
138,186,18367,2,0,P|130:222|135:261,1,67.5000025749208,10|0,0:0|0:0,0:0:0:0:
181,316,18661,5,2,1:0:0:0:
247,269,18808,1,2,1:0:0:0:
296,333,18955,2,0,P|334:350|374:348,1,67.5000025749208,8|2,0:0|0:0,0:0:0:0:
428,308,19250,1,2,1:0:0:0:
379,243,19397,1,2,1:0:0:0:
448,201,19544,2,0,P|458:159|452:132,1,67.5000025749208,8|10,0:0|0:0,0:0:0:0:
442,96,19764,1,8,0:0:0:0:
442,96,19838,6,0,L|299:81,1,135.000005149842,2|8,1:0|0:0,0:0:0:0:
258,17,20279,2,0,L|115:32,1,135.000005149842,0|0,1:0|1:0,0:0:0:0:
49,64,20720,2,0,P|59:102|55:141,1,67.5000025749208,10|0,0:0|0:0,0:0:0:0:
13,197,21014,5,2,1:0:0:0:
87,227,21161,1,2,1:0:0:0:
43,295,21308,2,0,P|30:335|30:370,1,67.5000025749208,8|2,0:0|0:0,0:0:0:0:
107,378,21602,1,2,1:0:0:0:
145,306,21750,1,2,1:0:0:0:
223,324,21897,2,0,P|257:334|305:329,1,67.5000025749208,8|10,0:0|0:0,0:0:0:0:
327,321,22117,1,8,0:0:0:0:
327,321,22191,6,0,L|333:169,1,135.000005149842,2|8,1:0|0:0,0:0:0:0:
413,180,22632,2,0,L|407:28,1,135.000005149842,0|0,1:0|1:0,0:0:0:0:
333,12,23073,2,0,P|296:26|254:19,1,67.5000025749208,10|0,0:0|0:0,0:0:0:0:
187,17,23367,5,2,1:0:0:0:
222,90,23514,1,0,1:0:0:0:
141,83,23661,2,0,P|107:82|76:95,1,67.5000025749208,10|0,0:0|0:0,0:0:0:0:
41,168,23955,1,2,1:0:0:0:
121,162,24102,1,0,1:0:0:0:
86,235,24250,2,0,P|74:273|82:316,1,67.5000025749208,10|8,0:0|0:0,0:0:0:0:
100,332,24470,1,8,0:0:0:0:
100,332,24544,6,0,P|147:314|241:332,1,135.000005149842,2|8,1:0|0:0,0:0:0:0:
297,369,24985,2,0,P|272:327|294:232,1,135.000005149842,0|0,1:0|1:0,0:0:0:0:
357,211,25426,2,0,P|367:172|361:138,1,67.5000025749208,12|0,0:0|0:0,0:0:0:0:
350,64,25720,6,0,L|425:58,1,67.5000025749208,2|0,1:0|1:0,0:0:0:0:
286,116,26004,2,0,L|196:105,1,67.5000025749208,12|0,0:0|0:0,0:0:0:0:
92,157,26298,5,10,0:0:0:0:
222,191,26445,1,8,0:0:0:0:
88,76,26592,1,8,0:0:0:0:
219,111,26739,1,8,0:0:0:0:
96,238,26897,6,0,P|88:272|104:341,1,90,6|0,1:0|0:0,0:0:0:0:
174,369,27191,2,0,L|280:360,1,90,8|0,0:0|0:0,0:0:0:0:
316,288,27485,2,0,L|422:297,1,90,2|0,1:0|1:0,0:0:0:0:
495,305,27779,2,0,P|482:255|492:203,1,90,10|0,0:0|0:0,0:0:0:0:
504,128,28073,6,0,P|471:178|349:153,1,180,2|10,1:0|0:0,0:0:0:0:
331,84,28514,2,0,P|290:66|239:75,1,90,2|0,0:0|1:0,0:0:0:0:
203,150,28808,2,0,P|162:168|111:159,1,90,2|8,1:0|0:0,0:0:0:0:
52,101,29102,1,2,0:0:0:0:
32,188,29249,6,0,B|18:310|18:310|70:353,1,180,2|8,1:0|0:0,0:0:0:0:
151,352,29691,1,0,0:0:0:0:
111,271,29838,2,0,L|125:149,1,90,2|0,1:0|1:0,0:0:0:0:
203,150,30132,2,0,L|189:28,1,90,10|0,0:0|0:0,0:0:0:0:
276,28,30426,6,0,L|298:222,1,180,2|10,1:0|0:0,0:0:0:0:
327,292,30867,2,0,P|296:248|177:263,1,180,2|0,0:0|1:0,0:0:0:0:
155,344,31308,1,10,0:0:0:0:
243,323,31455,1,2,0:0:0:0:
182,257,31602,6,0,B|68:246|68:246|30:169,1,180,2|8,1:0|0:0,0:0:0:0:
18,99,32044,1,0,0:0:0:0:
104,124,32191,2,0,L|217:139,1,90,2|0,1:0|1:0,0:0:0:0:
255,201,32485,2,0,L|368:186,1,90,10|0,0:0|0:0,0:0:0:0:
433,177,32779,5,2,1:0:0:0:
445,267,32926,1,2,1:0:0:0:
344,189,33073,1,10,0:0:0:0:
356,279,33220,2,0,L|249:293,1,90,2|0,0:0|0:0,0:0:0:0:
178,302,33514,1,2,1:0:0:0:
88,313,33661,2,0,L|73:206,1,90,10|0,0:0|0:0,0:0:0:0:
64,133,33955,6,0,L|170:118,1,90,2|0,1:0|1:0,0:0:0:0:
242,133,34249,1,8,0:0:0:0:
187,204,34397,1,0,1:0:0:0:
276,216,34544,2,0,L|382:230,1,90,8|0,0:0|0:0,0:0:0:0:
221,287,34838,1,0,1:0:0:0:
187,204,34985,6,0,L|180:6,1,180,8|0,0:0|1:0,0:0:0:0:
269,36,35426,2,0,L|272:125,1,90,8|0,0:0|0:0,0:0:0:0:
276,216,35720,1,10,0:0:0:0:
352,168,35867,1,8,0:0:0:0:
356,259,36014,2,0,L|359:348,1,90,8|4,3:0|3:0,0:0:0:0:
281,370,36308,5,2,1:0:0:0:
267,368,36602,1,0,1:0:0:0:
253,366,36897,1,2,1:0:0:0:
239,364,37191,1,2,1:0:0:0:
176,285,37485,5,0,1:0:0:0:
190,283,37779,1,2,1:0:0:0:
204,281,38073,1,0,1:0:0:0:
218,279,38367,2,0,L|287:268,1,67.5000025749208,0|0,1:0|0:0,0:0:0:0:
365,257,38661,5,2,1:0:0:0:
361,243,38955,1,0,1:0:0:0:
357,229,39249,1,2,1:0:0:0:
353,215,39544,1,2,1:0:0:0:
275,151,39838,5,0,1:0:0:0:
271,165,40132,1,2,1:0:0:0:
267,179,40426,1,0,1:0:0:0:
263,193,40720,1,0,1:0:0:0:
235,292,41014,6,0,L|89:277,2,135.000005149842,2|0|2,1:0|1:0|1:0,0:0:0:0:
309,363,41897,1,0,1:0:0:0:
309,363,42191,2,0,L|455:348,2,135.000005149842,2|0|2,1:0|1:0|1:0,0:0:0:0:
238,294,43073,1,0,1:0:0:0:
334,264,43367,6,0,L|341:109,1,135.000005149842,2|0,1:0|1:0,0:0:0:0:
266,58,43955,2,0,L|259:192,1,135.000005149842,2|0,1:0|1:0,0:0:0:0:
176,248,44544,2,0,L|182:113,1,135.000005149842,2|0,1:0|1:0,0:0:0:0:
108,42,45132,2,0,L|102:177,1,135.000005149842,2|0,1:0|1:0,0:0:0:0:
102,176,45720,5,2,0:0:0:0:
137,164,47328,6,0,L|196:159,1,45,0|0,1:0|1:0,0:0:0:0:
275,152,47475,5,8,0:0:0:0:
236,249,47648,1,0,1:0:0:0:
218,78,47773,1,8,0:0:0:0:
364,187,47926,6,0,L|356:377,1,180,6|0,1:0|1:0,0:0:0:0:
266,365,48367,2,0,P|219:348|162:357,1,90,10|0,0:0|0:0,0:0:0:0:
91,366,48661,2,0,B|147:337|147:337|120:198,1,180,2|8,1:0|0:0,0:0:0:0:
65,154,49102,1,0,0:0:0:0:
134,96,49249,6,0,L|236:104,1,90,2|0,1:0|1:0,0:0:0:0:
276,175,49544,2,0,L|365:167,1,90,10|0,0:0|0:0,0:0:0:0:
454,159,49838,2,0,L|461:248,1,90,2|0,1:0|1:0,0:0:0:0:
468,338,50132,1,10,0:0:0:0:
373,258,50279,6,0,L|357:61,1,180,6|0,1:0|1:0,0:0:0:0:
289,19,50720,2,0,P|242:38|191:28,1,90,10|0,0:0|0:0,0:0:0:0:
115,18,51014,2,0,L|122:107,1,90,2|0,1:0|1:0,0:0:0:0:
202,147,51308,2,0,L|194:236,1,90,8|0,0:0|0:0,0:0:0:0:
137,306,51602,5,2,1:0:0:0:
106,221,51749,1,0,1:0:0:0:
194,236,51897,2,0,L|283:243,1,90,10|0,0:0|0:0,0:0:0:0:
365,205,52191,1,2,1:0:0:0:
291,153,52338,1,0,1:0:0:0:
373,115,52485,1,10,0:0:0:0:
284,243,52632,6,0,P|262:300|140:313,1,180,6|0,1:0|1:0,0:0:0:0:
81,268,53073,2,0,L|92:169,1,90,10|0,0:0|0:0,0:0:0:0:
125,95,53367,1,2,1:0:0:0:
180,166,53514,1,0,1:0:0:0:
214,83,53661,2,0,P|252:70|310:79,1,90,8|0,0:0|0:0,0:0:0:0:
386,103,53955,6,0,L|376:192,1,90,2|0,1:0|0:0,0:0:0:0:
291,164,54249,2,0,L|300:74,1,90,10|0,0:0|0:0,0:0:0:0:
368,15,54544,1,2,1:0:0:0:
386,103,54691,1,0,1:0:0:0:
454,44,54838,1,10,0:0:0:0:
300,74,54985,6,0,L|94:60,1,180,6|0,1:0|1:0,0:0:0:0:
31,77,55426,2,0,P|14:122|27:175,1,90,8|0,0:0|0:0,0:0:0:0:
79,231,55720,1,0,1:0:0:0:
154,182,55867,1,0,1:0:0:0:
213,251,56014,2,0,L|216:357,1,90,8|0,0:0|0:0,0:0:0:0:
284,198,56308,6,0,L|289:-3,1,180,2|8,1:0|0:0,0:0:0:0:
378,21,56749,1,0,0:0:0:0:
378,21,56897,2,0,L|375:121,1,90,2|0,1:0|0:0,0:0:0:0:
373,201,57191,1,8,0:0:0:0:
284,109,57338,6,0,B|239:64|239:64|98:97,1,180,6|0,1:0|0:0,0:0:0:0:
37,110,57779,2,0,P|23:162|31:205,1,90,10|0,0:0|0:0,0:0:0:0:
65,279,58073,1,2,1:0:0:0:
118,206,58220,1,0,1:0:0:0:
155,288,58367,2,0,P|203:309|254:301,1,90,8|0,0:0|0:0,0:0:0:0:
327,324,58661,6,0,B|272:282|272:282|295:157,1,180,2|10,1:0|0:0,0:0:0:0:
327,90,59102,1,0,0:0:0:0:
377,164,59249,2,0,P|335:180|292:173,1,90,2|0,1:0|1:0,0:0:0:0:
238,101,59544,1,10,0:0:0:0:
416,79,59691,6,0,P|454:111|434:239,1,180,6|2,1:0|1:0,0:0:0:0:
351,247,60132,2,0,P|355:202|377:164,1,90,10|0,0:0|0:0,0:0:0:0:
416,79,60426,1,2,1:0:0:0:
466,153,60573,1,0,1:0:0:0:
377,164,60720,2,0,L|269:152,1,90,8|0,0:0|0:0,0:0:0:0:
199,173,61014,5,6,1:0:0:0:
258,240,61161,1,0,1:0:0:0:
170,259,61308,2,0,L|62:247,1,90,8|0,0:0|0:0,0:0:0:0:
17,185,61602,1,2,1:0:0:0:
103,161,61749,1,0,1:0:0:0:
40,97,61897,1,10,0:0:0:0:
80,249,62044,6,0,P|94:308|211:341,1,180,6|0,1:0|1:0,0:0:0:0:
254,276,62485,2,0,P|214:257|170:259,1,90,10|0,0:0|0:0,0:0:0:0:
287,360,62779,1,2,1:0:0:0:
254,276,62926,1,0,1:0:0:0:
311,206,63073,2,0,L|317:115,1,90,8|0,0:0|0:0,0:0:0:0:
319,26,63367,6,0,P|276:40|213:27,1,90,2|0,1:0|0:0,0:0:0:0:
156,84,63661,2,0,P|113:70|50:83,1,90,10|0,0:0|0:0,0:0:0:0:
12,145,63955,2,0,B|62:180|62:180|46:304,1,180,2|10,1:0|0:0,0:0:0:0:
185,361,64397,6,0,B|235:326|235:326|219:202,1,180,6|0,1:0|1:0,0:0:0:0:
205,119,64838,2,0,P|255:138|305:134,1,90,8|0,0:0|0:0,0:0:0:0:
322,53,65132,2,0,P|372:34|422:38,1,90,8|0,0:0|1:0,0:0:0:0:
476,93,65426,2,0,L|471:194,1,90,8|0,0:0|1:0,0:0:0:0:
498,269,65720,6,0,P|472:227|342:244,1,180,6|8,1:0|0:0,0:0:0:0:
303,304,66161,1,0,1:0:0:0:
248,125,66308,2,0,P|297:126|347:247,1,180,10|8,0:0|0:0,0:0:0:0:
303,304,66749,1,2,1:0:0:0:
303,304,66897,5,10,0:0:0:0:
264,222,67044,1,0,1:0:0:0:
162,370,67191,1,8,0:0:0:0:
213,296,67338,1,0,1:0:0:0:
33,280,67485,2,0,L|138:289,1,90,10|0,0:0|1:0,0:0:0:0:
264,222,67779,2,0,L|174:214,1,90,10|2,0:0|1:0,0:0:0:0:
84,205,68073,5,8,0:0:0:0:
135,132,68220,1,2,1:0:0:0:
174,214,68367,2,0,L|180:317,1,90,10|0,0:0|1:0,0:0:0:0:
225,141,68661,2,0,L|231:38,1,90,8|2,0:0|1:0,0:0:0:0:
264,223,68955,2,0,L|270:326,1,90,8|0,0:0|1:0,0:0:0:0:
315,150,69249,6,0,L|404:144,1,90,10|0,0:0|1:0,0:0:0:0:
278,68,69544,1,8,0:0:0:0:
225,141,69691,1,2,1:0:0:0:
188,59,69838,1,10,0:0:0:0:
135,132,69985,1,0,1:0:0:0:
98,50,70132,2,0,P|57:33|-2:46,1,90,10|2,0:0|1:0,0:0:0:0:
82,205,70426,5,8,0:0:0:0:
45,123,70573,1,0,1:0:0:0:
172,214,70720,1,10,0:0:0:0:
135,132,70867,1,2,1:0:0:0:
262,223,71014,1,10,0:0:0:0:
225,141,71161,1,2,1:0:0:0:
352,232,71308,2,0,L|441:241,1,90,8|0,0:0|1:0,0:0:0:0:
315,150,71602,6,0,L|225:140,1,90,10|0,0:0|1:0,0:0:0:0:
82,205,71897,1,8,0:0:0:0:
172,214,72044,1,0,1:0:0:0:
135,132,72191,2,0,L|45:122,1,90,10|0,0:0|1:0,0:0:0:0:
262,223,72485,2,0,L|351:232,1,90,8|0,0:0|1:0,0:0:0:0:
172,214,72768,6,0,L|162:303,1,90,10|0,0:0|1:0,0:0:0:0:
225,140,73062,1,8,0:0:0:0:
262,223,73209,1,0,1:0:0:0:
135,132,73356,2,0,L|144:42,1,90,10|0,0:2|1:0,0:0:0:0:
262,223,73650,2,0,L|252:312,1,90,8|0,0:0|1:0,0:0:0:0:
225,140,73944,5,10,0:0:0:0:
315,148,74091,1,0,1:0:0:0:
172,215,74238,1,8,0:0:0:0:
262,223,74385,1,0,1:0:0:0:
135,132,74532,1,10,0:0:0:0:
225,140,74679,1,0,1:0:0:0:
82,207,74826,2,0,P|51:173|44:123,1,90,8|0,0:0|1:0,0:0:0:0:
188,57,75120,5,10,0:0:0:0:
135,132,75268,1,0,1:0:0:0:
278,65,75415,1,8,0:0:0:0:
225,140,75562,1,0,1:0:0:0:
367,73,75709,2,0,L|456:81,1,90,10|0,0:0|1:0,0:0:0:0:
314,148,76003,1,8,3:0:0:0:
278,65,76150,1,4,3:0:0:0:
261,223,76310,5,6,1:0:0:0:
261,223,77486,5,6,1:0:0:0:
261,223,78662,6,0,P|234:272|121:269,1,180,6|2,1:0|1:0,0:0:0:0:
55,208,79104,1,2,1:0:0:0:
55,208,79251,2,0,L|63:110,1,90,8|2,0:0|1:0,0:0:0:0:
73,29,79545,2,0,P|125:49|177:43,1,90,2|0,1:0|0:0,0:0:0:0:
247,34,79839,6,0,L|239:123,1,90,2|2,1:0|1:0,0:0:0:0:
150,138,80133,1,2,0:0:0:0:
150,138,80280,2,0,L|157:227,1,90,2|8,1:0|0:0,0:0:0:0:
244,250,80574,1,2,1:0:0:0:
244,250,80721,2,0,L|236:339,1,90,2|0,1:0|0:0,0:0:0:0:
153,372,81015,6,0,P|123:332|3:339,1,180,6|2,1:0|0:0,0:0:0:0:
2,247,81457,1,2,1:0:0:0:
2,247,81604,2,0,L|8:131,1,90,8|2,0:0|1:0,0:0:0:0:
13,67,81898,2,0,P|65:77|115:56,1,90,2|0,1:0|0:0,0:0:0:0:
184,36,82192,6,0,L|179:125,1,90,2|2,1:0|1:0,0:0:0:0:
174,214,82486,1,2,0:0:0:0:
174,214,82633,2,0,L|263:218,1,90,2|8,1:0|0:0,0:0:0:0:
353,223,82927,1,2,1:0:0:0:
353,223,83074,2,0,L|357:133,1,90,2|0,1:0|0:0,0:0:0:0:
362,43,83368,6,0,P|348:87|206:89,1,180,6|2,1:0|0:0,0:0:0:0:
149,71,83810,1,2,1:0:0:0:
149,71,83957,2,0,L|154:259,1,180,10|2,0:0|1:0,0:0:0:0:
158,340,84398,1,0,0:0:0:0:
233,291,84545,6,0,L|322:286,1,90,2|2,1:0|1:0,0:0:0:0:
413,282,84839,1,2,0:0:0:0:
413,282,84986,2,0,P|402:239|415:184,1,90,2|10,1:0|0:0,0:0:0:0:
476,133,85280,1,2,1:0:0:0:
476,133,85427,2,0,P|487:90|474:35,1,90,2|0,1:0|0:0,0:0:0:0:
396,9,85721,5,2,1:0:0:0:
