osu file format v14

[General]
AudioFilename: audio.mp3
AudioLeadIn: 0
PreviewTime: 48294
Countdown: 0
SampleSet: Soft
StackLeniency: 0.7
Mode: 0
LetterboxInBreaks: 0
WidescreenStoryboard: 0

[Editor]
Bookmarks: 57752
DistanceSpacing: 0.6
BeatDivisor: 4
GridSize: 32
TimelineZoom: 2.5

[Metadata]
Title:Black Rover (TV Size)
TitleUnicode:Black Rover (TV Size)
Artist:Vickeblanka
ArtistUnicode:ビッケブランカ
Creator:Sotarks
Version:Nevo's Expert
Source:ブラッククローバー
Tags:clover opening op akitoshi corinn -laura- doormat lami intoon mir nevo snownino_ shunao shogunmoon naotoshi nao_tomori
BeatmapID:1645698
BeatmapSetID:781509

[Difficulty]
HPDrainRate:5
CircleSize:3.5
OverallDifficulty:9
ApproachRate:9.3
SliderMultiplier:1.7
SliderTickRate:1

[Events]
//Background and Video events
0,0,"BG.jpg",0,0
Video,0,"video.avi"
//Break Periods
//Storyboard Layer 0 (Background)
//Storyboard Layer 1 (Fail)
//Storyboard Layer 2 (Pass)
//Storyboard Layer 3 (Foreground)
//Storyboard Sound Samples

[TimingPoints]
1022,294.117647058824,4,2,22,42,1,0
1022,-133.333333333333,4,2,22,42,0,0
7333,-100,4,2,22,52,0,0
7344,255.31914893617,4,2,22,62,1,0
7471,335.195530726257,4,2,22,62,1,0
7638,250,4,2,22,62,1,0
7763,294.117647058824,4,2,22,62,1,0
7918,329.67032967033,4,2,22,72,1,0
8082,329.67032967033,4,2,22,72,1,0
8247,294.117647058824,4,2,22,72,1,0
8368,294.117647058824,4,2,22,72,1,0
9250,294.117647058824,4,2,22,72,1,0
17459,-133.333333333333,4,2,22,52,0,0
26004,294.117647058824,4,2,22,52,1,0
26892,-100,4,2,22,62,0,0
26897,294.117647058824,4,2,22,62,1,0
36283,-100,4,2,22,52,0,0
45695,-181.818181818181,4,2,22,42,0,0
47328,294.117647058824,4,2,22,72,1,0
47328,-181.818181818181,4,2,22,72,0,0
47475,346.820809248555,4,2,22,72,1,0
47648,250,4,2,22,72,1,0
47773,306.122448979592,4,2,22,72,1,0
47926,294.117647058824,4,2,22,82,1,0
47926,-80,4,2,22,82,0,1
48073,294.117647058824,4,2,22,82,1,1
48073,-80,4,2,22,82,0,1
66870,-80,4,2,22,92,0,1
72768,294.117647058824,4,2,22,92,1,1
76297,294.117647058824,4,2,22,92,1,9
76310,294.117647058824,4,2,22,92,1,1
76310,-133.333333333333,4,2,22,72,0,0
76341,-133.333333333333,4,2,22,62,0,0
78620,-100,4,2,22,62,0,0
85679,-133.333333333333,4,2,22,52,0,0
86415,-133.333333333333,4,2,22,5,0,0

[Colours]
Combo1 : 224,214,214
Combo2 : 255,17,17
Combo3 : 135,255,47
Combo4 : 36,244,255

[HitObjects]
28,326,1022,6,0,L|106:319,1,63.7500024318696,2|0,0:0|0:0,0:0:0:0:
138,256,1316,2,0,L|201:261,1,63.7500024318696,2|0,0:0|0:0,0:0:0:0:
99,186,1610,2,0,P|74:209|60:260,1,63.7500024318696,2|0,0:0|0:0,0:0:0:0:
180,185,1904,2,0,P|172:151|135:114,1,63.7500024318696,2|0,0:0|0:0,0:0:0:0:
18,95,2198,5,2,0:0:0:0:
18,95,2492,2,0,L|96:88,1,63.7500024318696,2|0,0:0|0:0,0:0:0:0:
128,25,2786,2,0,L|191:30,1,63.7500024318696,2|0,0:0|0:0,0:0:0:0:
238,95,3080,2,0,L|301:89,1,63.7500024318696,2|0,0:0|0:0,0:0:0:0:
376,57,3374,5,2,0:0:0:0:
376,57,3669,2,0,P|382:98|363:145,1,63.7500024318696,2|0,0:0|0:0,0:0:0:0:
347,229,3963,2,0,P|379:203|429:196,1,63.7500024318696,2|0,0:0|0:0,0:0:0:0:
510,169,4257,2,0,P|471:153|440:113,1,63.7500024318696,2|0,0:0|0:0,0:0:0:0:
301,88,4551,6,0,L|213:82,1,63.7500024318696,2|0,0:0|0:0,0:0:0:0:
126,179,4845,2,0,L|189:174,1,63.7500024318696,2|0,0:0|0:0,0:0:0:0:
309,76,5139,2,0,L|221:70,1,63.7500024318696,2|0,0:0|0:0,0:0:0:0:
114,190,5433,2,0,L|177:185,1,63.7500024318696,2|0,0:0|0:0,0:0:0:0:
78,55,5727,6,0,P|69:93|83:135,1,63.7500024318696,2|0,0:0|0:0,0:0:0:0:
250,224,6021,2,0,P|259:186|245:144,1,63.7500024318696,2|0,0:0|0:0,0:0:0:0:
69,41,6315,2,0,P|60:79|74:121,1,63.7500024318696,2|0,0:0|0:0,0:0:0:0:
261,237,6609,2,0,P|270:199|256:157,1,63.7500024318696,2|0,0:0|0:0,0:0:0:0:
115,324,6903,6,0,B|203:310|203:310|244:325,1,127.500004863739,2|2,0:0|0:0,0:0:0:0:
354,294,7344,2,0,L|295:304,1,42.5,0|0,1:0|1:0,0:0:0:0:
434,334,7471,5,8,0:0:0:0:
386,162,7638,1,0,1:0:0:0:
261,237,7763,1,8,0:0:0:0:
433,240,7918,2,0,P|474:181|418:76,1,170,6|2,1:0|0:0,0:0:0:0:
305,161,8368,2,0,P|350:173|391:158,1,85,12|0,0:0|0:0,0:0:0:0:
390,18,8662,2,0,P|357:50|349:93,1,85,2|0,1:0|1:0,0:0:0:0:
224,183,8956,2,0,P|211:138|178:110,1,85,10|0,0:0|0:0,0:0:0:0:
4,57,9250,5,0,1:0:0:0:
136,195,9397,1,2,1:0:0:0:
105,4,9544,1,10,0:0:0:0:
78,102,9691,1,2,0:0:0:0:
219,28,9838,1,2,1:0:0:0:
4,57,9985,1,2,1:0:0:0:
279,81,10132,1,10,0:0:0:0:
79,263,10279,6,0,B|53:207|53:207|82:84,1,170,6|2,1:0|0:0,0:0:0:0:
220,201,10720,2,0,L|118:193,1,85,8|0,0:0|0:0,0:0:0:0:
271,280,11014,1,2,1:0:0:0:
263,116,11161,1,0,1:0:0:0:
177,286,11308,1,10,0:0:0:0:
314,196,11455,1,0,0:0:0:0:
230,366,11602,5,0,1:0:0:0:
168,119,11750,1,2,1:0:0:0:
104,347,11897,1,8,0:0:0:0:
263,116,12044,1,0,0:0:0:0:
341,350,12191,1,2,1:0:0:0:
168,119,12338,1,2,1:0:0:0:
40,260,12485,1,10,0:0:0:0:
279,281,12632,6,0,B|352:268|352:268|394:284|394:284|472:272,1,170,6|2,1:0|0:0,0:0:0:0:
220,201,13073,2,0,L|108:220,1,85,10|0,0:0|0:0,0:0:0:0:
248,35,13367,2,0,P|267:82|248:142,1,85,2|0,1:0|1:0,0:0:0:0:
327,267,13661,2,0,P|310:228|313:187,1,85,10|0,0:0|0:0,0:0:0:0:
469,56,13955,5,2,1:0:0:0:
401,213,14102,1,2,1:0:0:0:
382,24,14250,1,8,0:0:0:0:
512,140,14397,1,0,0:0:0:0:
307,221,14544,1,2,1:0:0:0:
389,120,14691,1,2,1:0:0:0:
488,317,14838,2,0,L|493:233,1,85,10|0,0:0|0:0,0:0:0:0:
303,77,15132,5,2,1:0:0:0:
304,317,15352,1,2,0:0:0:0:
304,317,15426,1,8,0:0:0:0:
389,120,15573,1,2,0:0:0:0:
223,261,15720,2,0,L|138:256,1,85,2|0,1:0|1:0,0:0:0:0:
48,357,16014,2,0,L|132:352,1,85,8|0,0:0|0:0,0:0:0:0:
75,192,16308,6,0,P|51:232|48:281,1,85,2|0,1:0|1:0,0:0:0:0:
243,169,16602,1,8,0:0:0:0:
42,105,16750,1,8,0:0:0:0:
138,256,16897,1,8,3:0:0:0:
247,74,17044,1,4,3:0:0:0:
75,192,17191,1,8,3:0:0:0:
305,240,17485,6,0,P|364:213|439:238,1,127.500004863739,0|8,1:0|0:0,0:0:0:0:
494,285,17926,1,0,1:0:0:0:
373,308,18073,1,0,0:0:0:0:
373,308,18220,1,0,1:0:0:0:
437,99,18367,6,0,L|421:240,1,127.500004863739,10|2,0:0|1:0,0:0:0:0:
379,372,18808,1,2,1:0:0:0:
379,372,18955,2,0,L|372:302,1,63.7500024318696,8|2,0:0|0:0,0:0:0:0:
352,170,19250,1,2,1:0:0:0:
280,256,19397,1,2,1:0:0:0:
260,105,19544,2,0,L|266:168,1,63.7500024318696,8|10,0:0|0:0,0:0:0:0:
212,226,19764,1,8,0:0:0:0:
212,226,19838,6,0,L|148:219,1,63.7500024318696,2|0,1:0|0:0,0:0:0:0:
68,208,20132,1,8,0:0:0:0:
68,208,20279,1,0,1:0:0:0:
192,73,20426,1,0,0:0:0:0:
87,95,20573,1,0,1:0:0:0:
134,346,20720,6,0,L|150:205,1,127.500004863739,10|2,0:0|1:0,0:0:0:0:
192,73,21161,1,2,1:0:0:0:
192,73,21308,2,0,L|198:142,1,63.7500024318696,8|2,0:0|0:0,0:0:0:0:
219,275,21602,1,2,1:0:0:0:
291,189,21750,1,2,1:0:0:0:
311,340,21897,2,0,L|304:276,1,63.7500024318696,8|10,0:0|0:0,0:0:0:0:
367,227,22117,1,8,0:0:0:0:
367,227,22191,6,0,L|430:233,1,63.7500024318696,2|0,1:0|0:0,0:0:0:0:
512,249,22485,1,8,0:0:0:0:
512,249,22632,1,0,1:0:0:0:
455,84,22779,1,0,0:0:0:0:
408,149,22926,1,0,1:0:0:0:
311,80,23073,2,0,L|375:74,1,63.7500024318696,10|0,0:0|0:0,0:0:0:0:
278,155,23367,6,0,L|214:148,1,63.7500024318696,2|0,1:0|1:0,0:0:0:0:
106,87,23661,2,0,L|170:81,1,63.7500024318696,10|0,0:0|0:0,0:0:0:0:
66,158,23955,2,0,L|2:151,1,63.7500024318696,2|0,1:0|1:0,0:0:0:0:
75,16,24250,1,10,0:0:0:0:
153,173,24397,1,8,0:0:0:0:
153,173,24470,1,8,0:0:0:0:
153,173,24544,6,0,L|146:236,1,63.7500024318696,2|0,1:0|0:0,0:0:0:0:
85,343,24838,2,0,L|79:280,1,63.7500024318696,8|0,0:0|1:0,0:0:0:0:
284,329,25132,2,0,P|227:340|164:315,1,127.500004863739,2|12,0:0|0:0,0:0:0:0:
281,151,25720,2,0,P|321:199|328:265,1,123.500004863739,2|12,1:0|0:0,0:0:0:0:
129,243,26298,5,10,0:0:0:0:
175,49,26445,1,8,0:0:0:0:
230,240,26592,5,8,0:0:0:0:
176,32,26739,1,8,0:0:0:0:
61,150,26897,6,0,L|147:144,1,85,6|0,1:0|0:0,0:0:0:0:
259,54,27191,2,0,L|173:48,1,85,8|0,0:0|0:0,0:0:0:0:
324,122,27485,1,2,1:0:0:0:
339,4,27632,1,0,1:0:0:0:
232,144,27779,2,0,L|238:230,1,85,10|0,0:0|0:0,0:0:0:0:
421,121,28073,6,0,L|426:36,1,85,2|0,1:0|1:0,0:0:0:0:
370,203,28367,1,10,0:0:0:0:
510,153,28514,1,2,0:0:0:0:
320,285,28661,1,0,1:0:0:0:
460,235,28808,1,2,1:0:0:0:
269,118,28955,2,0,L|275:203,1,85,8|2,0:0|0:0,0:0:0:0:
175,109,29249,6,0,L|180:24,1,85,2|0,1:0|1:0,0:0:0:0:
92,152,29544,2,0,L|97:237,1,85,8|0,0:0|0:0,0:0:0:0:
232,268,29838,2,0,P|210:233|173:213,1,85,2|0,1:0|1:0,0:0:0:0:
75,319,30132,2,0,P|117:318|153:296,1,85,10|0,0:0|0:0,0:0:0:0:
97,67,30426,6,0,L|92:152,1,85,2|0,1:0|1:0,0:0:0:0:
269,70,30720,1,10,0:0:0:0:
184,35,30867,1,2,0:0:0:0:
284,164,31014,1,0,0:0:0:0:
347,17,31161,1,0,1:0:0:0:
197,129,31308,2,0,L|112:124,1,85,10|2,0:0|0:0,0:0:0:0:
270,260,31602,6,0,L|355:255,1,85,2|0,1:0|0:0,0:0:0:0:
497,349,31897,2,0,P|458:333|432:301,1,85,8|0,0:0|0:0,0:0:0:0:
441,126,32191,2,0,P|447:167|432:207,1,85,2|0,1:0|1:0,0:0:0:0:
294,97,32485,2,0,P|327:72|369:66,1,85,10|0,0:0|0:0,0:0:0:0:
279,191,32779,5,2,1:0:0:0:
220,37,32926,1,2,1:0:0:0:
368,158,33073,1,10,0:0:0:0:
189,220,33220,1,2,0:0:0:0:
294,97,33367,1,0,0:0:0:0:
351,252,33514,1,2,1:0:0:0:
208,130,33661,2,0,L|123:125,1,85,10|0,0:0|0:0,0:0:0:0:
11,232,33955,6,0,L|96:227,1,85,2|0,1:0|1:0,0:0:0:0:
335,218,34249,1,8,0:0:0:0:
223,323,34397,1,0,1:0:0:0:
208,130,34544,2,0,L|200:35,1,85,8|0,0:0|0:0,0:0:0:0:
303,128,34838,1,0,1:0:0:0:
115,113,34985,1,8,0:0:0:0:
288,35,35132,6,0,P|345:44|383:86,1,85,0|0,0:0|1:0,0:0:0:0:
320,207,35426,2,0,P|299:153|316:99,1,85,8|0,0:0|0:0,0:0:0:0:
453,94,35720,2,0,P|416:138|361:150,1,85,10|8,0:0|0:0,0:0:0:0:
218,95,36014,1,8,3:0:0:0:
365,59,36161,1,4,3:0:0:0:
314,296,36308,6,0,L|302:117,1,170,2|0,1:0|1:0,0:0:0:0:
473,346,36897,2,0,L|478:256,1,85,2|0,1:0|0:0,0:0:0:0:
387,91,37191,1,2,1:0:0:0:
387,91,37338,2,0,L|400:294,1,170,2|0,0:0|0:0,0:0:0:0:
239,332,37779,2,0,P|282:302|346:299,1,85,2|0,1:0|0:0,0:0:0:0:
159,156,38073,1,0,1:0:0:0:
159,156,38220,2,0,B|179:272|179:272|150:325,1,170,2|0,0:0|0:0,0:0:0:0:
69,192,38661,6,0,L|79:79,1,85,2|0,1:0|0:0,0:0:0:0:
123,43,38955,1,0,1:0:0:0:
198,72,39102,1,2,0:0:0:0:
263,24,39249,2,0,L|347:16,1,85,2|0,1:0|0:0,0:0:0:0:
446,108,39544,1,2,1:0:0:0:
446,108,39691,6,0,B|391:92|391:92|265:104,1,170,2|0,0:0|0:0,0:0:0:0:
191,238,40132,1,2,1:0:0:0:
191,238,40279,2,0,P|234:202|247:165,1,85,2|0,0:0|1:0,0:0:0:0:
129,73,40573,2,0,P|133:115|156:151,1,85,2|0,0:0|1:0,0:0:0:0:
334,201,40867,1,0,0:0:0:0:
258,336,41014,6,0,B|230:297|230:297|248:143,1,170,2|0,1:0|1:0,0:0:0:0:
129,73,41602,2,0,B|157:112|157:112|139:266,1,170,2|0,1:0|1:0,0:0:0:0:
377,165,42191,6,0,P|298:177|244:95,1,170,2|0,1:0|1:0,0:0:0:0:
87,308,42779,2,0,P|166:320|220:238,1,170,2|0,1:0|1:0,0:0:0:0:
103,78,43367,6,0,B|107:150|107:150|131:186|131:186|135:262,1,170,2|0,1:0|1:0,0:0:0:0:
354,265,43955,2,0,B|350:192|350:192|326:156|326:156|323:102,1,170,2|0,1:0|1:0,0:0:0:0:
472,340,44544,6,0,B|409:333|409:333|363:352|363:352|303:347,1,170,2|0,1:0|1:0,0:0:0:0:
133,240,45132,2,0,B|196:233|196:233|242:252|242:252|302:247,1,170,2|0,1:0|1:0,0:0:0:0:
323,105,45720,6,0,P|280:130|260:175,1,93.5000028533936,2|0,0:0|0:0,0:0:0:0:
429,211,46308,2,0,P|428:161|399:121,1,93.5000028533936,2|0,0:0|0:0,0:0:0:0:
284,249,46897,2,0,P|327:273|376:268,1,93.5000028533936,2|0,0:0|0:0,0:0:0:0:
464,155,47328,2,0,L|422:161,1,23.3750007133484,0|0,1:0|1:0,0:0:0:0:
261,168,47475,5,8,0:0:0:0:
325,366,47648,1,0,1:0:0:0:
339,112,47773,1,8,0:0:0:0:
239,329,47926,6,0,L|116:310,1,106.25,6|0,1:0|0:0,0:0:0:0:
6,290,48220,1,0,1:0:0:0:
81,142,48367,2,0,P|99:191|88:243,1,106.25,10|0,0:0|0:0,0:0:0:0:
14,76,48661,2,0,P|47:35|97:18,1,106.25,2|0,1:0|1:0,0:0:0:0:
303,42,48955,1,8,0:0:0:0:
159,90,49102,1,0,0:0:0:0:
295,147,49249,6,0,L|304:26,1,106.25,2|0,1:0|1:0,0:0:0:0:
177,286,49544,2,0,L|168:165,1,106.25,10|0,0:0|0:0,0:0:0:0:
365,212,49838,2,0,P|317:240|244:227,1,106.25,2|0,1:0|1:0,0:0:0:0:
82,147,50132,1,10,0:0:0:0:
302,41,50279,6,0,L|295:147,1,106.25,6|0,1:0|0:0,0:0:0:0:
281,339,50573,1,0,1:0:0:0:
470,219,50720,2,0,L|364:211,1,106.25,10|0,0:0|0:0,0:0:0:0:
71,293,51014,2,0,L|176:285,1,106.25,2|0,1:0|1:0,0:0:0:0:
385,295,51308,1,8,0:0:0:0:
198,194,51455,1,0,0:0:0:0:
281,339,51602,6,0,P|296:280|270:221,1,106.25,2|0,1:0|1:0,0:0:0:0:
111,142,51897,2,0,P|154:184|218:191,1,106.25,10|0,0:0|0:0,0:0:0:0:
366,93,52191,2,0,P|307:109|269:161,1,106.25,2|0,1:0|1:0,0:0:0:0:
176,285,52485,1,10,0:0:0:0:
366,294,52632,6,0,L|357:164,1,106.25,6|0,1:0|0:0,0:0:0:0:
345,1,52926,1,0,1:0:0:0:
269,247,53073,2,0,L|276:141,1,106.25,10|0,0:0|0:0,0:0:0:0:
433,38,53367,2,0,L|440:148,1,106.25,2|0,1:0|1:0,0:0:0:0:
463,329,53661,1,8,0:0:0:0:
512,203,53808,1,0,0:0:0:0:
269,247,53955,6,0,L|125:240,1,106.25,2|0,1:0|0:0,0:0:0:0:
356,334,54249,2,0,L|500:327,1,106.25,10|0,0:0|0:0,0:0:0:0:
289,149,54544,2,0,P|262:208|274:258,1,106.25,2|0,1:0|1:0,0:0:0:0:
342,71,54838,1,10,0:0:0:0:
342,71,54985,6,0,L|198:64,1,106.25,6|0,1:0|0:0,0:0:0:0:
36,52,55279,1,0,1:0:0:0:
194,151,55426,1,8,0:0:0:0:
115,1,55573,1,0,0:0:0:0:
41,222,55720,1,0,1:0:0:0:
119,96,55867,1,0,1:0:0:0:
164,321,56014,1,8,0:0:0:0:
218,243,56161,1,0,0:0:0:0:
58,330,56308,6,0,L|187:318,1,106.25,2|0,1:0|0:0,0:0:0:0:
396,297,56602,1,8,0:0:0:0:
218,243,56749,1,0,0:0:0:0:
405,191,56897,2,0,L|396:297,1,106.25,2|0,1:0|0:0,0:0:0:0:
328,137,57191,1,8,0:0:0:0:
500,147,57338,2,0,L|477:387,1,212.5,6|0,1:0|0:0,0:0:0:0:
218,243,57779,6,0,L|208:137,1,106.25,10|0,0:0|0:0,0:0:0:0:
313,374,58073,2,0,L|322:268,1,106.25,2|0,1:0|1:0,0:0:0:0:
335,99,58367,1,8,0:0:0:0:
147,173,58514,1,0,0:0:0:0:
225,348,58661,6,0,L|217:242,1,106.25,2|0,1:0|0:0,0:0:0:0:
335,99,58955,2,0,L|326:220,1,106.25,10|0,0:0|0:0,0:0:0:0:
147,173,59249,2,0,P|195:145|268:158,1,106.25,2|0,1:0|1:0,0:0:0:0:
430,238,59544,1,10,0:0:0:0:
209,343,59691,6,0,L|216:237,1,106.25,6|0,1:0|0:0,0:0:0:0:
231,46,59985,1,2,1:0:0:0:
42,166,60132,2,0,L|155:175,1,106.25,10|0,0:0|0:0,0:0:0:0:
441,92,60426,2,0,L|335:99,1,106.25,2|0,1:0|1:0,0:0:0:0:
127,90,60720,1,8,0:0:0:0:
314,191,60867,1,0,0:0:0:0:
231,46,61014,6,0,P|216:105|242:164,1,106.25,6|0,1:0|1:0,0:0:0:0:
401,243,61308,2,0,P|357:200|293:193,1,106.25,8|0,0:0|0:0,0:0:0:0:
146,292,61602,2,0,P|204:275|242:223,1,106.25,2|0,1:0|1:0,0:0:0:0:
336,100,61897,1,10,0:0:0:0:
145,90,62044,6,0,L|152:203,1,106.25,6|0,1:0|0:0,0:0:0:0:
167,384,62338,1,0,1:0:0:0:
243,138,62485,2,0,L|235:243,1,106.25,10|0,0:0|0:0,0:0:0:0:
79,347,62779,2,0,L|71:241,1,106.25,2|0,1:0|1:0,0:0:0:0:
49,56,63073,1,8,0:0:0:0:
0,182,63220,1,0,0:0:0:0:
243,138,63367,6,0,L|387:145,1,106.25,2|0,1:0|0:0,0:0:0:0:
156,51,63661,2,0,L|12:58,1,106.25,10|0,0:0|0:0,0:0:0:0:
223,236,63955,2,0,P|250:177|238:127,1,106.25,2|0,1:0|0:0,0:0:0:0:
170,314,64249,1,10,0:0:0:0:
170,314,64397,6,0,L|314:321,1,106.25,6|0,1:0|0:0,0:0:0:0:
476,333,64691,1,0,1:0:0:0:
318,234,64838,1,8,0:0:0:0:
397,384,64985,1,0,0:0:0:0:
471,163,65132,1,8,0:0:0:0:
393,289,65279,1,0,1:0:0:0:
348,64,65426,1,8,0:0:0:0:
294,142,65573,1,0,1:0:0:0:
454,55,65720,6,0,L|325:67,1,106.25,6|0,1:0|0:0,0:0:0:0:
116,88,66014,1,8,0:0:0:0:
294,142,66161,1,0,1:0:0:0:
106,193,66308,2,0,L|115:87,1,106.25,10|0,0:0|1:0,0:0:0:0:
194,242,66602,1,8,0:0:0:0:
20,150,66749,1,2,1:0:0:0:
204,159,66897,5,10,0:0:0:0:
116,276,67044,1,0,1:0:0:0:
114,87,67191,5,8,0:0:0:0:
268,281,67338,1,0,1:0:0:0:
263,101,67485,5,10,0:0:0:0:
194,242,67632,1,0,1:0:0:0:
198,49,67779,5,10,0:0:0:0:
295,179,67926,1,2,1:0:0:0:
306,20,68073,5,8,0:0:0:0:
204,159,68220,1,2,1:0:0:0:
355,107,68367,5,10,0:0:0:0:
134,101,68514,1,0,1:0:0:0:
295,179,68661,5,8,0:0:0:0:
84,169,68808,1,2,1:0:0:0:
269,95,68955,5,8,0:0:0:0:
50,93,69102,1,0,1:0:0:0:
176,279,69249,5,10,0:0:0:0:
204,159,69397,1,0,1:0:0:0:
165,303,69544,5,8,0:0:0:0:
84,169,69691,1,2,1:0:0:0:
254,257,69838,5,10,0:0:0:0:
134,101,69985,1,0,1:0:0:0:
153,328,70132,5,10,0:0:0:0:
204,159,70279,1,2,1:0:0:0:
47,243,70426,5,8,0:0:0:0:
246,336,70573,1,0,1:0:0:0:
33,328,70720,5,10,0:0:0:0:
254,257,70867,2,0,P|313:283|329:330,1,106.25,2|10,1:0|0:0,0:0:0:0:
160,238,71161,1,2,1:0:0:0:
335,197,71308,1,8,0:0:0:0:
246,336,71455,1,0,1:0:0:0:
263,101,71602,6,0,L|374:93,1,106.25,10|0,0:0|1:0,0:0:0:0:
316,286,71897,2,0,L|205:278,1,106.25,8|0,0:0|1:0,0:0:0:0:
375,214,72191,6,0,P|408:272|385:342,1,106.25,10|0,0:0|1:0,0:0:0:0:
202,170,72485,2,0,P|169:112|192:42,1,106.25,8|0,0:0|1:0,0:0:0:0:
431,30,72768,5,10,0:0:0:0:
263,101,72915,1,0,1:0:0:0:
342,265,73062,5,8,0:0:0:0:
358,92,73209,1,0,1:0:0:0:
259,235,73356,5,10,0:2:0:0:
438,171,73503,1,0,1:0:0:0:
407,334,73650,5,8,0:0:0:0:
358,92,73797,1,0,1:0:0:0:
236,326,73944,6,0,L|115:316,1,85,10|0,0:0|1:0,0:0:0:0:
259,235,74238,2,0,L|373:227,1,85,8|0,0:0|1:0,0:0:0:0:
203,158,74532,5,10,0:0:0:0:
236,326,74679,1,0,1:0:0:0:
279,97,74826,5,8,0:0:0:0:
167,263,74973,1,0,1:0:0:0:
328,178,75120,6,0,L|324:286,1,85,10|0,0:0|1:0,0:0:0:0:
203,158,75415,2,0,L|200:62,1,85,8|0,0:0|1:0,0:0:0:0:
257,215,75709,1,10,0:0:0:0:
130,194,75856,1,0,1:0:0:0:
328,178,76003,1,8,3:0:0:0:
203,158,76150,1,4,3:0:0:0:
139,321,76310,6,0,L|128:172,1,127.500004863739,6|0,1:0|0:0,0:0:0:0:
228,365,76898,2,0,L|239:216,1,127.500004863739,2|0,0:0|0:0,0:0:0:0:
23,338,77486,6,0,P|71:352|143:315,1,127.500004863739,6|0,1:0|0:0,0:0:0:0:
293,220,78074,1,2,0:0:0:0:
293,220,78221,2,0,P|245:234|173:197,1,127.500004863739,0|0,0:0|0:0,0:0:0:0:
115,133,78662,6,0,L|219:116,1,85,6|2,1:0|1:0,0:0:0:0:
312,38,78957,1,2,0:0:0:0:
372,117,79104,2,0,L|388:225,1,85,2|8,1:0|0:0,0:0:0:0:
286,122,79398,1,2,1:0:0:0:
243,205,79545,2,0,L|230:289,1,85,2|0,1:0|0:0,0:0:0:0:
72,245,79839,5,2,1:0:0:0:
147,304,79986,1,2,1:0:0:0:
72,245,80133,1,2,0:0:0:0:
147,304,80280,2,0,L|252:284,1,85,2|8,1:0|0:0,0:0:0:0:
151,206,80574,1,2,1:0:0:0:
234,170,80721,2,0,L|339:190,1,85,2|0,1:0|0:0,0:0:0:0:
414,78,81015,6,0,L|437:266,1,170,6|2,1:0|0:0,0:0:0:0:
317,185,81457,2,0,L|311:279,1,85,2|8,1:0|0:0,0:0:0:0:
234,170,81751,1,2,1:0:0:0:
151,206,81898,2,0,L|156:290,1,85,2|0,1:0|0:0,0:0:0:0:
311,269,82192,5,2,1:0:0:0:
239,306,82339,1,2,1:0:0:0:
311,269,82486,1,2,0:0:0:0:
239,306,82633,2,0,L|134:286,1,85,2|8,1:0|0:0,0:0:0:0:
235,208,82927,1,2,1:0:0:0:
171,158,83074,2,0,L|66:178,1,85,2|0,1:0|0:0,0:0:0:0:
235,46,83368,6,0,L|418:24,1,170,6|2,1:0|0:0,0:0:0:0:
317,119,83810,2,0,L|410:138,1,85,2|10,1:0|0:0,0:0:0:0:
325,241,84104,1,2,1:0:0:0:
415,219,84251,2,0,L|498:201,1,85,2|0,1:0|0:0,0:0:0:0:
245,156,84545,5,2,1:0:0:0:
317,119,84692,1,2,1:0:0:0:
245,156,84839,1,2,0:0:0:0:
317,119,84986,2,0,L|422:139,1,85,2|10,1:0|0:0,0:0:0:0:
321,217,85280,1,2,1:0:0:0:
385,267,85427,2,0,L|490:247,1,85,2|0,1:0|0:0,0:0:0:0:
203,299,85721,6,0,P|194:196|75:298,1,318.750012159348,2|0,1:0|0:0,0:0:0:0:
